(Score) Красная армия / Red Army (by Christophe Beck, Leo Birenberg) - 2015 (2014), FLAC (tracks+.cue), lossless


Статистика раздачи [Обновить пиров]
Размер:  238 MB   |    Зарегистрирован:  1 год 1 месяц   |    Скачан:  1 раз

Полного источника не было: 2 месяца 9 дней

Личеров:  3  [  0 KB/s  ]   Подробная статистика пиров
 
   
 
 
 

[Цитировать]

Красная армия / Red Army
Жанр: Score
Композитор: Christophe Beck, Leo Birenberg
Год выпуска диска: 2015
Год выпуска фильма: 2014
Страна-производитель диска: США
Издатель (лейбл): Milan Records
Номер по каталогу: M2-36718
Аудиокодек: FLAC (*.flac)
Тип рипа: tracks+.cue
Битрейт аудио: lossless
Продолжительность: 44:13
Источник: ослосеть
Наличие сканов в содержимом раздачи: да
Треклист:
01. Red Army (1:46)
02. Soviet Russia (1:54)
03. Tarasov (2:34)
04. The Russian Playing Style (5:53)
05. Defeat (3:24)
06. The Greatest Five Man Unit (3:48)
07. Brotherhood (1:10)
08. Anatoly (2:18)
09. Captain Fetisov (2:22)
10. Tikhonov (2:54)
11. KGB (2:38)
12. Tretiak Retires (2:54)
13. Mogilny Defects (1:06)
14. NHL (1:39)
15 Minister of defense (1:25)
16. Forgiveness (4:56)
17. End credits (1:28)

Лог создания рипа

Exact Audio Copy V1.0 beta 6 from 9. April 2015
EAC extraction logfile from 14. May 2015, 20:34
Christophe Beck & Leo Birenberg / Red Army
Used drive : HL-DT-STBD-RE BH16NS40 Adapter: 1 ID: 0
Read mode : SecureUtilize accurate stream : YesDefeat audio cache : YesMake use of C2 pointers : No
Read offset correction : 6Overread into Lead-In and Lead-Out : NoFill up missing offset samples with silence : YesDelete leading and trailing silent blocks : NoNull samples used in CRC calculations : YesUsed interface : Native Win32 interface for Win NT & 2000Gap handling : Appended to previous track
Used output format : User Defined EncoderSelected bitrate : 896 kBit/sQuality : HighAdd ID3 tag : NoCommand line compressor : C:\Users\usuario\Documents\Mis archivos recibidos\Audio Codecs\FLAC\win32\flac.exeAdditional command line options : -8 -V -T "artist=%artist%" -T "title=%title%" -T "album=%albumtitle%" -T "date=%year%" -T "tracknumber=%tracknr%" -T "genre=%genre%" %source%
TOC of the extracted CD
Track | Start | Length | Start sector | End sector --------------------------------------------------------- 1 | 0:00.00 | 1:46.26 | 0 | 7975 2 | 1:46.26 | 1:54.46 | 7976 | 16571 3 | 3:40.72 | 2:34.64 | 16572 | 28185 4 | 6:15.61 | 5:53.16 | 28186 | 54676 5 | 12:09.02 | 3:24.24 | 54677 | 70000 6 | 15:33.26 | 3:48.22 | 70001 | 87122 7 | 19:21.48 | 1:10.42 | 87123 | 92414 8 | 20:32.15 | 2:18.12 | 92415 | 102776 9 | 22:50.27 | 2:21.54 | 102777 | 113405 10 | 25:12.06 | 2:54.42 | 113406 | 126497 11 | 28:06.48 | 2:38.00 | 126498 | 138347 12 | 30:44.48 | 2:54.12 | 138348 | 151409 13 | 33:38.60 | 1:06.74 | 151410 | 156433 14 | 34:45.59 | 1:39.12 | 156434 | 163870 15 | 36:24.71 | 1:24.48 | 163871 | 170218 16 | 37:49.44 | 4:55.41 | 170219 | 192384 17 | 42:45.10 | 1:28.10 | 192385 | 198994
Track 1
Filename C:\Users\usuario\Documents\Carátulas\Christophe Beck & Leo Birenberg - Red army (FLAC)\01 Red army.wav
Pre-gap length 0:00:02.00
Peak level 97.6 % Extraction speed 3.6 X Track quality 100.0 % Test CRC 3885A152 Copy CRC 3885A152 Copy OK
Track 2
Filename C:\Users\usuario\Documents\Carátulas\Christophe Beck & Leo Birenberg - Red army (FLAC)\02 Soviet Russia.wav
Peak level 98.8 % Extraction speed 3.8 X Track quality 100.0 % Test CRC D101FE78 Copy CRC D101FE78 Copy OK
Track 3
Filename C:\Users\usuario\Documents\Carátulas\Christophe Beck & Leo Birenberg - Red army (FLAC)\03 Tarasov.wav
Peak level 97.7 % Extraction speed 3.5 X Track quality 100.0 % Test CRC 9F774AF3 Copy CRC 9F774AF3 Copy OK
Track 4
Filename C:\Users\usuario\Documents\Carátulas\Christophe Beck & Leo Birenberg - Red army (FLAC)\04 The russian playing style.wav
Peak level 100.0 % Extraction speed 4.8 X Track quality 99.9 % Test CRC 7DB0E4A3 Copy CRC 7DB0E4A3 Copy OK
Track 5
Filename C:\Users\usuario\Documents\Carátulas\Christophe Beck & Leo Birenberg - Red army (FLAC)\05 Defeat.wav
Peak level 97.8 % Extraction speed 5.2 X Track quality 100.0 % Test CRC 7ABBA5C8 Copy CRC 7ABBA5C8 Copy OK
Track 6
Filename C:\Users\usuario\Documents\Carátulas\Christophe Beck & Leo Birenberg - Red army (FLAC)\06 The greatest five man unit.wav
Peak level 100.0 % Extraction speed 5.9 X Track quality 100.0 % Test CRC 7A8E4F12 Copy CRC 7A8E4F12 Copy OK
Track 7
Filename C:\Users\usuario\Documents\Carátulas\Christophe Beck & Leo Birenberg - Red army (FLAC)\07 Brotherhood.wav
Peak level 97.6 % Extraction speed 4.2 X Track quality 100.0 % Test CRC B17D0034 Copy CRC B17D0034 Copy OK
Track 8
Filename C:\Users\usuario\Documents\Carátulas\Christophe Beck & Leo Birenberg - Red army (FLAC)\08 Anatoly.wav
Peak level 97.5 % Extraction speed 5.4 X Track quality 100.0 % Test CRC 6218B63F Copy CRC 6218B63F Copy OK
Track 9
Filename C:\Users\usuario\Documents\Carátulas\Christophe Beck & Leo Birenberg - Red army (FLAC)\09 Captain Fetisov.wav
Peak level 97.8 % Extraction speed 4.8 X Track quality 99.9 % Test CRC 9571EECF Copy CRC 9571EECF Copy OK
Track 10
Filename C:\Users\usuario\Documents\Carátulas\Christophe Beck & Leo Birenberg - Red army (FLAC)\10 Tikhonov.wav
Peak level 99.7 % Extraction speed 5.9 X Track quality 100.0 % Test CRC E8E00BB1 Copy CRC E8E00BB1 Copy OK
Track 11
Filename C:\Users\usuario\Documents\Carátulas\Christophe Beck & Leo Birenberg - Red army (FLAC)\11 KGB.wav
Peak level 97.8 % Extraction speed 5.0 X Track quality 99.9 % Test CRC EF20A241 Copy CRC EF20A241 Copy OK
Track 12
Filename C:\Users\usuario\Documents\Carátulas\Christophe Beck & Leo Birenberg - Red army (FLAC)\12 Tretiak retires.wav
Peak level 97.6 % Extraction speed 6.4 X Track quality 100.0 % Test CRC 5DE88D6A Copy CRC 5DE88D6A Copy OK
Track 13
Filename C:\Users\usuario\Documents\Carátulas\Christophe Beck & Leo Birenberg - Red army (FLAC)\13 Mogilny defects.wav
Peak level 98.7 % Extraction speed 4.7 X Track quality 100.0 % Test CRC 17896FA7 Copy CRC 17896FA7 Copy OK
Track 14
Filename C:\Users\usuario\Documents\Carátulas\Christophe Beck & Leo Birenberg - Red army (FLAC)\14 NHL.wav
Peak level 97.9 % Extraction speed 5.7 X Track quality 100.0 % Test CRC 5591BA60 Copy CRC 5591BA60 Copy OK
Track 15
Filename C:\Users\usuario\Documents\Carátulas\Christophe Beck & Leo Birenberg - Red army (FLAC)\15 Minister of defense.wav
Peak level 98.0 % Extraction speed 3.9 X Track quality 99.8 % Test CRC 378A5EA2 Copy CRC 378A5EA2 Copy OK
Track 16
Filename C:\Users\usuario\Documents\Carátulas\Christophe Beck & Leo Birenberg - Red army (FLAC)\16 Forgiveness.wav
Peak level 97.7 % Extraction speed 6.8 X Track quality 100.0 % Test CRC 81282990 Copy CRC 81282990 Copy OK
Track 17
Filename C:\Users\usuario\Documents\Carátulas\Christophe Beck & Leo Birenberg - Red army (FLAC)\17 End credits.wav
Peak level 100.0 % Extraction speed 5.8 X Track quality 100.0 % Test CRC 041AB11B Copy CRC 041AB11B Copy OK
No errors occurred
End of status report
---- CUETools DB Plugin V2.1.6
[CTDB TOCID: kPaAp8pdXmhiQ5WSKA_l1UQf45M-] foundSubmit result: kPaAp8pdXmhiQ5WSKA_l1UQf45M- has been uploadedTrack | CTDB Status 1 | (0/1) No match 2 | (0/1) No match 3 | (0/1) No match 4 | (0/1) No match 5 | (0/1) No match 6 | (0/1) No match 7 | (0/1) No match 8 | (0/1) No match 9 | (0/1) No match 10 | (0/1) No match 11 | (0/1) No match 12 | (0/1) No match 13 | (0/1) No match 14 | (0/1) No match 15 | (0/1) No match 16 | (0/1) No match 17 | (0/1) No match
==== Log checksum 9CE7141DAFB2D4CF7700BF3365C2930DE648F64228C439747E92BD22686766F6 ====

Содержание индексной карты (.CUE)

REM GENRE SoundtrackREM DATE 2015REM DISCID DB0A5D11REM COMMENT "ExactAudioCopy v1.0b6"PERFORMER "Christophe Beck & Leo Birenberg"TITLE "Red Army"FILE "01 Red army.flac" WAVE TRACK 01 AUDIO TITLE "Red army" PERFORMER "Christophe Beck & Leo Birenberg" INDEX 01 00:00:00FILE "02 Soviet Russia.flac" WAVE TRACK 02 AUDIO TITLE "Soviet Russia" PERFORMER "Christophe Beck & Leo Birenberg" INDEX 01 00:00:00FILE "03 Tarasov.flac" WAVE TRACK 03 AUDIO TITLE "Tarasov" PERFORMER "Christophe Beck & Leo Birenberg" INDEX 01 00:00:00FILE "04 The russian playing style.flac" WAVE TRACK 04 AUDIO TITLE "The russian playing style" PERFORMER "Christophe Beck & Leo Birenberg" INDEX 01 00:00:00FILE "05 Defeat.flac" WAVE TRACK 05 AUDIO TITLE "Defeat" PERFORMER "Christophe Beck & Leo Birenberg" INDEX 01 00:00:00FILE "06 The greatest five man unit.flac" WAVE TRACK 06 AUDIO TITLE "The greatest five man unit" PERFORMER "Christophe Beck & Leo Birenberg" INDEX 01 00:00:00FILE "07 Brotherhood.flac" WAVE TRACK 07 AUDIO TITLE "Brotherhood" PERFORMER "Christophe Beck & Leo Birenberg" INDEX 01 00:00:00FILE "08 Anatoly.flac" WAVE TRACK 08 AUDIO TITLE "Anatoly" PERFORMER "Christophe Beck & Leo Birenberg" INDEX 01 00:00:00FILE "09 Captain Fetisov.flac" WAVE TRACK 09 AUDIO TITLE "Captain Fetisov" PERFORMER "Christophe Beck & Leo Birenberg" INDEX 01 00:00:00FILE "10 Tikhonov.flac" WAVE TRACK 10 AUDIO TITLE "Tikhonov" PERFORMER "Christophe Beck & Leo Birenberg" INDEX 01 00:00:00FILE "11 KGB.flac" WAVE TRACK 11 AUDIO TITLE "KGB" PERFORMER "Christophe Beck & Leo Birenberg" INDEX 01 00:00:00FILE "12 Tretiak retires.flac" WAVE TRACK 12 AUDIO TITLE "Tretiak retires" PERFORMER "Christophe Beck & Leo Birenberg" INDEX 01 00:00:00FILE "13 Mogilny defects.flac" WAVE TRACK 13 AUDIO TITLE "Mogilny defects" PERFORMER "Christophe Beck & Leo Birenberg" INDEX 01 00:00:00FILE "14 NHL.flac" WAVE TRACK 14 AUDIO TITLE "NHL" PERFORMER "Christophe Beck & Leo Birenberg" INDEX 01 00:00:00FILE "15 Minister of defense.flac" WAVE TRACK 15 AUDIO TITLE "Minister of defense" PERFORMER "Christophe Beck & Leo Birenberg" INDEX 01 00:00:00FILE "16 Forgiveness.flac" WAVE TRACK 16 AUDIO TITLE "Forgiveness" PERFORMER "Christophe Beck & Leo Birenberg" INDEX 01 00:00:00FILE "17 End credits.flac" WAVE TRACK 17 AUDIO TITLE "End credits" PERFORMER "Christophe Beck & Leo Birenberg" INDEX 01 00:00:00

Скриншоты спектра частот (png)

[teatrix.ru].t10243.torrent 
Торрент: Зарегистрирован [ 2015-11-01 20:51 ] · 7C9B9D993BD71DE5376945DF40B5AC1FD7A35683

Скачать .torrent

Скачать

20 KB

Статус: проверено
Скачан: 1 раз
Размер: 238 MB
terms.php



Быстрый ответ

Имя:

      
Для отправки сообщений необходимо включить JavaScript
Показать сообщения:    

Текущее время: 10-Дек 17:38

Часовой пояс: UTC + 3


Вы можете начинать темы
Вы можете отвечать на сообщения
Вы не можете редактировать свои сообщения
Вы не можете удалять свои сообщения
Вы не можете голосовать в опросах
Вы не можете прикреплять файлы к сообщениям
Вы можете скачивать файлы