(Score) Дом призраков / В плену у призраков // Haunted (by Debbie Wiseman) - 1995, FLAC (image+.cue), lossless


Статистика раздачи [Обновить пиров]
Размер:  219 MB   |    Зарегистрирован:  1 год 1 месяц   |    Скачан:  0 раз

Полного источника не было: Никогда

Личеров:  6  [  0 KB/s  ]   Подробная статистика пиров
 
   
 
 
 

[Цитировать]

Дом призраков / В плену у призраков // Haunted
Жанр: Score
Композитор: Debbie Wiseman
Год выпуска диска: 1995
Год выпуска фильма: 1995
Страна-производитель диска: Великобритания
Издатель (лейбл): Silva Screen Filmtracks
Номер по каталогу: TRXCD 2002
Аудиокодек: FLAC (*.flac)
Тип рипа: image+.cue
Битрейт аудио: lossless
Продолжительность: 44:47
Источник: ослосеть
Наличие сканов в содержимом раздачи: нет
Треклист:
01. Underwater (01:09)
02. Juliet's Theme (04:03)
03. David at Edbrooke (01:38)
04. Life Portrait (01:44)
05. Spirits in the House (02:05)
06. The Mirage (02:48)
07. The Ghost Appears (02:41)
08. Missing Link (04:22)
09. Christina's Minuet (04:32)
10. Imagining Things (03:19)
11. Lovers (04:15)
12. Follow Me (01:42)
13. Discovery (02:26)
14. Together Forever (02:32)
15. Hand in Hand (01:20)
16. Christina Returns? (00:48)
17. Haunted (03:10)

Лог создания рипа

Exact Audio Copy V0.99 prebeta 3 from 28. July 2007
EAC extraction logfile from 24. October 2007, 21:00
Debbie Wiseman / Haunted
Used drive : PLEXTOR DVDR PX-760A Adapter: 3 ID: 0
Read mode : SecureUtilize accurate stream : YesDefeat audio cache : YesMake use of C2 pointers : No
Read offset correction : 30Overread into Lead-In and Lead-Out : YesFill up missing offset samples with silence : YesDelete leading and trailing silent blocks : NoNull samples used in CRC calculations : YesUsed interface : Installed external ASPI interface
Used output format : Internal WAV RoutinesSample format : 44.100 Hz; 16 Bit; Stereo
TOC of the extracted CD
Track | Start | Length | Start sector | End sector --------------------------------------------------------- 1 | 0:00.00 | 1:07.07 | 0 | 5031 2 | 1:07.07 | 4:03.43 | 5032 | 23299 3 | 5:10.50 | 1:39.50 | 23300 | 30774 4 | 6:50.25 | 1:44.12 | 30775 | 38586 5 | 8:34.37 | 2:02.50 | 38587 | 47786 6 | 10:37.12 | 2:50.33 | 47787 | 60569 7 | 13:27.45 | 2:41.46 | 60570 | 72690 8 | 16:09.16 | 4:23.21 | 72691 | 92436 9 | 20:32.37 | 4:34.45 | 92437 | 113031 10 | 25:07.07 | 3:16.56 | 113032 | 127787 11 | 28:23.63 | 4:17.69 | 127788 | 147131 12 | 32:41.57 | 1:40.72 | 147132 | 154703 13 | 34:22.54 | 2:27.39 | 154704 | 165767 14 | 36:50.18 | 2:32.49 | 165768 | 177216 15 | 39:22.67 | 1:22.12 | 177217 | 183378 16 | 40:45.04 | 0:49.04 | 183379 | 187057 17 | 41:34.08 | 3:12.48 | 187058 | 201505
Range status and errors
Selected range
Filename G:\Debbie Wiseman - Haunted OST (1995)\Debbie Wiseman - Haunted.wav
Peak level 100.0 % Range quality 100.0 % Test CRC 0E115965 Copy CRC 0E115965 Copy OK
No errors occurred
End of status report

Содержание индексной карты (.CUE)

REM DATE 1995REM DISCID DF0A7E11REM GENRE SoundtrackPERFORMER "Debbie Wiseman"TITLE "Haunted"FILE "Debbie Wiseman - Haunted.flac" WAVE TRACK 01 AUDIO TITLE "Underwater" PERFORMER "Debbie Wiseman" INDEX 01 00:00:00 TRACK 02 AUDIO TITLE "Juliet's Theme" PERFORMER "Debbie Wiseman" INDEX 01 01:07:07 TRACK 03 AUDIO TITLE "David At Edbrook" PERFORMER "Debbie Wiseman" INDEX 01 05:10:50 TRACK 04 AUDIO TITLE "Life Portrait" PERFORMER "Debbie Wiseman" INDEX 01 06:50:25 TRACK 05 AUDIO TITLE "Spirits In The House" PERFORMER "Debbie Wiseman" INDEX 01 08:34:37 TRACK 06 AUDIO TITLE "The Mirage" PERFORMER "Debbie Wiseman" INDEX 01 10:37:12 TRACK 07 AUDIO TITLE "The Ghost Appears" PERFORMER "Debbie Wiseman" INDEX 01 13:27:45 TRACK 08 AUDIO TITLE "Missing Link" PERFORMER "Debbie Wiseman" INDEX 01 16:09:16 TRACK 09 AUDIO TITLE "Christina's Minuet" PERFORMER "Debbie Wiseman" INDEX 01 20:32:37 TRACK 10 AUDIO TITLE "Imagining Things" PERFORMER "Debbie Wiseman" INDEX 01 25:07:07 TRACK 11 AUDIO TITLE "Lovers" PERFORMER "Debbie Wiseman" INDEX 01 28:23:63 TRACK 12 AUDIO TITLE "Follow Me" PERFORMER "Debbie Wiseman" INDEX 01 32:41:57 TRACK 13 AUDIO TITLE "Discovery" PERFORMER "Debbie Wiseman" INDEX 01 34:22:54 TRACK 14 AUDIO TITLE "Together Forever" PERFORMER "Debbie Wiseman" INDEX 01 36:50:18 TRACK 15 AUDIO TITLE "Hand In Hand" PERFORMER "Debbie Wiseman" INDEX 01 39:22:67 TRACK 16 AUDIO TITLE "Christina Returns?" PERFORMER "Debbie Wiseman" INDEX 01 40:45:04 TRACK 17 AUDIO TITLE "Haunted" PERFORMER "Debbie Wiseman" INDEX 01 41:34:08

Лог проверки качества

Started at: понедельник, 26. 10. 2015. - 1:50.14
1 file found, 1 file left after filtering
1 -===- C:\!_TORRENT\Debbie Wiseman - Haunted (1995) [FLAC]\Debbie Wiseman - Haunted.flac Extracted successfully Conclusion: This track looks like CDDA with probability 58% Tempfile successfully deleted.
Finished at: понедельник, 26. 10. 2015. - 1:55.41 (operation time: 0:05.27)

Скриншоты спектра частот (png)

[teatrix.ru].t10244.torrent 
Торрент: Зарегистрирован [ 2015-11-01 20:51 ] · F4C970A239C285649FFDD4516E33435D93810047

Скачать .torrent

Скачать

18 KB

Статус: проверено
Скачан: 0 раз
Размер: 219 MB
terms.php



Быстрый ответ

Имя:

      
Для отправки сообщений необходимо включить JavaScript
Показать сообщения:    

Текущее время: 10-Дек 13:46

Часовой пояс: UTC + 3


Вы можете начинать темы
Вы можете отвечать на сообщения
Вы не можете редактировать свои сообщения
Вы не можете удалять свои сообщения
Вы не можете голосовать в опросах
Вы не можете прикреплять файлы к сообщениям
Вы можете скачивать файлы