(Soundtrack / Score) Привычка жениться / The Marrying Man / Too Hot To Handle (by David Newman) - 1991, FLAC (tracks+.cue), lossless


Статистика раздачи [Обновить пиров]
Размер:  266 MB   |    Зарегистрирован:  1 год 1 месяц   |    Скачан:  0 раз

Полного источника не было: Никогда

Личеров:  6  [  0 KB/s  ]   Подробная статистика пиров
 
   
 
 
 

[Цитировать]

Привычка жениться / The Marrying Man / Too Hot To Handle-Жанр: Soundtrack / Score
Композитор: David Newman
Год выпуска диска: 1991
Производитель диска: Dureco, NL/F
Издатель (лейбл): Intercord ‎/ Hollywood Records ‎
Номер по каталогу: INT 845.166-Аудиокодек: FLAC (*.flac)
Тип рипа: tracks+.cue
Битрейт аудио: lossless
Продолжительность: 00:40:49
Источник: собственный рип
Наличие сканов в содержимом раздачи: да, 600 dpi-Ссылки: Кинопоиск | IMDB | Wikipedia | SoundtrackCollector

Треклист

01. David Newman / Main Title [0:01:57.42]
02. Kim Basinger / Let's Do It [0:03:36.60]
03. Tim Hauser / L.D.'s Bounce [0:02:09.33]
04. Kim Basinger / "Murder" He Says [0:02:37.07]
05. Kim Basinger / Honeysuckle Rose [0:03:14.60]
06. Alan Paul / You're Driving Me Crazy (What Did I Do?) [0:02:00.10]
07. David Newman / Backstage Beat-up [0:03:42.25]
08. Kim Basinger / Why Can't You Behave [0:03:41.30]
09. Kim Basinger / Satisfy My Soul [0:02:59.60]
10. Kim Basinger / Let's Do It (Reprise) [0:02:31.60]
11. David Newman / Run, Charley, Run! [0:04:49.15]
12. Tim Hauser / Mama Look A Boo Boo [0:02:51.70]
13. Kim Basinger / Love Is The Thing [0:04:47.23]

Лог создания рипа

Exact Audio Copy V1.1 from 23. June 2015
EAC extraction logfile from 24. October 2015, 12:19
Various Artists / Too Hot Too Handle
Used drive : PLEXTOR CD-R PX-230A Adapter: 1 ID: 0
Read mode : SecureUtilize accurate stream : YesDefeat audio cache : YesMake use of C2 pointers : No
Read offset correction : 738Overread into Lead-In and Lead-Out : NoFill up missing offset samples with silence : YesDelete leading and trailing silent blocks : NoNull samples used in CRC calculations : YesUsed interface : Native Win32 interface for Win NT & 2000Gap handling : Appended to previous track
Used output format : User Defined EncoderSelected bitrate : 1024 kBit/sQuality : HighAdd ID3 tag : NoCommand line compressor : C:\Program Files\Exact Audio Copy\Flac\flac.exeAdditional command line options : -6 -V -T "ARTIST=%artist%" -T "TITLE=%title%" -T "ALBUM=%albumtitle%" -T "DATE=%year%"-T "TRACKNUMBER=%tracknr%" -T "GENRE=%genre%" -T "COMMENT=%comment%" -T "ALBUMARTIST=%albuminterpret%" -T "COMPOSER=%composer%"-T "DISCNUMBER=%cdnumber%" -T "TOTALDISCS=%totalcds%" -T "TOTALTRACKS=%numtracks%" %source% -o %dest%
TOC of the extracted CD
Track | Start | Length | Start sector | End sector --------------------------------------------------------- 1 | 0:00.38 | 1:57.42 | 38 | 8854 2 | 1:58.05 | 3:36.60 | 8855 | 25114 3 | 5:34.65 | 2:09.33 | 25115 | 34822 4 | 7:44.23 | 2:37.07 | 34823 | 46604 5 | 10:21.30 | 3:14.60 | 46605 | 61214 6 | 13:36.15 | 2:00.10 | 61215 | 70224 7 | 15:36.25 | 3:42.25 | 70225 | 86899 8 | 19:18.50 | 3:41.30 | 86900 | 103504 9 | 23:00.05 | 2:59.60 | 103505 | 116989 10 | 25:59.65 | 2:31.60 | 116990 | 128374 11 | 28:31.50 | 4:49.15 | 128375 | 150064 12 | 33:20.65 | 2:51.70 | 150065 | 162959 13 | 36:12.60 | 4:47.23 | 162960 | 184507
Track 1
Filename C:\Music\01 - David Newman - Main Title.wav
Pre-gap length 0:00:02.38
Peak level 85.6 % Extraction speed 3.7 X Track quality 100.0 % Test CRC 849C456E Copy CRC 849C456E Accurately ripped (confidence 3) [03721DBE] (AR v1) Copy OK
Track 2
Filename C:\Music\02 - Kim Basinger - Let's Do It.wav
Pre-gap length 0:00:01.35
Peak level 88.9 % Extraction speed 3.7 X Track quality 99.9 % Test CRC DCCE166D Copy CRC DCCE166D Accurately ripped (confidence 3) [A615B3CE] (AR v1) Copy OK
Track 3
Filename C:\Music\03 - Tim Hauser - L.D.'s Bounce.wav
Pre-gap length 0:00:02.02
Peak level 88.9 % Extraction speed 3.1 X Track quality 99.9 % Test CRC 9F482C1B Copy CRC 9F482C1B Accurately ripped (confidence 3) [8CE909AE] (AR v1) Copy OK
Track 4
Filename C:\Music\04 - Kim Basinger - ''Murder'' He Says.wav
Pre-gap length 0:00:01.40
Peak level 88.9 % Extraction speed 3.4 X Track quality 100.0 % Test CRC 91FCBB5A Copy CRC 91FCBB5A Accurately ripped (confidence 3) [49361F2B] (AR v1) Copy OK
Track 5
Filename C:\Music\05 - Kim Basinger - Honeysuckle Rose.wav
Pre-gap length 0:00:01.47
Peak level 83.4 % Extraction speed 3.6 X Track quality 100.0 % Test CRC AEE2B816 Copy CRC AEE2B816 Accurately ripped (confidence 3) [4A647C51] (AR v1) Copy OK
Track 6
Filename C:\Music\06 - Alan Paul - You're Driving Me Crazy (What Did I Do).wav
Pre-gap length 0:00:01.50
Peak level 84.2 % Extraction speed 3.1 X Track quality 99.9 % Test CRC 7248D6C2 Copy CRC 7248D6C2 Accurately ripped (confidence 3) [39325EBA] (AR v1) Copy OK
Track 7
Filename C:\Music\07 - David Newman - Backstage Beat-up.wav
Pre-gap length 0:00:01.12
Peak level 94.0 % Extraction speed 3.5 X Track quality 100.0 % Test CRC 4E213CDB Copy CRC 4E213CDB Accurately ripped (confidence 3) [113CA03A] (AR v1) Copy OK
Track 8
Filename C:\Music\08 - Kim Basinger - Why Can't You Behave.wav
Pre-gap length 0:00:01.60
Peak level 88.9 % Extraction speed 3.7 X Track quality 99.9 % Test CRC 85B0FE54 Copy CRC 85B0FE54 Accurately ripped (confidence 3) [3D42D89D] (AR v1) Copy OK
Track 9
Filename C:\Music\09 - Kim Basinger - Satisfy My Soul.wav
Pre-gap length 0:00:01.40
Peak level 88.9 % Extraction speed 3.5 X Track quality 100.0 % Test CRC 9648395B Copy CRC 9648395B Accurately ripped (confidence 3) [A2A28CBC] (AR v1) Copy OK
Track 10
Filename C:\Music\10 - Kim Basinger - Let's Do It (Reprise).wav
Pre-gap length 0:00:01.35
Peak level 88.9 % Extraction speed 3.9 X Track quality 100.0 % Test CRC 40EA59D0 Copy CRC 40EA59D0 Accurately ripped (confidence 3) [CEA94C17] (AR v1) Copy OK
Track 11
Filename C:\Music\11 - David Newman - Run, Charley, Run!.wav
Pre-gap length 0:00:01.27
Peak level 100.0 % Extraction speed 3.6 X Track quality 100.0 % Test CRC 49F2DFBF Copy CRC 49F2DFBF Accurately ripped (confidence 3) [CFD4924F] (AR v1) Copy OK
Track 12
Filename C:\Music\12 - Tim Hauser - Mama Look A Boo Boo.wav
Pre-gap length 0:00:01.27
Peak level 84.2 % Extraction speed 3.7 X Track quality 100.0 % Test CRC 68F264CF Copy CRC 68F264CF Accurately ripped (confidence 3) [CCF04B58] (AR v1) Copy OK
Track 13
Filename C:\Music\13 - Kim Basinger - Love Is The Thing.wav
Pre-gap length 0:00:01.47
Peak level 70.7 % Extraction speed 3.5 X Track quality 100.0 % Test CRC 7FBFE6F8 Copy CRC 7FBFE6F8 Accurately ripped (confidence 3) [217EB4E1] (AR v1) Copy OK
All tracks accurately ripped
No errors occurred
End of status report
---- CUETools DB Plugin V2.1.6
[CTDB TOCID: K6c2T_C4A0jVRIJV8ufqz2gyijI-] disk not present in databaseSubmit result: K6c2T_C4A0jVRIJV8ufqz2gyijI- has been uploaded
==== Log checksum BDA9A52776CCED14E308ED54B72ECD393CAB357BB5C2397466DE05F8062C2DD1 ====

Содержание индексной карты (.CUE)

REM GENRE SoundtrackREM DATE 1991REM DISCID 92099C0DREM COMMENT "ExactAudioCopy v1.1"PERFORMER "Various Artists"TITLE "Too Hot To Handle"FILE "01 - David Newman - Main Title.wav" WAVE TRACK 01 AUDIO TITLE "Main Title" PERFORMER "David Newman" PREGAP 00:00:38 INDEX 01 00:00:00 TRACK 02 AUDIO TITLE "Let's Do It" PERFORMER "Kim Basinger" INDEX 00 01:56:07FILE "02 - Kim Basinger - Let's Do It.wav" WAVE INDEX 01 00:00:00 TRACK 03 AUDIO TITLE "L.D.'s Bounce" PERFORMER "Tim Hauser " INDEX 00 03:34:58FILE "03 - Tim Hauser - L.D.'s Bounce.wav" WAVE INDEX 01 00:00:00 TRACK 04 AUDIO TITLE "'Murder' He Says" PERFORMER "Kim Basinger" INDEX 00 02:07:68FILE "04 - Kim Basinger - ''Murder'' He Says.wav" WAVE INDEX 01 00:00:00 TRACK 05 AUDIO TITLE "Honeysuckle Rose" PERFORMER "Kim Basinger" INDEX 00 02:35:35FILE "05 - Kim Basinger - Honeysuckle Rose.wav" WAVE INDEX 01 00:00:00 TRACK 06 AUDIO TITLE "You're Driving Me Crazy (What Did I Do?)" PERFORMER "Alan Paul" INDEX 00 03:13:10FILE "06 - Alan Paul - You're Driving Me Crazy (What Did I Do).wav" WAVE INDEX 01 00:00:00 TRACK 07 AUDIO TITLE "Backstage Beat-up" PERFORMER "David Newman" INDEX 00 01:58:73FILE "07 - David Newman - Backstage Beat-up.wav" WAVE INDEX 01 00:00:00 TRACK 08 AUDIO TITLE "Why Can't You Behave" PERFORMER "Kim Basinger" INDEX 00 03:40:40FILE "08 - Kim Basinger - Why Can't You Behave.wav" WAVE INDEX 01 00:00:00 TRACK 09 AUDIO TITLE "Satisfy My Soul" PERFORMER "Kim Basinger" INDEX 00 03:39:65FILE "09 - Kim Basinger - Satisfy My Soul.wav" WAVE INDEX 01 00:00:00 TRACK 10 AUDIO TITLE "Let's Do It (Reprise)" PERFORMER "Kim Basinger" INDEX 00 02:58:25FILE "10 - Kim Basinger - Let's Do It (Reprise).wav" WAVE INDEX 01 00:00:00 TRACK 11 AUDIO TITLE "Run, Charley, Run!" PERFORMER "David Newman" INDEX 00 02:30:33FILE "11 - David Newman - Run, Charley, Run!.wav" WAVE INDEX 01 00:00:00 TRACK 12 AUDIO TITLE "Mama Look A Boo Boo" PERFORMER "Tim Hauser" INDEX 00 04:47:63FILE "12 - Tim Hauser - Mama Look A Boo Boo.wav" WAVE INDEX 01 00:00:00 TRACK 13 AUDIO TITLE "Love Is The Thing" PERFORMER "Kim Basinger" INDEX 00 02:50:23FILE "13 - Kim Basinger - Love Is The Thing.wav" WAVE INDEX 01 00:00:00
[teatrix.ru].t10245.torrent 
Торрент: Зарегистрирован [ 2015-11-01 20:51 ] · B3DE7F7C5B16B61E8530CC0A7FE7164E7CCF79F8

Скачать .torrent

Скачать

23 KB

Статус: проверено
Скачан: 0 раз
Размер: 266 MB
terms.php



Быстрый ответ

Имя:

      
Для отправки сообщений необходимо включить JavaScript
Показать сообщения:    

Текущее время: 08-Дек 09:05

Часовой пояс: UTC + 3


Вы можете начинать темы
Вы можете отвечать на сообщения
Вы не можете редактировать свои сообщения
Вы не можете удалять свои сообщения
Вы не можете голосовать в опросах
Вы не можете прикреплять файлы к сообщениям
Вы можете скачивать файлы