(Score) Умри, но не сейчас / Die Another Day (007) (Die Another Day - Music From The MGM Motion Picture) (David Arnold) - 2002, FLAC (tracks+.cue), lossless


Статистика раздачи [Обновить пиров]
Размер:  456 MB   |    Зарегистрирован:  1 год 1 месяц   |    Скачан:  0 раз

Полного источника не было: Никогда

Личеров:  6  [  0 KB/s  ]   Подробная статистика пиров
 
   
 
 
 

[Цитировать]

.
.
Умри, но не сейчас
...................Die Another Day
.
Название альбома: Die Another Day - Music From The MGM Motion Picture
Жанр: Score / Electronic, Breakbeat, Trance, Modern Classical, Downtempo
Композитор: David Arnold
Год выпуска диска: 2002
Год выпуска фильма: 2002
Страна-производитель диска: Europe
Издатель (лейбл): Warner Bros. Records
Номер по каталогу: 9362 48348-2
Аудиокодек: FLAC (*.flac)
Тип рипа: tracks+.cue
Битрейт аудио: lossless
Продолжительность: 00:55:00 + video 00:08:39
Источник: собственный рип
Наличие сканов в содержимом раздачи: да - 600 dpi
.
.
.
Треклист:
01. Madonna - Die Another Day.
02. James Bond Theme (Bond Vs. Oakenfold).
03. On The Beach.
04. Hovercraft Chase.
05. Some Kind Of Hero.
06. Welcome To Cuba.
07. Jinx Jordan.
08. Jinx And James.
09. A Touch Of Frost.
10. Icarus.
11. Laser Fight.
12. Whiteout.
13. Iced Inc.
14. Antonov (Backing Vocals – Natacha Atlas).
15. Going Down Together.

Видео:
01. Madonna - Die Another Day.
02. Madonna - Die Another Day (Making Of).

Качество: DVDRip
Формат: MPEG-PS
Видео кодек: MPEG Video
Аудио кодек: MPEG Audio
Видео: MPEG-PS, 352x240, 4:3, 1307(kbps), 29,970(fps)
Аудио: MPEG Audio, 224(kbps), 48,0(kHz), 2(ch)

Лог создания рипа

Exact Audio Copy V1.0 beta 3 from 29. August 2011
Отчёт EAC об извлечении, выполненном 21. октября 2015, 8:20
Arnold, David / Die Another Day
Дисковод: DVDRW DRW-6S160P Adapter: 7 ID: 0
Режим чтения : ДостоверностьИспользование точного потока : ДаОтключение кэша аудио : ДаИспользование указателей C2 : Нет
Коррекция смещения при чтении : 6Способность читать области Lead-in и Lead-out : НетЗаполнение пропущенных сэмплов тишиной : ДаУдаление блоков с тишиной в начале и конце : НетПри вычислениях CRC использовались нулевые сэмплы : ДаИнтерфейс : Установленный внешний ASPI-интерфейсОбработка зазоров : Добавлено к предыдущему треку
Выходной формат : Пользовательский кодировщикВыбранный битрейт : 128 kBit/sКачество : ВысокийДобавление ID3-тега : НетУтилита сжатия : C:\Program Files\Exact Audio Copy\FLAC\FLAC.EXEДополнительные параметры : -V -8 -T "Genre=%genre%" -T "Artist=%artist%" -T "Title=%title%" -T "Album=%albumtitle%" -T "Date=%year%" -T "Tracknumber=%tracknr%" -T "Comment=%comment%" %source%
TOC извлечённого CD
Трек | Старт | Длительность | Начальный сектор | Конечный сектор --------------------------------------------------------------------- 1 | 0:00.00 | 4:38.67 | 0 | 20916 2 | 4:38.67 | 4:05.26 | 20917 | 39317 3 | 8:44.18 | 2:51.41 | 39318 | 52183 4 | 11:35.59 | 3:49.24 | 52184 | 69382 5 | 15:25.08 | 4:32.45 | 69383 | 89827 6 | 19:57.53 | 2:07.46 | 89828 | 99398 7 | 22:05.24 | 1:29.24 | 99399 | 106097 8 | 23:34.48 | 2:04.06 | 106098 | 115403 9 | 25:38.54 | 1:52.11 | 115404 | 123814 10 | 27:30.65 | 1:23.55 | 123815 | 130094 11 | 28:54.45 | 4:35.67 | 130095 | 150786 12 | 33:30.37 | 4:55.34 | 150787 | 172945 13 | 38:25.71 | 3:08.41 | 172946 | 187086 14 | 41:34.37 | 11:52.12 | 187087 | 240498 15 | 53:26.49 | 1:34.16 | 240499 | 247564 16 | 57:32.65 | 18:50.39 | 258965 | 343753
Трек 1
Имя файла I:\MOI_RAZDACI\David Arnold - Die Another Day\David.Arnold_Die.Another.Day_2002\01. Die Another Day.wav
Длина предзазора 0:00:02.00
Пиковый уровень 100.0 % Скорость извлечения 1.9 X Качество трека 99.9 % CRC теста 342282C2 CRC копии 342282C2 Точное извлечение (достоверность 21) [C9D4815C] (AR v2) Копирование... OK
Трек 2
Имя файла I:\MOI_RAZDACI\David Arnold - Die Another Day\David.Arnold_Die.Another.Day_2002\02. James Bond Theme (Bond Vs. Oakenfold).wav
Длина предзазора 0:00:00.31
Пиковый уровень 99.9 % Скорость извлечения 1.9 X Качество трека 99.9 % CRC теста 60B1221C CRC копии 60B1221C Точное извлечение (достоверность 20) [435EB682] (AR v2) Копирование... OK
Трек 3
Имя файла I:\MOI_RAZDACI\David Arnold - Die Another Day\David.Arnold_Die.Another.Day_2002\03. On The Beach.wav
Длина предзазора 0:00:02.34
Пиковый уровень 99.9 % Скорость извлечения 2.0 X Качество трека 100.0 % CRC теста 5727BB8B CRC копии 5727BB8B Точное извлечение (достоверность 20) [EDA342E3] (AR v2) Копирование... OK
Трек 4
Имя файла I:\MOI_RAZDACI\David Arnold - Die Another Day\David.Arnold_Die.Another.Day_2002\04. Hovercraft Chase.wav
Длина предзазора 0:00:01.29
Пиковый уровень 99.9 % Скорость извлечения 2.2 X Качество трека 100.0 % CRC теста 8EE2C210 CRC копии 8EE2C210 Точное извлечение (достоверность 20) [A847CDC9] (AR v2) Копирование... OK
Трек 5
Имя файла I:\MOI_RAZDACI\David Arnold - Die Another Day\David.Arnold_Die.Another.Day_2002\05. Some Kind Of Hero.wav
Длина предзазора 0:00:01.35
Пиковый уровень 99.9 % Скорость извлечения 2.0 X Качество трека 99.9 % CRC теста 040EF842 CRC копии 040EF842 Точное извлечение (достоверность 20) [B582E7C5] (AR v2) Копирование... OK
Трек 6
Имя файла I:\MOI_RAZDACI\David Arnold - Die Another Day\David.Arnold_Die.Another.Day_2002\06. Welcome To Cuba.wav
Длина предзазора 0:00:01.24
Пиковый уровень 99.8 % Скорость извлечения 1.9 X Качество трека 100.0 % CRC теста 7F8C877B CRC копии 7F8C877B Точное извлечение (достоверность 19) [6BDF6F89] (AR v2) Копирование... OK
Трек 7
Имя файла I:\MOI_RAZDACI\David Arnold - Die Another Day\David.Arnold_Die.Another.Day_2002\07. Jinx Jordan.wav
Длина предзазора 0:00:01.64
Пиковый уровень 99.9 % Скорость извлечения 1.4 X Качество трека 99.8 % CRC теста 36FFA6A1 CRC копии 36FFA6A1 Точное извлечение (достоверность 20) [239BE8B5] (AR v2) Копирование... OK
Трек 8
Имя файла I:\MOI_RAZDACI\David Arnold - Die Another Day\David.Arnold_Die.Another.Day_2002\08. Jinx And James.wav
Длина предзазора 0:00:00.69
Пиковый уровень 99.3 % Скорость извлечения 1.9 X Качество трека 100.0 % CRC теста 53718521 CRC копии 53718521 Точное извлечение (достоверность 20) [B0D8F933] (AR v2) Копирование... OK
Трек 9
Имя файла I:\MOI_RAZDACI\David Arnold - Die Another Day\David.Arnold_Die.Another.Day_2002\09. A Touch Of Frost.wav
Длина предзазора 0:00:01.23
Пиковый уровень 99.7 % Скорость извлечения 1.9 X Качество трека 100.0 % CRC теста 471F9C5D CRC копии 471F9C5D Точное извлечение (достоверность 20) [E7BA50AE] (AR v2) Копирование... OK
Трек 10
Имя файла I:\MOI_RAZDACI\David Arnold - Die Another Day\David.Arnold_Die.Another.Day_2002\10. Icarus.wav
Длина предзазора 0:00:01.69
Пиковый уровень 99.9 % Скорость извлечения 1.7 X Качество трека 100.0 % CRC теста EFBF5E6A CRC копии EFBF5E6A Точное извлечение (достоверность 19) [9556C2BF] (AR v2) Копирование... OK
Трек 11
Имя файла I:\MOI_RAZDACI\David Arnold - Die Another Day\David.Arnold_Die.Another.Day_2002\11. Laser Fight.wav
Длина предзазора 0:00:02.06
Пиковый уровень 99.7 % Скорость извлечения 2.0 X Качество трека 99.9 % CRC теста B21EC04A CRC копии B21EC04A Точное извлечение (достоверность 19) [84738866] (AR v2) Копирование... OK
Трек 12
Имя файла I:\MOI_RAZDACI\David Arnold - Die Another Day\David.Arnold_Die.Another.Day_2002\12. Whiteout.wav
Длина предзазора 0:00:00.68
Пиковый уровень 99.9 % Скорость извлечения 2.0 X Качество трека 99.9 % CRC теста A771A41E CRC копии A771A41E Точное извлечение (достоверность 20) [192F17C5] (AR v2) Копирование... OK
Трек 13
Имя файла I:\MOI_RAZDACI\David Arnold - Die Another Day\David.Arnold_Die.Another.Day_2002\13. Iced Inc.wav
Длина предзазора 0:00:00.66
Пиковый уровень 99.9 % Скорость извлечения 1.8 X Качество трека 99.9 % CRC теста AECA0F24 CRC копии AECA0F24 Точное извлечение (достоверность 20) [90FFEAD4] (AR v2) Копирование... OK
Трек 14
Имя файла I:\MOI_RAZDACI\David Arnold - Die Another Day\David.Arnold_Die.Another.Day_2002\14. Antonov.wav
Длина предзазора 0:00:01.06
Пиковый уровень 99.9 % Скорость извлечения 2.4 X Качество трека 100.0 % CRC теста D0EA62C3 CRC копии D0EA62C3 Точное извлечение (достоверность 19) [6C431964] (AR v2) Копирование... OK
Трек 15
Имя файла I:\MOI_RAZDACI\David Arnold - Die Another Day\David.Arnold_Die.Another.Day_2002\15. Going Down Together.wav
Длина предзазора 0:00:01.40
Пиковый уровень 99.9 % Скорость извлечения 1.8 X Качество трека 100.0 % CRC теста 164FA6EB CRC копии 164FA6EB Точное извлечение (достоверность 20) [C36739A5] (AR v2) Копирование... OK
Все треки извлечены точно
Ошибок не произошло
Конец отчёта
==== Контрольная сумма отчёта A35999FED3FD927E176DE158084D3B4919EE731D8231DC9E83BE27F539E72334 ====

Содержание индексной карты (.CUE)

REM GENRE SoundtrackREM DATE 2002REM DISCID DA11E710REM COMMENT "ExactAudioCopy v1.0b3"PERFORMER "Arnold, David"TITLE "Die Another Day"FILE "01. Die Another Day.wav" WAVE TRACK 01 AUDIO TITLE "Die Another Day" PERFORMER "Madonna" ISRC 5P4HA0202762 INDEX 01 00:00:00 TRACK 02 AUDIO TITLE "James Bond Theme (Bond Vs. Oakenfold)" PERFORMER "Oakenfold, Paul" ISRC 5P4HA0203762 INDEX 00 04:38:36FILE "02. James Bond Theme (Bond Vs. Oakenfold).wav" WAVE INDEX 01 00:00:00 TRACK 03 AUDIO TITLE "On The Beach" PERFORMER "Arnold, David" ISRC 5P4HA0203762 INDEX 00 04:02:67FILE "03. On The Beach.wav" WAVE INDEX 01 00:00:00 TRACK 04 AUDIO TITLE "Hovercraft Chase" PERFORMER "Arnold, David" ISRC 5P4HA0203762 INDEX 00 02:50:12FILE "04. Hovercraft Chase.wav" WAVE INDEX 01 00:00:00 TRACK 05 AUDIO TITLE "Some Kind Of Hero?" PERFORMER "Arnold, David" ISRC 5P4HA0203762 INDEX 00 03:47:64FILE "05. Some Kind Of Hero.wav" WAVE INDEX 01 00:00:00 TRACK 06 AUDIO TITLE "Welcome To Cuba" PERFORMER "Arnold, David" ISRC 5P4HA0203762 INDEX 00 04:31:21FILE "06. Welcome To Cuba.wav" WAVE INDEX 01 00:00:00 TRACK 07 AUDIO TITLE "Jinx Jordan" PERFORMER "Arnold, David" ISRC 5P4HA0203762 INDEX 00 02:05:57FILE "07. Jinx Jordan.wav" WAVE INDEX 01 00:00:00 TRACK 08 AUDIO TITLE "Jinx And James" PERFORMER "Arnold, David" ISRC 5P4HA0203762 INDEX 00 01:28:30FILE "08. Jinx And James.wav" WAVE INDEX 01 00:00:00 TRACK 09 AUDIO TITLE "A Touch Of Frost" PERFORMER "Arnold, David" ISRC 5P4HA0203762 INDEX 00 02:02:58FILE "09. A Touch Of Frost.wav" WAVE INDEX 01 00:00:00 TRACK 10 AUDIO TITLE "Icarus" PERFORMER "Arnold, David" ISRC 5P4HA0203762 INDEX 00 01:50:17FILE "10. Icarus.wav" WAVE INDEX 01 00:00:00 TRACK 11 AUDIO TITLE "Laser Fight" PERFORMER "Arnold, David" ISRC 5P4HA0203762 INDEX 00 01:21:49FILE "11. Laser Fight.wav" WAVE INDEX 01 00:00:00 TRACK 12 AUDIO TITLE "Whiteout" PERFORMER "Arnold, David" ISRC 5P4HA0203762 INDEX 00 04:34:74FILE "12. Whiteout.wav" WAVE INDEX 01 00:00:00 TRACK 13 AUDIO TITLE "Iced Inc" PERFORMER "Arnold, David" ISRC 5P4HA0203762 INDEX 00 04:54:43FILE "13. Iced Inc.wav" WAVE INDEX 01 00:00:00 TRACK 14 AUDIO TITLE "Antonov" PERFORMER "Arnold, David" ISRC 5P4HA0203762 INDEX 00 03:07:35FILE "14. Antonov.wav" WAVE INDEX 01 00:00:00 TRACK 15 AUDIO TITLE "Going Down Together" PERFORMER "Arnold, David" ISRC 5P4HA0203762 INDEX 00 11:50:47FILE "15. Going Down Together.wav" WAVE INDEX 01 00:00:00 TRACK 16 MODEx/2xxx TITLE "Data Track" PERFORMER "Arnold, David" INDEX 00 01:34:16

Лог проверки качества

-----------------------
DON'T MODIFY THIS FILE
-----------------------
PERFORMER: auCDtect Task Manager, ver. 1.5.1RC6 build 1.5.1.7Copyright (c) 2008-2010 y-soft. All rights reservedhttp://y-soft.org
ANALYZER: auCDtect: CD records authenticity detector, version 0.8.2Copyright (c) 2004 Oleg Berngardt. All rights reserved.Copyright (c) 2004 Alexander Djourik. All rights reserved.
FILE: 15. Going Down Together.flac Size: 8111527 Hash: A4D9BF7C1837B9890A2418B1D72AF732 Accuracy: -m0 Conclusion: CDDA 42% Signature: 823F63A50EB826D79B82A1DD26C945240030A199FILE: 14. Antonov.flac Size: 74082401 Hash: B506FF33ADF174DDF36E1958E77AA524 Accuracy: -m0 Conclusion: CDDA 100% Signature: 4AA33FE941FB9592FE7A7E0E5E6BAC5ACA265497FILE: 13. Iced Inc.flac Size: 23233397 Hash: A4A1AC6B7341CC5CB40C3CDE29F3BC81 Accuracy: -m0 Conclusion: CDDA 100% Signature: 5C3BAF804FA4C4DE01B77DC46CC9F24C98570517FILE: 12. Whiteout.flac Size: 34822987 Hash: 7217D43C5BE1CEFE933651FCB4004973 Accuracy: -m0 Conclusion: CDDA 100% Signature: 66A7B536563191D6212D889A5AEDCCAFD23C1558FILE: 11. Laser Fight.flac Size: 27263254 Hash: 3E97E1619ECA56C1940F87214052AE1F Accuracy: -m0 Conclusion: CDDA 92% Signature: 12D01DA8B1915871614C1B3C0744217CCA83F706FILE: 10. Icarus.flac Size: 6722236 Hash: 2E381D59BF2E8132742EEF6CD625E9F1 Accuracy: -m0 Conclusion: MPEG 80% Signature: F0A8DA55CDC50494AB4C1D4C87B945E3AFFE5101FILE: 09. A Touch Of Frost.flac Size: 9259177 Hash: 176BF82D78267AC4569698687782B11C Accuracy: -m0 Conclusion: ??? Signature: 39DEA75EBEBA4506ECC610D3D7005A5BA8E38507FILE: 08. Jinx And James.flac Size: 10791694 Hash: 8BEA7D4617607705E9B22089F8B4A486 Accuracy: -m0 Conclusion: CDDA 100% Signature: 312AF766FED0151B821DA3170B9D60A8DCA33023FILE: 07. Jinx Jordan.flac Size: 7294414 Hash: 63071E53FAA97BF1FD8489AFB571723D Accuracy: -m0 Conclusion: CDDA 85% Signature: CD9C6B9C4EC7D86AED2B7159873B0C72517B7E8BFILE: 06. Welcome To Cuba.flac Size: 15325936 Hash: 1483564B9F4F7889BC3980224DCE9977 Accuracy: -m0 Conclusion: CDDA 99% Signature: 5DEA307908D95A463A7B65EEBF2D84E0852B1D7DFILE: 05. Some Kind Of Hero.flac Size: 23168258 Hash: 9AD0318DB43A9EF01608182A3B275559 Accuracy: -m0 Conclusion: CDDA 42% Signature: 072D8FD1EA226D8615C4E581F70A939B3C8F53C2FILE: 04. Hovercraft Chase.flac Size: 28784070 Hash: 8867C685C9AE7DFA2740CCC95EDE4855 Accuracy: -m0 Conclusion: CDDA 100% Signature: 5C902E5AB5C03101E6953B0A447A6A3D3773F6D3FILE: 03. On The Beach.flac Size: 16665688 Hash: 5485A533C0D3AA0BCB456D64ED7D0F5D Accuracy: -m0 Conclusion: CDDA 43% Signature: 027C2CB1264BA8365355A889868DFDB87315A5ECFILE: 02. James Bond Theme (Bond Vs. Oakenfold).flac Size: 30662183 Hash: 9F68D72BF26827DBF01F8203EA7D44B6 Accuracy: -m0 Conclusion: CDDA 100% Signature: CD8469E04608689D7A1DE3F33A0E2D5B5BE5A1DEFILE: 01. Die Another Day.flac Size: 31829563 Hash: 5C7DD9D4766770C9520EEA286162D436 Accuracy: -m0 Conclusion: CDDA 100% Signature: E3C6A74983AD434F1CFF482D92C000A993D8F1E8

Скриншот спектра частот

.

Скриншоты

01. Die Another Day

02. Die Another Day (Making Of)

Video - MediaInfo (параметры всех видео идентичны)

ОбщееПолное имя : I:David.Arnold_Die.Another.Day_2002\video\01. Die Another Day.mpgФормат : MPEG-PSРазмер файла : 50,9 МбайтПродолжительность : 4 м. 35 с.Общий поток : 1551 Кбит/сек
ВидеоИдентификатор : 224 (0xE0)Формат : MPEG VideoВерсия формата : Version 1Параметр BVOP формата : ДаПараметр матрицы формата : По умолчаниюПараметр GOP формата : M=3, N=15Продолжительность : 4 м. 35 с.Битрейт : 1307 Кбит/секШирина : 352 пикселяВысота : 240 пикселейСоотношение сторон : 4:3Частота кадров : 29,970 кадров/секСтандарт вещания : NTSCЦветовое пространство : YUVСубдискретизация насыщенности : 4:2:0Битовая глубина : 8 битТип развёртки : ПрогрессивнаяМетод сжатия : С потерямиБит/(Пиксели*Кадры) : 0.516Временной код первого кадра : 00:00:00:00Оригинал временного кода : Group of pictures headerРазмер потока : 42,5 Мбайт (84%)
АудиоИдентификатор : 192 (0xC0)Формат : MPEG AudioВерсия формата : Version 1Профиль формата : Layer 2Продолжительность : 4 м. 34 с.Вид битрейта : ПостоянныйБитрейт : 224 Кбит/секКаналы : 2 каналаЧастота : 48,0 КГцМетод сжатия : С потерямиРазмер потока : 7,34 Мбайт (14%)
[teatrix.ru].t10246.torrent 
Торрент: Зарегистрирован [ 2015-11-01 20:51 ] · 565B36AE3D13C27689B304ACA3B58ED25899E911

Скачать .torrent

Скачать

20 KB

Статус: проверено
Скачан: 0 раз
Размер: 456 MB
terms.php



Быстрый ответ

Имя:

      
Для отправки сообщений необходимо включить JavaScript
Показать сообщения:    

Текущее время: 09-Дек 04:57

Часовой пояс: UTC + 3


Вы можете начинать темы
Вы можете отвечать на сообщения
Вы не можете редактировать свои сообщения
Вы не можете удалять свои сообщения
Вы не можете голосовать в опросах
Вы не можете прикреплять файлы к сообщениям
Вы можете скачивать файлы