(Score) 007: СПЕКТР / Spectre (by Thomas Newman) - 2015, FLAC (tracks+.cue), lossless


Статистика раздачи [Обновить пиров]
Размер:  388 MB   |    Зарегистрирован:  1 год 1 месяц   |    Скачан:  1 раз

Полного источника не было: 3 месяца 23 дня

Личеров:  7  [  0 KB/s  ]   Подробная статистика пиров
 
   
 
 
 

[Цитировать]

007: СПЕКТР / Spectre-Жанр: Score
Композитор: Thomas Newman
Год выпуска диска: 2015
Производитель диска: EU
Издатель (лейбл): Decca
Номер по каталогу: 4759509-Аудиокодек: FLAC (*.flac)
Тип рипа: tracks+.cue
Битрейт аудио: lossless (Mp3)
Продолжительность: 01:19:42
Источник: собственный рип
Наличие сканов в содержимом раздачи: да, 600 dpi-

Треклист

01. Los Muertos Vivos Estan - featuring Tambuco Percussion Ensemble [0:02:48.31]
02. Vauxhall Bridge [0:02:19.31]
03. The Eternal City [0:04:34.23]
04. Donna Lucia [0:02:02.64]
05. A Place Without Mercy [0:01:04.35]
06. Backfire [0:04:54.16]
07. Crows Klinik [0:01:41.25]
08. The Pale King [0:02:55.09]
09. Madeleine [0:02:58.24]
10. Kite In A Hurricane [0:02:08.67]
11. Snow Plane [0:05:24.00]
12. L'Americain [0:01:42.21]
13. Secret Room [0:05:22.26]
14. Hinx [0:01:20.65]
15. Writing's On The Wall (Instrumental Version) [0:02:10.13]
16. Silver Wraith [0:02:14.74]
17. A Reunion [0:05:35.60]
18. Day Of The Dead (featuring Tambuco Percussion Ensemble) [0:01:25.59]
19. Tempus Fugit [0:01:21.31]
20. Safe House [0:03:55.25]
21. Blindfold [0:01:27.38]
22. Careless [0:04:38.61]
23. Detonation [0:03:52.46]
24. Westminster Bridge [0:04:13.49]
25. Out Of Bullets [0:01:51.05]
26. Spectre (End Titles) [0:05:39.56]

Лог создания рипа

Exact Audio Copy V1.1 from 23. June 2015
EAC extraction logfile from 23. October 2015, 18:29
Thomas Newman / Spectre
Used drive : PLEXTOR CD-R PX-230A Adapter: 1 ID: 0
Read mode : SecureUtilize accurate stream : YesDefeat audio cache : YesMake use of C2 pointers : No
Read offset correction : 738Overread into Lead-In and Lead-Out : NoFill up missing offset samples with silence : YesDelete leading and trailing silent blocks : NoNull samples used in CRC calculations : YesUsed interface : Native Win32 interface for Win NT & 2000Gap handling : Appended to previous track
Used output format : User Defined EncoderSelected bitrate : 1024 kBit/sQuality : HighAdd ID3 tag : NoCommand line compressor : C:\Program Files\Exact Audio Copy\Flac\flac.exeAdditional command line options : -6 -V -T "ARTIST=%artist%" -T "TITLE=%title%" -T "ALBUM=%albumtitle%" -T "DATE=%year%" -T "TRACKNUMBER=%tracknr%" -T "GENRE=%genre%" -T "COMMENT=%comment%" -T "ALBUMARTIST=%albuminterpret%" -T "COMPOSER=%composer%" -T "DISCNUMBER=%cdnumber%" -T "TOTALDISCS=%totalcds%" -T "TOTALTRACKS=%numtracks%" %source% -o %dest%
TOC of the extracted CD
Track | Start | Length | Start sector | End sector --------------------------------------------------------- 1 | 0:00.00 | 2:48.31 | 0 | 12630 2 | 2:48.31 | 2:19.31 | 12631 | 23086 3 | 5:07.62 | 4:34.23 | 23087 | 43659 4 | 9:42.10 | 2:02.64 | 43660 | 52873 5 | 11:44.74 | 1:04.35 | 52874 | 57708 6 | 12:49.34 | 4:54.16 | 57709 | 79774 7 | 17:43.50 | 1:41.25 | 79775 | 87374 8 | 19:25.00 | 2:55.09 | 87375 | 100508 9 | 22:20.09 | 2:58.24 | 100509 | 113882 10 | 25:18.33 | 2:08.67 | 113883 | 123549 11 | 27:27.25 | 5:24.00 | 123550 | 147849 12 | 32:51.25 | 1:42.21 | 147850 | 155520 13 | 34:33.46 | 5:22.26 | 155521 | 179696 14 | 39:55.72 | 1:20.65 | 179697 | 185761 15 | 41:16.62 | 2:10.13 | 185762 | 195524 16 | 43:27.00 | 2:14.74 | 195525 | 205648 17 | 45:41.74 | 5:35.60 | 205649 | 230833 18 | 51:17.59 | 1:25.59 | 230834 | 237267 19 | 52:43.43 | 1:21.31 | 237268 | 243373 20 | 54:04.74 | 3:55.25 | 243374 | 261023 21 | 58:00.24 | 1:27.38 | 261024 | 267586 22 | 59:27.62 | 4:38.61 | 267587 | 288497 23 | 64:06.48 | 3:52.46 | 288498 | 305943 24 | 67:59.19 | 4:13.49 | 305944 | 324967 25 | 72:12.68 | 1:51.05 | 324968 | 333297 26 | 74:03.73 | 5:39.56 | 333298 | 358778
Track 1
Filename C:\Music\01 - Los Muertos Vivos Estan - featuring Tambuco Percussion Ensemble.wav
Pre-gap length 0:00:02.00
Peak level 99.6 % Extraction speed 3.3 X Track quality 100.0 % Test CRC 8E8625EA Copy CRC 8E8625EA Track not present in AccurateRip database Copy OK
Track 2
Filename C:\Music\02 - Vauxhall Bridge.wav
Peak level 93.5 % Extraction speed 3.2 X Track quality 99.9 % Test CRC 08EBB35A Copy CRC 08EBB35A Track not present in AccurateRip database Copy OK
Track 3
Filename C:\Music\03 - The Eternal City.wav
Peak level 86.1 % Extraction speed 3.6 X Track quality 100.0 % Test CRC F2E30348 Copy CRC F2E30348 Track not present in AccurateRip database Copy OK
Track 4
Filename C:\Music\04 - Donna Lucia.wav
Pre-gap length 0:00:00.42
Peak level 43.7 % Extraction speed 2.7 X Track quality 99.9 % Test CRC D9B6BB57 Copy CRC D9B6BB57 Track not present in AccurateRip database Copy OK
Track 5
Filename C:\Music\05 - A Place Without Mercy.wav
Pre-gap length 0:00:00.74
Peak level 64.1 % Extraction speed 3.1 X Track quality 100.0 % Test CRC B1B9F309 Copy CRC B1B9F309 Track not present in AccurateRip database Copy OK
Track 6
Filename C:\Music\06 - Backfire.wav
Pre-gap length 0:00:00.48
Peak level 99.5 % Extraction speed 3.6 X Track quality 100.0 % Test CRC C1AFA54F Copy CRC C1AFA54F Track not present in AccurateRip database Copy OK
Track 7
Filename C:\Music\07 - Crows Klinik.wav
Pre-gap length 0:00:00.52
Peak level 79.4 % Extraction speed 3.3 X Track quality 100.0 % Test CRC 71437C3C Copy CRC 71437C3C Track not present in AccurateRip database Copy OK
Track 8
Filename C:\Music\08 - The Pale King.wav
Pre-gap length 0:00:00.58
Peak level 100.0 % Extraction speed 3.7 X Track quality 100.0 % Test CRC 53CE2802 Copy CRC 53CE2802 Track not present in AccurateRip database Copy OK
Track 9
Filename C:\Music\09 - Madeleine.wav
Pre-gap length 0:00:00.24
Peak level 38.9 % Extraction speed 3.3 X Track quality 100.0 % Test CRC 31DA4F56 Copy CRC 31DA4F56 Track not present in AccurateRip database Copy OK
Track 10
Filename C:\Music\10 - Kite In A Hurricane.wav
Pre-gap length 0:00:01.57
Peak level 86.5 % Extraction speed 3.1 X Track quality 100.0 % Test CRC 4313231B Copy CRC 4313231B Track not present in AccurateRip database Copy OK
Track 11
Filename C:\Music\11 - Snow Plane.wav
Peak level 99.4 % Extraction speed 3.3 X Track quality 99.9 % Test CRC 1C881B2F Copy CRC 1C881B2F Track not present in AccurateRip database Copy OK
Track 12
Filename C:\Music\12 - L'Americain.wav
Pre-gap length 0:00:01.04
Peak level 47.2 % Extraction speed 2.8 X Track quality 100.0 % Test CRC 2EC0C5C3 Copy CRC 2EC0C5C3 Track not present in AccurateRip database Copy OK
Track 13
Filename C:\Music\13 - Secret Room.wav
Peak level 89.7 % Extraction speed 3.5 X Track quality 99.9 % Test CRC E66F4AAD Copy CRC E66F4AAD Track not present in AccurateRip database Copy OK
Track 14
Filename C:\Music\14 - Hinx.wav
Peak level 98.2 % Extraction speed 3.5 X Track quality 100.0 % Test CRC B09F61C7 Copy CRC B09F61C7 Track not present in AccurateRip database Copy OK
Track 15
Filename C:\Music\15 - Writing's On The Wall (Instrumental Version).wav
Peak level 88.8 % Extraction speed 3.5 X Track quality 100.0 % Test CRC A1159F2D Copy CRC A1159F2D Track not present in AccurateRip database Copy OK
Track 16
Filename C:\Music\16 - Silver Wraith.wav
Peak level 63.0 % Extraction speed 3.5 X Track quality 100.0 % Test CRC B65526BB Copy CRC B65526BB Track not present in AccurateRip database Copy OK
Track 17
Filename C:\Music\17 - A Reunion.wav
Pre-gap length 0:00:00.62
Peak level 97.8 % Extraction speed 3.6 X Track quality 100.0 % Test CRC 43BC25B1 Copy CRC 43BC25B1 Track not present in AccurateRip database Copy OK
Track 18
Filename C:\Music\18 - Day Of The Dead (featuring Tambuco Percussion Ensemble).wav
Peak level 68.1 % Extraction speed 3.1 X Track quality 100.0 % Test CRC 50DC9F81 Copy CRC 50DC9F81 Track not present in AccurateRip database Copy OK
Track 19
Filename C:\Music\19 - Tempus Fugit.wav
Peak level 99.1 % Extraction speed 2.9 X Track quality 100.0 % Test CRC 5614FD32 Copy CRC 5614FD32 Track not present in AccurateRip database Copy OK
Track 20
Filename C:\Music\20 - Safe House.wav
Peak level 99.8 % Extraction speed 3.6 X Track quality 100.0 % Test CRC 7A3193A4 Copy CRC 7A3193A4 Track not present in AccurateRip database Copy OK
Track 21
Filename C:\Music\21 - Blindfold.wav
Peak level 83.2 % Extraction speed 2.9 X Track quality 100.0 % Test CRC 449E6E25 Copy CRC 449E6E25 Track not present in AccurateRip database Copy OK
Track 22
Filename C:\Music\22 - Careless.wav
Peak level 98.4 % Extraction speed 3.2 X Track quality 100.0 % Test CRC 4ABF93F6 Copy CRC 4ABF93F6 Track not present in AccurateRip database Copy OK
Track 23
Filename C:\Music\23 - Detonation.wav
Pre-gap length 0:00:00.35
Peak level 98.7 % Extraction speed 3.1 X Track quality 100.0 % Test CRC F3781BAC Copy CRC F3781BAC Track not present in AccurateRip database Copy OK
Track 24
Filename C:\Music\24 - Westminster Bridge.wav
Peak level 98.6 % Extraction speed 3.1 X Track quality 99.9 % Test CRC 69ADABBB Copy CRC 69ADABBB Track not present in AccurateRip database Copy OK
Track 25
Filename C:\Music\25 - Out Of Bullets.wav
Pre-gap length 0:00:01.10
Peak level 29.1 % Extraction speed 3.6 X Track quality 100.0 % Test CRC D462ABE4 Copy CRC D462ABE4 Track not present in AccurateRip database Copy OK
Track 26
Filename C:\Music\26 - Spectre (End Titles).wav
Pre-gap length 0:00:01.33
Peak level 97.7 % Extraction speed 3.9 X Track quality 100.0 % Test CRC 50BF46D8 Copy CRC 50BF46D8 Track not present in AccurateRip database Copy OK
None of the tracks are present in the AccurateRip database
No errors occurred
End of status report
---- CUETools DB Plugin V2.1.6
[CTDB TOCID: sJWUUmgsNcm2GUOpnCms_GzE16A-] foundSubmit result: sJWUUmgsNcm2GUOpnCms_GzE16A- has been confirmedTrack | CTDB Status 1 | (1/1) Accurately ripped 2 | (1/1) Accurately ripped 3 | (1/1) Accurately ripped 4 | (1/1) Accurately ripped 5 | (1/1) Accurately ripped 6 | (1/1) Accurately ripped 7 | (1/1) Accurately ripped 8 | (1/1) Accurately ripped 9 | (1/1) Accurately ripped 10 | (1/1) Accurately ripped 11 | (1/1) Accurately ripped 12 | (1/1) Accurately ripped 13 | (1/1) Accurately ripped 14 | (1/1) Accurately ripped 15 | (1/1) Accurately ripped 16 | (1/1) Accurately ripped 17 | (1/1) Accurately ripped 18 | (1/1) Accurately ripped 19 | (1/1) Accurately ripped 20 | (1/1) Accurately ripped 21 | (1/1) Accurately ripped 22 | (1/1) Accurately ripped 23 | (1/1) Accurately ripped 24 | (1/1) Accurately ripped 25 | (1/1) Accurately ripped 26 | (1/1) Accurately ripped
==== Log checksum 0B5E0FC8636D22E170E4B316728137DA2EA47814A40A1D38293E7248A991D16C ====

Содержание индексной карты (.CUE)

REM GENRE SoundtrackREM DATE 2015REM DISCID 8E12AF1AREM COMMENT "ExactAudioCopy v1.1"PERFORMER "Thomas Newman"TITLE "Spectre"FILE "01 - Los Muertos Vivos Estan - featuring Tambuco Percussion Ensemble.wav" WAVE TRACK 01 AUDIO TITLE "Los Muertos Vivos Estan - featuring Tambuco Percussion Ensemble" PERFORMER "Thomas Newman" INDEX 01 00:00:00FILE "02 - Vauxhall Bridge.wav" WAVE TRACK 02 AUDIO TITLE "Vauxhall Bridge" PERFORMER "Thomas Newman" INDEX 01 00:00:00FILE "03 - The Eternal City.wav" WAVE TRACK 03 AUDIO TITLE "The Eternal City" PERFORMER "Thomas Newman" INDEX 01 00:00:00 TRACK 04 AUDIO TITLE "Donna Lucia" PERFORMER "Thomas Newman" INDEX 00 04:33:56FILE "04 - Donna Lucia.wav" WAVE INDEX 01 00:00:00 TRACK 05 AUDIO TITLE "A Place Without Mercy" PERFORMER "Thomas Newman" INDEX 00 02:01:65FILE "05 - A Place Without Mercy.wav" WAVE INDEX 01 00:00:00 TRACK 06 AUDIO TITLE "Backfire" PERFORMER "Thomas Newman" INDEX 00 01:03:62FILE "06 - Backfire.wav" WAVE INDEX 01 00:00:00 TRACK 07 AUDIO TITLE "Crows Klinik" PERFORMER "Thomas Newman" INDEX 00 04:53:39FILE "07 - Crows Klinik.wav" WAVE INDEX 01 00:00:00 TRACK 08 AUDIO TITLE "The Pale King" PERFORMER "Thomas Newman" INDEX 00 01:40:42FILE "08 - The Pale King.wav" WAVE INDEX 01 00:00:00 TRACK 09 AUDIO TITLE "Madeleine" PERFORMER "Thomas Newman" INDEX 00 02:54:60FILE "09 - Madeleine.wav" WAVE INDEX 01 00:00:00 TRACK 10 AUDIO TITLE "Kite In A Hurricane" PERFORMER "Thomas Newman" INDEX 00 02:56:42FILE "10 - Kite In A Hurricane.wav" WAVE INDEX 01 00:00:00FILE "11 - Snow Plane.wav" WAVE TRACK 11 AUDIO TITLE "Snow Plane" PERFORMER "Thomas Newman" INDEX 01 00:00:00 TRACK 12 AUDIO TITLE "L'Americain" PERFORMER "Thomas Newman" INDEX 00 05:22:71FILE "12 - L'Americain.wav" WAVE INDEX 01 00:00:00FILE "13 - Secret Room.wav" WAVE TRACK 13 AUDIO TITLE "Secret Room" PERFORMER "Thomas Newman" INDEX 01 00:00:00FILE "14 - Hinx.wav" WAVE TRACK 14 AUDIO TITLE "Hinx" PERFORMER "Thomas Newman" INDEX 01 00:00:00FILE "15 - Writing's On The Wall (Instrumental Version).wav" WAVE TRACK 15 AUDIO TITLE "Writing's On The Wall (Instrumental Version)" PERFORMER "Thomas Newman" INDEX 01 00:00:00FILE "16 - Silver Wraith.wav" WAVE TRACK 16 AUDIO TITLE "Silver Wraith" PERFORMER "Thomas Newman" INDEX 01 00:00:00 TRACK 17 AUDIO TITLE "A Reunion" PERFORMER "Thomas Newman" INDEX 00 02:14:12FILE "17 - A Reunion.wav" WAVE INDEX 01 00:00:00FILE "18 - Day Of The Dead (featuring Tambuco Percussion Ensemble).wav" WAVE TRACK 18 AUDIO TITLE "Day Of The Dead (featuring Tambuco Percussion Ensemble)" PERFORMER "Thomas Newman" INDEX 01 00:00:00FILE "19 - Tempus Fugit.wav" WAVE TRACK 19 AUDIO TITLE "Tempus Fugit" PERFORMER "Thomas Newman" INDEX 01 00:00:00FILE "20 - Safe House.wav" WAVE TRACK 20 AUDIO TITLE "Safe House" PERFORMER "Thomas Newman" INDEX 01 00:00:00FILE "21 - Blindfold.wav" WAVE TRACK 21 AUDIO TITLE "Blindfold" PERFORMER "Thomas Newman" INDEX 01 00:00:00FILE "22 - Careless.wav" WAVE TRACK 22 AUDIO TITLE "Careless" PERFORMER "Thomas Newman" INDEX 01 00:00:00 TRACK 23 AUDIO TITLE "Detonation" PERFORMER "Thomas Newman" INDEX 00 04:38:26FILE "23 - Detonation.wav" WAVE INDEX 01 00:00:00FILE "24 - Westminster Bridge.wav" WAVE TRACK 24 AUDIO TITLE "Westminster Bridge" PERFORMER "Thomas Newman" INDEX 01 00:00:00 TRACK 25 AUDIO TITLE "Out Of Bullets" PERFORMER "Thomas Newman" INDEX 00 04:12:39FILE "25 - Out Of Bullets.wav" WAVE INDEX 01 00:00:00 TRACK 26 AUDIO TITLE "Spectre (End Titles)" PERFORMER "Thomas Newman" INDEX 00 01:49:47FILE "26 - Spectre (End Titles).wav" WAVE INDEX 01 00:00:00
[teatrix.ru].t10248.torrent 
Торрент: Зарегистрирован [ 2015-11-01 20:51 ] · 9387A2F58D0D69370A9373C94713C3925A755351

Скачать .torrent

Скачать

33 KB

Статус: проверено
Скачан: 1 раз
Размер: 388 MB
terms.php



Быстрый ответ

Имя:

      
Для отправки сообщений необходимо включить JavaScript
Показать сообщения:    

Текущее время: 06-Дек 22:48

Часовой пояс: UTC + 3


Вы можете начинать темы
Вы можете отвечать на сообщения
Вы не можете редактировать свои сообщения
Вы не можете удалять свои сообщения
Вы не можете голосовать в опросах
Вы не можете прикреплять файлы к сообщениям
Вы можете скачивать файлы