(Score) Реликт / The Relic [Promo] (by John Debney) - 2000 (1997), WavPack (image+.cue), lossless


Статистика раздачи [Обновить пиров]
Размер:  213 MB   |    Зарегистрирован:  1 год 1 месяц   |    Скачан:  1 раз

Полного источника не было: 4 месяца 7 дней

Личеров:  6  [  0 KB/s  ]   Подробная статистика пиров
 
   
 
 
 

[Цитировать]

Реликт / The Relic
Жанр: Score
Композитор: John Debney
Год выпуска диска: 2000
Год выпуска фильма: 1997
Страна-производитель диска: США
Издатель (лейбл): Famous Music Inc.
Номер по каталогу: JDCD 006
Аудиокодек: WavPack (*.wv)
Тип рипа: image+.cue
Битрейт аудио: lossless
Продолжительность: 42:26
Источник: ослосеть
Наличие сканов в содержимом раздачи: да
Треклист:
01. The Relic (04:55)
02. Searching/First Attack (02:21)
03. Dark Hallway/The Jumper (01:25)
04. Grisly Discovery (01:54)
05. Tunnels (04:01)
06. Exhibit Preview (02:32)
07. Lights Out (02:44)
08. Stairway To Hell (01:07)
09. Patrons Arrive (01:15)
10. SWAT Team Attack (04:45)
11. Hormones (01:05)
12. Setting The Trap (02:31)
13. Face To Face (06:00)
14. Theme From "The Relic" (05:07)

Лог создания рипа

Exact Audio Copy V0.99 prebeta 5 from 4. May 2009
EAC extraction logfile from 20. October 2009, 3:57
John Debney / The Relic
Used drive : PLEXTOR DVDR PX-860SA Adapter: 0 ID: 1
Read mode : SecureUtilize accurate stream : YesDefeat audio cache : YesMake use of C2 pointers : No
Read offset correction : 96Overread into Lead-In and Lead-Out : NoFill up missing offset samples with silence : YesDelete leading and trailing silent blocks : NoNull samples used in CRC calculations : YesUsed interface : Installed external ASPI interface
Used output format : Internal WAV RoutinesSample format : 44.100 Hz; 16 Bit; Stereo
TOC of the extracted CD
Track | Start | Length | Start sector | End sector --------------------------------------------------------- 1 | 0:00.00 | 4:57.16 | 0 | 22290 2 | 4:57.16 | 2:24.74 | 22291 | 33164 3 | 7:22.15 | 1:28.36 | 33165 | 39800 4 | 8:50.51 | 1:57.49 | 39801 | 48624 5 | 10:48.25 | 4:03.71 | 48625 | 66920 6 | 14:52.21 | 2:34.58 | 66921 | 78528 7 | 17:27.04 | 2:47.32 | 78529 | 91085 8 | 20:14.36 | 1:10.14 | 91086 | 96349 9 | 21:24.50 | 1:18.36 | 96350 | 102235 10 | 22:43.11 | 4:48.35 | 102236 | 123870 11 | 27:31.46 | 1:07.54 | 123871 | 128949 12 | 28:39.25 | 2:33.42 | 128950 | 140466 13 | 31:12.67 | 6:03.55 | 140467 | 167746 14 | 37:16.47 | 5:09.57 | 167747 | 190978
Range status and errors
Selected range
Filename F:\EAC\John Debney - The Relic.wav
Peak level 99.8 % Range quality 100.0 % Copy CRC BB2A18DA Copy OK
No errors occurred
End of status report

Содержание индексной карты (.CUE)

REM GENRE SoundtrackREM DATE 1997REM DISCID C109F20EREM COMMENT "ExactAudioCopy v0.99pb5"PERFORMER "John Debney"TITLE "The Relic"FILE "John Debney - The Relic.wv" WAVE TRACK 01 AUDIO TITLE "The Relic" PERFORMER "John Debney" FLAGS DCP INDEX 01 00:00:00 TRACK 02 AUDIO TITLE "Searching / First Attack" PERFORMER "John Debney" FLAGS DCP INDEX 00 04:55:39 INDEX 01 04:57:16 TRACK 03 AUDIO TITLE "Dark Hallway / The Jumper" PERFORMER "John Debney" FLAGS DCP INDEX 00 07:19:39 INDEX 01 07:22:15 TRACK 04 AUDIO TITLE "Grisly Discovery" PERFORMER "John Debney" FLAGS DCP INDEX 00 08:47:74 INDEX 01 08:50:51 TRACK 05 AUDIO TITLE "Tunnels" PERFORMER "John Debney" FLAGS DCP INDEX 00 10:45:48 INDEX 01 10:48:25 TRACK 06 AUDIO TITLE "Exhibit Preview" PERFORMER "John Debney" FLAGS DCP INDEX 00 14:49:44 INDEX 01 14:52:21 TRACK 07 AUDIO TITLE "Lights Out" PERFORMER "John Debney" FLAGS DCP INDEX 00 17:25:12 INDEX 01 17:27:04 TRACK 08 AUDIO TITLE "Stairway the Hell" PERFORMER "John Debney" FLAGS DCP INDEX 00 20:11:59 INDEX 01 20:14:36 TRACK 09 AUDIO TITLE "Patrons Arrive" PERFORMER "John Debney" FLAGS DCP INDEX 00 21:21:74 INDEX 01 21:24:50 TRACK 10 AUDIO TITLE "Swat Team Attacks" PERFORMER "John Debney" FLAGS DCP INDEX 00 22:40:34 INDEX 01 22:43:11 TRACK 11 AUDIO TITLE "Hormones" PERFORMER "John Debney" FLAGS DCP INDEX 00 27:28:69 INDEX 01 27:31:46 TRACK 12 AUDIO TITLE "Setting the Trap" PERFORMER "John Debney" FLAGS DCP INDEX 00 28:37:33 INDEX 01 28:39:25 TRACK 13 AUDIO TITLE "Face to Face" PERFORMER "John Debney" FLAGS DCP INDEX 00 31:12:65 INDEX 01 31:12:67 TRACK 14 AUDIO TITLE "Theme from The Relic" PERFORMER "John Debney" FLAGS DCP INDEX 00 37:13:70 INDEX 01 37:16:47

Скриншоты спектра частот (png)

[teatrix.ru].t10251.torrent 
Торрент: Зарегистрирован [ 2015-11-01 20:51 ] · ADC8FDAA60E1B5D5E0A8A5E1498ED7F37D1F2702

Скачать .torrent

Скачать

17 KB

Статус: проверено
Скачан: 1 раз
Размер: 213 MB
terms.php



Быстрый ответ

Имя:

      
Для отправки сообщений необходимо включить JavaScript
Показать сообщения:    

Текущее время: 10-Дек 09:58

Часовой пояс: UTC + 3


Вы можете начинать темы
Вы можете отвечать на сообщения
Вы не можете редактировать свои сообщения
Вы не можете удалять свои сообщения
Вы не можете голосовать в опросах
Вы не можете прикреплять файлы к сообщениям
Вы можете скачивать файлы