(Score / Television) BBC: Замерзшая планета / Frozen Planet (by George Fenton) - 2013 (2011), FLAC (tracks+.cue), lossless


Статистика раздачи [Обновить пиров]
Размер:  472 MB   |    Зарегистрирован:  1 год 1 месяц   |    Скачан:  1 раз

Полного источника не было: 9 дней

Личеров:  6  [  0 KB/s  ]   Подробная статистика пиров
 
   
 
 
 

[Цитировать]

BBC: Замерзшая планета / Frozen Planet (мини-сериал)-Жанр: Score / Television
Композитор: George Fenton
Год выпуска диска: 2013
Год выпуска сериала: 2011
Производитель диска: CD Systems, UK
Издатель (лейбл): Silva Screen Records
Номер по каталогу: SILCD1392-Аудиокодек: FLAC (*.flac)
Тип рипа: tracks+.cue
Битрейт аудио: lossless
Продолжительность: 01:15:13
Источник: собственный рип
Наличие сканов в содержимом раздачи: да, 600dpi-Ссылки: Кинопоиск | IMDB | Wikipedia | SoundtrackCollector

Треклист

To The Ends Of The Earth
01. Opening Titles [0:00:29.34]
02. The North Pole [0:02:01.37]
03. Rapid Change [0:01:20.44]
04. Sufing Penguins [0:01:00.28]
05. Antarctic Mystery [0:03:52.45]
06. Flying South [0:04:11.65]
Spring
07. Stones [0:02:05.57]
08. McKenzie River [0:02:41.08]
09. Cubs First Hunt [0:03:33.36]
10. Narwhals [0:03:01.35]
11. Elephant Seal Duel [0:02:08.37]
12. Returning Seabirds / Albatross Love [0:02:19.66]
Summer
13. Ice Sculptures [0:01:24.60]
14. Leaping Penguins [0:01:28.22]
15. Owlets / Protection [0:02:48.09]
16. Seal Ballet / Arrival Of The Humpbacks [0:03:38.60]
Autumn
17. Lazy Bear [0:00:49.57]
18. Exercise [0:01:35.31]
19. Belugas [0:02:27.22]
20. Competing For The Girl [0:03:05.48]
Winter
21. The Long March [0:01:16.56]
22. Winter [0:03:04.09]
23. Activity [0:02:01.52]
24. Weasel [0:01:53.38]
25. Winter Sets In [0:03:24.39]
26. Battle Of Will [0:05:38.25]
27. Emperors Return [0:03:00.00]
The Final Frontier
28. Greenland Patrol [0:01:23.66]
29. Minus Forty [0:01:52.24]
30. Following The Herd [0:01:26.72]
31. Walrus Kill [0:01:31.01]
32. Scott's Legacy [0:02:36.12]

Лог создания рипа

Exact Audio Copy V1.1 from 23. June 2015
EAC extraction logfile from 19. October 2015, 12:36
George Fenton / Frozen Planet
Used drive : PLEXTOR CD-R PX-230A Adapter: 1 ID: 2
Read mode : SecureUtilize accurate stream : YesDefeat audio cache : YesMake use of C2 pointers : No
Read offset correction : 738Overread into Lead-In and Lead-Out : NoFill up missing offset samples with silence : YesDelete leading and trailing silent blocks : NoNull samples used in CRC calculations : YesUsed interface : Native Win32 interface for Win NT & 2000Gap handling : Appended to previous track
Used output format : User Defined EncoderSelected bitrate : 1024 kBit/sQuality : HighAdd ID3 tag : NoCommand line compressor : C:\Program Files (x86)\Exact Audio Copy\FLAC\FLAC.EXEAdditional command line options : -6 -V -T "ARTIST=%artist%" -T "TITLE=%title%" -T "ALBUM=%albumtitle%" -T "DATE=%year%"-T "TRACKNUMBER=%tracknr%" -T "GENRE=%genre%" -T "COMMENT=%comment%" -T "ALBUMARTIST=%albuminterpret%" -T "COMPOSER=%composer%"-T "DISCNUMBER=%cdnumber%" -T "TOTALDISCS=%totalcds%" -T "TOTALTRACKS=%numtracks%" %source% -o %dest%
TOC of the extracted CD
Track | Start | Length | Start sector | End sector --------------------------------------------------------- 1 | 0:00.00 | 0:29.34 | 0 | 2208 2 | 0:29.34 | 2:01.37 | 2209 | 11320 3 | 2:30.71 | 1:20.44 | 11321 | 17364 4 | 3:51.40 | 1:00.28 | 17365 | 21892 5 | 4:51.68 | 3:52.45 | 21893 | 39337 6 | 8:44.38 | 4:11.65 | 39338 | 58227 7 | 12:56.28 | 2:05.57 | 58228 | 67659 8 | 15:02.10 | 2:41.08 | 67660 | 79742 9 | 17:43.18 | 3:33.36 | 79743 | 95753 10 | 21:16.54 | 3:01.35 | 95754 | 109363 11 | 24:18.14 | 2:08.37 | 109364 | 119000 12 | 26:26.51 | 2:19.66 | 119001 | 129491 13 | 28:46.42 | 1:24.60 | 129492 | 135851 14 | 30:11.27 | 1:28.22 | 135852 | 142473 15 | 31:39.49 | 2:48.09 | 142474 | 155082 16 | 34:27.58 | 3:38.60 | 155083 | 171492 17 | 38:06.43 | 0:49.57 | 171493 | 175224 18 | 38:56.25 | 1:35.31 | 175225 | 182380 19 | 40:31.56 | 2:27.22 | 182381 | 193427 20 | 42:59.03 | 3:05.48 | 193428 | 207350 21 | 46:04.51 | 1:16.56 | 207351 | 213106 22 | 47:21.32 | 3:04.09 | 213107 | 226915 23 | 50:25.41 | 2:01.52 | 226916 | 236042 24 | 52:27.18 | 1:53.38 | 236043 | 244555 25 | 54:20.56 | 3:24.39 | 244556 | 259894 26 | 57:45.20 | 5:38.25 | 259895 | 285269 27 | 63:23.45 | 3:00.00 | 285270 | 298769 28 | 66:23.45 | 1:23.66 | 298770 | 305060 29 | 67:47.36 | 1:52.24 | 305061 | 313484 30 | 69:39.60 | 1:26.72 | 313485 | 320006 31 | 71:06.57 | 1:31.01 | 320007 | 326832 32 | 72:37.58 | 2:36.12 | 326833 | 338544
Track 1
Filename C:\Music\01 - George Fenton - Frozen Planet Opening Titles.wav
Pre-gap length 0:00:02.00
Peak level 98.5 % Extraction speed 1.9 X Track quality 100.0 % Test CRC 70AA9386 Copy CRC 70AA9386 Accurately ripped (confidence 7) [2A17A0FE] (AR v2) Copy OK
Track 2
Filename C:\Music\02 - George Fenton - The North Pole.wav
Peak level 98.6 % Extraction speed 3.8 X Track quality 99.9 % Test CRC 0F86FC4C Copy CRC 0F86FC4C Accurately ripped (confidence 7) [D7DE5525] (AR v2) Copy OK
Track 3
Filename C:\Music\03 - George Fenton - Rapid Change.wav
Peak level 48.9 % Extraction speed 4.2 X Track quality 100.0 % Test CRC 72909B5B Copy CRC 72909B5B Accurately ripped (confidence 7) [9BEFED6E] (AR v2) Copy OK
Track 4
Filename C:\Music\04 - George Fenton - Sufing Penguins.wav
Peak level 47.6 % Extraction speed 2.4 X Track quality 99.8 % Test CRC 1FD26E49 Copy CRC 1FD26E49 Accurately ripped (confidence 7) [931AAB1A] (AR v2) Copy OK
Track 5
Filename C:\Music\05 - George Fenton - Antarctic Mystery.wav
Peak level 80.5 % Extraction speed 4.7 X Track quality 100.0 % Test CRC E9E1DAAE Copy CRC E9E1DAAE Accurately ripped (confidence 7) [1B5EE831] (AR v2) Copy OK
Track 6
Filename C:\Music\06 - George Fenton - Flying South.wav
Peak level 98.5 % Extraction speed 4.3 X Track quality 100.0 % Test CRC 4D5964CE Copy CRC 4D5964CE Accurately ripped (confidence 7) [C6A9EBEE] (AR v2) Copy OK
Track 7
Filename C:\Music\07 - George Fenton - Stones.wav
Peak level 96.5 % Extraction speed 4.7 X Track quality 100.0 % Test CRC 6025B439 Copy CRC 6025B439 Accurately ripped (confidence 7) [65BB7CE0] (AR v2) Copy OK
Track 8
Filename C:\Music\08 - George Fenton - McKenzie River.wav
Peak level 98.5 % Extraction speed 5.0 X Track quality 100.0 % Test CRC 2A4B4E3D Copy CRC 2A4B4E3D Accurately ripped (confidence 7) [9CF2E43F] (AR v2) Copy OK
Track 9
Filename C:\Music\09 - George Fenton - Cubs First Hunt.wav
Peak level 83.0 % Extraction speed 4.3 X Track quality 99.9 % Test CRC 565DD90E Copy CRC 565DD90E Accurately ripped (confidence 7) [5DD0C354] (AR v2) Copy OK
Track 10
Filename C:\Music\10 - George Fenton - Narwhals.wav
Peak level 61.7 % Extraction speed 5.1 X Track quality 100.0 % Test CRC F6C13395 Copy CRC F6C13395 Accurately ripped (confidence 7) [2625DDCD] (AR v2) Copy OK
Track 11
Filename C:\Music\11 - George Fenton - Elephant Seal Duel.wav
Peak level 98.5 % Extraction speed 3.7 X Track quality 99.9 % Test CRC CA3C63A3 Copy CRC CA3C63A3 Accurately ripped (confidence 7) [F708143B] (AR v2) Copy OK
Track 12
Filename C:\Music\12 - George Fenton - Returning Seabirds,Albatross Love.wav
Peak level 98.5 % Extraction speed 3.7 X Track quality 100.0 % Test CRC 913F7CC4 Copy CRC 913F7CC4 Accurately ripped (confidence 7) [6B37F256] (AR v2) Copy OK
Track 13
Filename C:\Music\13 - George Fenton - Ice Sculptures.wav
Peak level 50.7 % Extraction speed 4.3 X Track quality 100.0 % Test CRC 33F388DF Copy CRC 33F388DF Accurately ripped (confidence 7) [7E73C065] (AR v2) Copy OK
Track 14
Filename C:\Music\14 - George Fenton - Leaping Penguins.wav
Peak level 98.6 % Extraction speed 3.3 X Track quality 99.8 % Test CRC 0E341D48 Copy CRC 0E341D48 Accurately ripped (confidence 7) [22EDAD2D] (AR v2) Copy OK
Track 15
Filename C:\Music\15 - George Fenton - Owlets,Protection.wav
Peak level 91.6 % Extraction speed 4.2 X Track quality 100.0 % Test CRC 673BF2BF Copy CRC 673BF2BF Accurately ripped (confidence 7) [E69BC3C2] (AR v2) Copy OK
Track 16
Filename C:\Music\16 - George Fenton - Seal Ballet,Arrival Of The Humpbacks.wav
Peak level 87.0 % Extraction speed 4.3 X Track quality 99.9 % Test CRC BD2D5448 Copy CRC BD2D5448 Accurately ripped (confidence 7) [62824174] (AR v2) Copy OK
Track 17
Filename C:\Music\17 - George Fenton - Lazy Bear.wav
Peak level 44.6 % Extraction speed 2.3 X Track quality 99.7 % Test CRC E39DE159 Copy CRC E39DE159 Accurately ripped (confidence 7) [FA2C17FC] (AR v2) Copy OK
Track 18
Filename C:\Music\18 - George Fenton - Exercise.wav
Peak level 98.5 % Extraction speed 4.3 X Track quality 100.0 % Test CRC 42A964BE Copy CRC 42A964BE Accurately ripped (confidence 7) [B74F17F7] (AR v2) Copy OK
Track 19
Filename C:\Music\19 - George Fenton - Belugas.wav
Peak level 98.5 % Extraction speed 4.8 X Track quality 100.0 % Test CRC A0187C26 Copy CRC A0187C26 Accurately ripped (confidence 7) [1AF058F7] (AR v2) Copy OK
Track 20
Filename C:\Music\20 - George Fenton - Competing For The Girl.wav
Peak level 98.5 % Extraction speed 5.0 X Track quality 100.0 % Test CRC 26AB1C11 Copy CRC 26AB1C11 Accurately ripped (confidence 7) [0402A687] (AR v2) Copy OK
Track 21
Filename C:\Music\21 - George Fenton - The Long March.wav
Peak level 86.4 % Extraction speed 4.1 X Track quality 100.0 % Test CRC AE3D7F03 Copy CRC AE3D7F03 Accurately ripped (confidence 7) [BCE71E4F] (AR v2) Copy OK
Track 22
Filename C:\Music\22 - George Fenton - Winter.wav
Peak level 98.6 % Extraction speed 4.8 X Track quality 100.0 % Test CRC C1A93515 Copy CRC C1A93515 Accurately ripped (confidence 7) [3CB53124] (AR v2) Copy OK
Track 23
Filename C:\Music\23 - George Fenton - Activity.wav
Peak level 63.7 % Extraction speed 4.6 X Track quality 100.0 % Test CRC 95AD4D69 Copy CRC 95AD4D69 Accurately ripped (confidence 7) [A29D8125] (AR v2) Copy OK
Track 24
Filename C:\Music\24 - George Fenton - Weasel.wav
Peak level 48.2 % Extraction speed 3.6 X Track quality 99.9 % Test CRC D84B6E2D Copy CRC D84B6E2D Accurately ripped (confidence 7) [D0FFD1D4] (AR v2) Copy OK
Track 25
Filename C:\Music\25 - George Fenton - Winter Sets In.wav
Peak level 98.0 % Extraction speed 4.3 X Track quality 99.9 % Test CRC 47D4479C Copy CRC 47D4479C Accurately ripped (confidence 7) [3EFCDEB6] (AR v2) Copy OK
Track 26
Filename C:\Music\26 - George Fenton - Battle Of Wills.wav
Peak level 96.0 % Extraction speed 4.6 X Track quality 99.9 % Test CRC BFFF2BFF Copy CRC BFFF2BFF Accurately ripped (confidence 7) [C236AA2F] (AR v2) Copy OK
Track 27
Filename C:\Music\27 - George Fenton - Emperors Return.wav
Peak level 65.0 % Extraction speed 4.1 X Track quality 100.0 % Test CRC F1CACA9D Copy CRC F1CACA9D Accurately ripped (confidence 7) [AFB0577E] (AR v2) Copy OK
Track 28
Filename C:\Music\28 - George Fenton - Greenland Patrol.wav
Peak level 51.1 % Extraction speed 3.0 X Track quality 100.0 % Test CRC 03A52FB8 Copy CRC 03A52FB8 Accurately ripped (confidence 7) [134BDCF1] (AR v2) Copy OK
Track 29
Filename C:\Music\29 - George Fenton - Minus Forty.wav
Peak level 79.0 % Extraction speed 3.7 X Track quality 100.0 % Test CRC 2D8BE72C Copy CRC 2D8BE72C Accurately ripped (confidence 7) [9C1B32B4] (AR v2) Copy OK
Track 30
Filename C:\Music\30 - George Fenton - Following The Herd.wav
Peak level 80.2 % Extraction speed 3.3 X Track quality 99.8 % Test CRC 7B9B8827 Copy CRC 7B9B8827 Accurately ripped (confidence 7) [8672E669] (AR v2) Copy OK
Track 31
Filename C:\Music\31 - George Fenton - Walrus Kill.wav
Peak level 98.6 % Extraction speed 4.2 X Track quality 100.0 % Test CRC 968D4F8D Copy CRC 968D4F8D Accurately ripped (confidence 7) [3EA5EA51] (AR v2) Copy OK
Track 32
Filename C:\Music\32 - George Fenton - Scott's Legacy.wav
Peak level 95.6 % Extraction speed 4.1 X Track quality 100.0 % Test CRC CB4EB4DD Copy CRC CB4EB4DD Accurately ripped (confidence 7) [77251A5A] (AR v2) Copy OK
All tracks accurately ripped
No errors occurred
End of status report
---- CUETools DB Plugin V2.1.6
[CTDB TOCID: eF0P6zsiibFhy.s9Wla9oHfEsWs-] foundSubmit result: eF0P6zsiibFhy.s9Wla9oHfEsWs- has been confirmedTrack | CTDB Status 1 | (3/3) Accurately ripped 2 | (3/3) Accurately ripped 3 | (3/3) Accurately ripped 4 | (3/3) Accurately ripped 5 | (3/3) Accurately ripped 6 | (3/3) Accurately ripped 7 | (3/3) Accurately ripped 8 | (3/3) Accurately ripped 9 | (3/3) Accurately ripped 10 | (3/3) Accurately ripped 11 | (3/3) Accurately ripped 12 | (3/3) Accurately ripped 13 | (3/3) Accurately ripped 14 | (3/3) Accurately ripped 15 | (3/3) Accurately ripped 16 | (3/3) Accurately ripped 17 | (3/3) Accurately ripped 18 | (3/3) Accurately ripped 19 | (3/3) Accurately ripped 20 | (3/3) Accurately ripped 21 | (3/3) Accurately ripped 22 | (3/3) Accurately ripped 23 | (3/3) Accurately ripped 24 | (3/3) Accurately ripped 25 | (3/3) Accurately ripped 26 | (3/3) Accurately ripped 27 | (3/3) Accurately ripped 28 | (3/3) Accurately ripped 29 | (3/3) Accurately ripped 30 | (3/3) Accurately ripped 31 | (3/3) Accurately ripped 32 | (3/3) Accurately ripped
==== Log checksum D0948EFF9D6288793B6A78CD2E7462D6A472B8E06938B7B79865350A0CD693E5 ====

Содержание индексной карты (.CUE)

REM GENRE SoundtrackREM DATE 2012REM DISCID E611A120REM COMMENT "ExactAudioCopy v1.1"PERFORMER "George Fenton"TITLE "Frozen Planet"FILE "01 - George Fenton - Opening Titles.wav" WAVE TRACK 01 AUDIO TITLE "Opening Titles" PERFORMER "George Fenton" INDEX 01 00:00:00FILE "02 - George Fenton - The North Pole.wav" WAVE TRACK 02 AUDIO TITLE "The North Pole" PERFORMER "George Fenton" INDEX 01 00:00:00FILE "03 - George Fenton - Rapid Change.wav" WAVE TRACK 03 AUDIO TITLE "Rapid Change" PERFORMER "George Fenton" INDEX 01 00:00:00FILE "04 - George Fenton - Sufing Penguins.wav" WAVE TRACK 04 AUDIO TITLE "Sufing Penguins" PERFORMER "George Fenton" INDEX 01 00:00:00FILE "05 - George Fenton - Antarctic Mystery.wav" WAVE TRACK 05 AUDIO TITLE "Antarctic Mystery" PERFORMER "George Fenton" INDEX 01 00:00:00FILE "06 - George Fenton - Flying South.wav" WAVE TRACK 06 AUDIO TITLE "Flying South" PERFORMER "George Fenton" INDEX 01 00:00:00FILE "07 - George Fenton - Stones.wav" WAVE TRACK 07 AUDIO TITLE "Stones" PERFORMER "George Fenton" INDEX 01 00:00:00FILE "08 - George Fenton - McKenzie River.wav" WAVE TRACK 08 AUDIO TITLE "McKenzie River" PERFORMER "George Fenton" INDEX 01 00:00:00FILE "09 - George Fenton - Cubs First Hunt.wav" WAVE TRACK 09 AUDIO TITLE "Cubs First Hunt" PERFORMER "George Fenton" INDEX 01 00:00:00FILE "10 - George Fenton - Narwhals.wav" WAVE TRACK 10 AUDIO TITLE "Narwhals" PERFORMER "George Fenton" INDEX 01 00:00:00FILE "11 - George Fenton - Elephant Seal Duel.wav" WAVE TRACK 11 AUDIO TITLE "Elephant Seal Duel" PERFORMER "George Fenton" INDEX 01 00:00:00FILE "12 - George Fenton - Returning Seabirds , Albatross Love.wav" WAVE TRACK 12 AUDIO TITLE "Returning Seabirds / Albatross Love" PERFORMER "George Fenton" INDEX 01 00:00:00FILE "13 - George Fenton - Ice Sculptures.wav" WAVE TRACK 13 AUDIO TITLE "Ice Sculptures" PERFORMER "George Fenton" INDEX 01 00:00:00FILE "14 - George Fenton - Leaping Penguins.wav" WAVE TRACK 14 AUDIO TITLE "Leaping Penguins" PERFORMER "George Fenton" INDEX 01 00:00:00FILE "15 - George Fenton - Owlets , Protection.wav" WAVE TRACK 15 AUDIO TITLE "Owlets / Protection" PERFORMER "George Fenton" INDEX 01 00:00:00FILE "16 - George Fenton - Seal Ballet , Arrival Of The Humpbacks.wav" WAVE TRACK 16 AUDIO TITLE "Seal Ballet / Arrival Of The Humpbacks" PERFORMER "George Fenton" INDEX 01 00:00:00FILE "17 - George Fenton - Lazy Bear.wav" WAVE TRACK 17 AUDIO TITLE "Lazy Bear" PERFORMER "George Fenton" INDEX 01 00:00:00FILE "18 - George Fenton - Exercise.wav" WAVE TRACK 18 AUDIO TITLE "Exercise" PERFORMER "George Fenton" INDEX 01 00:00:00FILE "19 - George Fenton - Belugas.wav" WAVE TRACK 19 AUDIO TITLE "Belugas" PERFORMER "George Fenton" INDEX 01 00:00:00FILE "20 - George Fenton - Competing For The Girl.wav" WAVE TRACK 20 AUDIO TITLE "Competing For The Girl" PERFORMER "George Fenton" INDEX 01 00:00:00FILE "21 - George Fenton - The Long March.wav" WAVE TRACK 21 AUDIO TITLE "The Long March" PERFORMER "George Fenton" INDEX 01 00:00:00FILE "22 - George Fenton - Winter.wav" WAVE TRACK 22 AUDIO TITLE "Winter" PERFORMER "George Fenton" INDEX 01 00:00:00FILE "23 - George Fenton - Activity.wav" WAVE TRACK 23 AUDIO TITLE "Activity" PERFORMER "George Fenton" INDEX 01 00:00:00FILE "24 - George Fenton - Weasel.wav" WAVE TRACK 24 AUDIO TITLE "Weasel" PERFORMER "George Fenton" INDEX 01 00:00:00FILE "25 - George Fenton - Winter Sets In.wav" WAVE TRACK 25 AUDIO TITLE "Winter Sets In" PERFORMER "George Fenton" INDEX 01 00:00:00FILE "26 - George Fenton - Battle Of Will.wav" WAVE TRACK 26 AUDIO TITLE "Battle Of Will" PERFORMER "George Fenton" INDEX 01 00:00:00FILE "27 - George Fenton - Emperors Return.wav" WAVE TRACK 27 AUDIO TITLE "Emperors Return" PERFORMER "George Fenton" INDEX 01 00:00:00FILE "28 - George Fenton - Greenland Patrol.wav" WAVE TRACK 28 AUDIO TITLE "Greenland Patrol" PERFORMER "George Fenton" INDEX 01 00:00:00FILE "29 - George Fenton - Minus Forty.wav" WAVE TRACK 29 AUDIO TITLE "Minus Forty" PERFORMER "George Fenton" INDEX 01 00:00:00FILE "30 - George Fenton - Following The Herd.wav" WAVE TRACK 30 AUDIO TITLE "Following The Herd" PERFORMER "George Fenton" INDEX 01 00:00:00FILE "31 - George Fenton - Walrus Kill.wav" WAVE TRACK 31 AUDIO TITLE "Walrus Kill" PERFORMER "George Fenton" INDEX 01 00:00:00FILE "32 - George Fenton - Scott's Legacy.wav" WAVE TRACK 32 AUDIO TITLE "Scott's Legacy" PERFORMER "George Fenton" INDEX 01 00:00:00
[teatrix.ru].t10252.torrent 
Торрент: Зарегистрирован [ 2015-11-01 20:51 ] · B6DA9C33D63B7A07042C1170C693A50E52B7DA25

Скачать .torrent

Скачать

13 KB

Статус: проверено
Скачан: 1 раз
Размер: 472 MB
terms.php



Быстрый ответ

Имя:

      
Для отправки сообщений необходимо включить JavaScript
Показать сообщения:    

Текущее время: 08-Дек 10:59

Часовой пояс: UTC + 3


Вы можете начинать темы
Вы можете отвечать на сообщения
Вы не можете редактировать свои сообщения
Вы не можете удалять свои сообщения
Вы не можете голосовать в опросах
Вы не можете прикреплять файлы к сообщениям
Вы можете скачивать файлы