(Score) Вокруг света за 80 дней / Around the World in Eighty Days (by Victor Young) - 2010 (1956), WavPack (image+.cue), lossless


Статистика раздачи [Обновить пиров]
Размер:  279 MB   |    Зарегистрирован:  1 год 1 месяц   |    Скачан:  0 раз

Полного источника не было: Никогда

Личеров:  6  [  0 KB/s  ]   Подробная статистика пиров
 
   
 
 
 

[Цитировать]

Вокруг света за 80 дней / Around the World in Eighty Days
Жанр: Score
Композитор: Victor Young
Год выпуска диска: 2010
Год выпуска фильма: 1956
Страна-производитель диска: Австрия
Издатель (лейбл): Vocalion
Номер по каталогу: CDLF 8139
Аудиокодек: WavPack (*.wv)
Тип рипа: image+.cue
Битрейт аудио: lossless
Продолжительность: 43:46
Источник: ослосеть
Наличие сканов в содержимом раздачи: да
Треклист:
01. Around The World - Main Titles (03:08)
02. Passepartout - El gato montes (03:26)
03. Paris Arrival (02:51)
04. Sky Symphony (04:42)
05. Invitation To A Bull Fight / Entrance Of The Bull March (02:38)
06. India Country Side (03:58)
07. Around The World (01:08)
08. The Pagoda Of Pillagi (04:03)
09. Temple Of Dawn (02:20)
10. Prairie Sail Car (01:51)
11. Land Ho (07:03)
12. Epilogue (06:30)

Лог создания рипа

Exact Audio Copy V1.0 beta 3 from 29. August 2011
EAC extraction logfile from 28. March 2013, 13:46
Victor Young / Around the World in Eighty Days
Used drive : PLEXTOR DVDR PX-820SA Adapter: 3 ID: 0
Read mode : SecureUtilize accurate stream : YesDefeat audio cache : YesMake use of C2 pointers : No
Read offset correction : 48Overread into Lead-In and Lead-Out : NoFill up missing offset samples with silence : YesDelete leading and trailing silent blocks : NoNull samples used in CRC calculations : YesUsed interface : Installed external ASPI interface
Used output format : Internal WAV RoutinesSample format : 44.100 Hz; 16 Bit; Stereo
TOC of the extracted CD
Track | Start | Length | Start sector | End sector --------------------------------------------------------- 1 | 0:00.00 | 3:07.64 | 0 | 14088 2 | 3:07.64 | 3:26.72 | 14089 | 29610 3 | 6:34.61 | 2:51.65 | 29611 | 42500 4 | 9:26.51 | 4:42.52 | 42501 | 63702 5 | 14:09.28 | 2:38.49 | 63703 | 75601 6 | 16:48.02 | 3:59.21 | 75602 | 93547 7 | 20:47.23 | 1:08.35 | 93548 | 98682 8 | 21:55.58 | 4:03.10 | 98683 | 116917 9 | 25:58.68 | 2:20.63 | 116918 | 127480 10 | 28:19.56 | 1:51.11 | 127481 | 135816 11 | 30:10.67 | 7:04.17 | 135817 | 167633 12 | 37:15.09 | 6:30.38 | 167634 | 196921
Range status and errors
Selected range
Filename C:\RIPPED_BY_SUPANG\ost\Victor Young -1956- Around the World in Eighty Days {2010, Vocalion CDLF 8139}\Victor Young - Around the World in Eighty Days.wav
Peak level 74.2 % Extraction speed 3.8 X Range quality 100.0 % Test CRC B0447CF8 Copy CRC B0447CF8 Copy OK
No errors occurred
AccurateRip summary
Track 1 not present in databaseTrack 2 not present in databaseTrack 3 not present in databaseTrack 4 not present in databaseTrack 5 not present in databaseTrack 6 not present in databaseTrack 7 not present in databaseTrack 8 not present in databaseTrack 9 not present in databaseTrack 10 not present in databaseTrack 11 not present in databaseTrack 12 not present in database
None of the tracks are present in the AccurateRip database
End of status report
==== Log checksum 23202D1030F76AA9AA1B8038A55891F975A9D881320901E1D78AF26D5112291D ====

Содержание индексной карты (.CUE)

REM GENRE "Film Score"REM DATE "1957 (2010)"REM DISCID 940A410CREM COMMENT "Vocalion CDLF 8139"PERFORMER "Victor Young"TITLE "Around the World in Eighty Days"FILE "Victor Young - Around the World in Eighty Days.wv" WAVE TRACK 01 AUDIO TITLE "Around the World - Main Titles" PERFORMER "Victor Young" ISRC GBCTP0913901 INDEX 01 00:00:00 TRACK 02 AUDIO TITLE "Passepartout - El gato montйs" PERFORMER "Victor Young" ISRC GBCTP0913902 INDEX 00 03:06:02 INDEX 01 03:07:64 TRACK 03 AUDIO TITLE "Paris Arrival" PERFORMER "Victor Young" ISRC GBCTP0913903 INDEX 00 06:32:58 INDEX 01 06:34:61 TRACK 04 AUDIO TITLE "Sky Symphony" PERFORMER "Victor Young" ISRC GBCTP0913904 INDEX 00 09:24:15 INDEX 01 09:26:51 TRACK 05 AUDIO TITLE "Invitation to a Bull Fight - Entrance of the Bull March" PERFORMER "Victor Young" ISRC GBCTP0913905 INDEX 00 14:06:63 INDEX 01 14:09:28 TRACK 06 AUDIO TITLE "India Countryside" PERFORMER "Victor Young" ISRC GBCTP0913906 INDEX 00 16:46:11 INDEX 01 16:48:02 TRACK 07 AUDIO TITLE "Around the World" PERFORMER "Victor Young" ISRC GBCTP0913907 INDEX 00 20:44:58 INDEX 01 20:47:23 TRACK 08 AUDIO TITLE "The Pagoda of Pillagi" PERFORMER "Victor Young" ISRC GBCTP0913908 INDEX 00 21:53:44 INDEX 01 21:55:58 TRACK 09 AUDIO TITLE "Temple of Dawn" PERFORMER "Victor Young" ISRC GBCTP0913909 INDEX 00 25:58:11 INDEX 01 25:58:68 TRACK 10 AUDIO TITLE "Prairie Sail Car" PERFORMER "Victor Young" ISRC GBCTP0913910 INDEX 00 28:17:08 INDEX 01 28:19:56 TRACK 11 AUDIO TITLE "Land Ho" PERFORMER "Victor Young" ISRC GBCTP0913911 INDEX 00 30:08:73 INDEX 01 30:10:67 TRACK 12 AUDIO TITLE "Epilogue" PERFORMER "Victor Young" ISRC GBCTP0913912 INDEX 00 37:10:28 INDEX 01 37:15:09

Скриншоты спектра частот (png)

[teatrix.ru].t10253.torrent 
Торрент: Зарегистрирован [ 2015-11-01 20:51 ] · D2A7C2EC6CD110910DCD8AE850D97FE9F00C9E40

Скачать .torrent

Скачать

12 KB

Статус: проверено
Скачан: 0 раз
Размер: 279 MB
terms.php



Быстрый ответ

Имя:

      
Для отправки сообщений необходимо включить JavaScript
Показать сообщения:    

Текущее время: 10-Дек 08:03

Часовой пояс: UTC + 3


Вы можете начинать темы
Вы можете отвечать на сообщения
Вы не можете редактировать свои сообщения
Вы не можете удалять свои сообщения
Вы не можете голосовать в опросах
Вы не можете прикреплять файлы к сообщениям
Вы можете скачивать файлы