(Score) Шоу начинается / Сержант Билко // Showtime / Sgt. Bilko (by Alan Silvestri) [Bootleg] - 2002 (2002, 1996), WavPack (image+.cue), lossless


Статистика раздачи [Обновить пиров]
Размер:  420 MB   |    Зарегистрирован:  1 год 1 месяц   |    Скачан:  0 раз

Полного источника не было: Никогда

Личеров:  6  [  0 KB/s  ]   Подробная статистика пиров
 
   
 
 
 

[Цитировать]

Шоу начинается / Сержант Билко // Showtime / Sgt. Bilko
Жанр: Score
Композитор: Alan Silvestri
Год выпуска диска: 2002
Год выпуска фильма: 2002, 1996
Страна-производитель диска: неизв.
Издатель (лейбл): Showtime Entertainment
Номер по каталогу: SHOW-CD20021996
Аудиокодек: WavPack (*.wv)
Тип рипа: image+.cue
Битрейт аудио: lossless
Продолжительность: 1:19:52
Источник: ослосеть
Наличие сканов в содержимом раздачи: да

Треклист

01. Logo (0:14)
02. Showtime Theme (2:29)
03. Detective Preston Teaches (0:58)
04. Trey's Rehearsal (0:53)
05. Drug Deal Assembly (1:40)
06. Money and Shit (2:18)
07. TV Repair Shop Shootout / Pursuing Lazy Boy (2:28)
08. Renzi and Brad Negotiate (0:57)
09. Two Visitors (0:20)
10. Preston Leaves (0:35)
11. Busting the Thief (1:20)
12. Good Chemistry (0:15)
13. Vargas Appears (1:50)
14. Collapsed House (0:11)
15. Burning Car (0:13)
16. The Director Bursts In (0:27)
17. Hood Jumping (0:38)
18. T. J. Okay (0:10)
19. Micro Cameras in the Car (1:01)
20. Trey's Tale (0:57)
21. Crime Scene Arrival (0:35)
22. Charlie Advises (0:32)
23. Partner (0:35)
24. Surprise (0:27)
25. Pottery Studio (0:44)
26. Mitch's New Car (1:06)
27. Scratched (0:19)
28. New Workspace / Showtime (2:11)
29. Muffer Test / Trey's Plan (1:23)
30. ReRun Gives Evidence (0:50)
31. ReRun Story Stalled (0:38)
32. Mitch and Trey (1:10)
33. Another Surprise (0:24)
34. The Big Hit and City Chase (6:14)
35. Mitch Saved (0:13)
36. It's Over (0:37)
37. The Dog Stays (1:32)
38. Watching the Show / Charlie Hertz' House (2:37)
39. A New Lead (0:14)
40. Arrival at the Gun Show (0:38)
41. Gunfire and Escape (1:34)
42. Hostage Situation / Pool Flood (2:48)
43. Loose Change Dish (0:53)
44. Reprise (1:19)
tracks 01-44 from "Showtime"
45. The Bet (1:13)
46. Introduction (1:35)
47. Jeep Drive to the Chirch (0:37)
48. One Game with Rita (0:40)
49. Return to Fort Baxter (0:32)
50. Boxing History (2:35)
51. Thorn Transferred to Greenland (0:40)
52. The Hover Tank Demonstration (1:21)
53. Flash of Recall (0:24)
54. Plan B (0:54)
55. Viva Las Vegas (2:23)
56. System Accessed (0:47)
57. Tha Ring (1:36)
58. Jealousy Dinner (2:57)
59. Colonel Hall's Speech (0:36)
60. Sgt. Bilko's Speech (1:00)
61. The Master Plan (0:30)
62. Thorn Steals the Control Board (0:30)
63. The Tank's Big Show (2:31)
64. Wedding Ceremony (1:41)
65. End Credits (3:43)
tracks 45-65 from "Sgt. Bilko"

Лог создания рипа

Exact Audio Copy V0.99 prebeta 1 from 25. May 2007
EAC extraction logfile from 15. August 2007, 18:50
Alan Silvestri / Showtime & Sgt. Bilko
Used drive : PLEXTOR DVDR PX-760A Adapter: 1 ID: 0
Read mode : SecureUtilize accurate stream : YesDefeat audio cache : YesMake use of C2 pointers : No
Read offset correction : 30Overread into Lead-In and Lead-Out : YesFill up missing offset samples with silence : YesDelete leading and trailing silent blocks : NoUsed interface : Installed external ASPI interface
Used output format : Internal WAV RoutinesSample format : 44.100 Hz; 16 Bit; Stereo
TOC of the extracted CD
Track | Start | Length | Start sector | End sector --------------------------------------------------------- 1 | 0:00.00 | 0:15.08 | 0 | 1132 2 | 0:15.08 | 2:29.48 | 1133 | 12355 3 | 2:44.56 | 0:59.08 | 12356 | 16788 4 | 3:43.64 | 0:53.65 | 16789 | 20828 5 | 4:37.54 | 1:41.07 | 20829 | 28410 6 | 6:18.61 | 2:18.19 | 28411 | 38779 7 | 8:37.05 | 2:28.49 | 38780 | 49928 8 | 11:05.54 | 0:57.34 | 49929 | 54237 9 | 12:03.13 | 0:20.14 | 54238 | 55751 10 | 12:23.27 | 0:35.35 | 55752 | 58411 11 | 12:58.62 | 1:20.71 | 58412 | 64482 12 | 14:19.58 | 0:15.71 | 64483 | 65678 13 | 14:35.54 | 1:50.34 | 65679 | 73962 14 | 16:26.13 | 0:11.33 | 73963 | 74820 15 | 16:37.46 | 0:13.27 | 74821 | 75822 16 | 16:50.73 | 0:27.52 | 75823 | 77899 17 | 17:18.50 | 0:38.38 | 77900 | 80787 18 | 17:57.13 | 0:11.06 | 80788 | 81618 19 | 18:08.19 | 1:01.64 | 81619 | 86257 20 | 19:10.08 | 0:57.34 | 86258 | 90566 21 | 20:07.42 | 0:35.48 | 90567 | 93239 22 | 20:43.15 | 0:32.17 | 93240 | 95656 23 | 21:15.32 | 0:35.20 | 95657 | 98301 24 | 21:50.52 | 0:27.11 | 98302 | 100337 25 | 22:17.63 | 0:44.27 | 100338 | 103664 26 | 23:02.15 | 1:07.04 | 103665 | 108693 27 | 24:09.19 | 0:19.61 | 108694 | 110179 28 | 24:29.05 | 2:11.54 | 110180 | 120058 29 | 26:40.59 | 1:23.36 | 120059 | 126319 30 | 28:04.20 | 0:50.33 | 126320 | 130102 31 | 28:54.53 | 0:38.48 | 130103 | 133000 32 | 29:33.26 | 1:11.02 | 133001 | 138327 33 | 30:44.28 | 0:24.28 | 138328 | 140155 34 | 31:08.56 | 6:14.71 | 140156 | 168276 35 | 37:23.52 | 0:14.10 | 168277 | 169336 36 | 37:37.62 | 0:37.29 | 169337 | 172140 37 | 38:15.16 | 1:32.38 | 172141 | 179078 38 | 39:47.54 | 2:37.71 | 179079 | 190924 39 | 42:25.50 | 0:15.13 | 190925 | 192062 40 | 42:40.63 | 0:38.68 | 192063 | 194980 41 | 43:19.56 | 1:34.69 | 194981 | 202099 42 | 44:54.50 | 2:48.37 | 202100 | 214736 43 | 47:43.12 | 0:53.68 | 214737 | 218779 44 | 48:37.05 | 1:19.41 | 218780 | 224745 45 | 49:56.46 | 1:13.60 | 224746 | 230280 46 | 51:10.31 | 1:35.33 | 230281 | 237438 47 | 52:45.64 | 0:38.03 | 237439 | 240291 48 | 53:23.67 | 0:40.37 | 240292 | 243328 49 | 54:04.29 | 0:32.70 | 243329 | 245798 50 | 54:37.24 | 2:36.01 | 245799 | 257499 51 | 57:13.25 | 0:40.49 | 257500 | 260548 52 | 57:53.74 | 1:21.42 | 260549 | 266665 53 | 59:15.41 | 0:25.17 | 266666 | 268557 54 | 59:40.58 | 0:54.41 | 268558 | 272648 55 | 60:35.24 | 2:23.27 | 272649 | 283400 56 | 62:58.51 | 0:48.11 | 283401 | 287011 57 | 63:46.62 | 1:36.41 | 287012 | 294252 58 | 65:23.28 | 2:57.65 | 294253 | 307592 59 | 68:21.18 | 0:36.42 | 307593 | 310334 60 | 68:57.60 | 1:00.68 | 310335 | 314902 61 | 69:58.53 | 0:30.43 | 314903 | 317195 62 | 70:29.21 | 0:30.60 | 317196 | 319505 63 | 71:00.06 | 2:31.61 | 319506 | 330891 64 | 73:31.67 | 1:42.09 | 330892 | 338550 65 | 75:14.01 | 4:38.14 | 338551 | 359414
Range status and errors
Selected range
Filename E:\EAC\Alan Silvestri - Showtime & Sgt. Bilko.wav
Peak level 100.0 % Range quality 100.0 % Copy CRC 63D9492C Copy OK
No errors occurred
End of status report

Содержание индексной карты (.CUE)

REM GENRE SoundtrackREM DATE 2002REM DISCID E612B841REM COMMENT "ExactAudioCopy v0.99pb1"PERFORMER "Alan Silvestri"TITLE "Showtime & Sgt. Bilko"FILE "Alan Silvestri - Showtime & Sgt. Bilko.wv" WAVE TRACK 01 AUDIO TITLE "Logo" PERFORMER "Alan Silvestri" FLAGS DCP INDEX 01 00:00:00 TRACK 02 AUDIO TITLE "Showtime Theme" PERFORMER "Alan Silvestri" FLAGS DCP INDEX 01 00:15:08 TRACK 03 AUDIO TITLE "Detective Preston Teaches" PERFORMER "Alan Silvestri" FLAGS DCP INDEX 01 02:44:56 TRACK 04 AUDIO TITLE "Trey's Rehearsel" PERFORMER "Alan Silvestri" FLAGS DCP INDEX 01 03:43:64 TRACK 05 AUDIO TITLE "Drug Deal Assembly" PERFORMER "Alan Silvestri" FLAGS DCP INDEX 01 04:37:54 TRACK 06 AUDIO TITLE "Money and Shit" PERFORMER "Alan Silvestri" FLAGS DCP INDEX 01 06:18:61 TRACK 07 AUDIO TITLE "TV Repair Shop Shootout, Pursuing Lazy Boy" PERFORMER "Alan Silvestri" FLAGS DCP INDEX 01 08:37:05 TRACK 08 AUDIO TITLE "Renzi and Brad Negotiate" PERFORMER "Alan Silvestri" FLAGS DCP INDEX 01 11:05:54 TRACK 09 AUDIO TITLE "Two Visitors" PERFORMER "Alan Silvestri" FLAGS DCP INDEX 01 12:03:13 TRACK 10 AUDIO TITLE "Preston Leaves" PERFORMER "Alan Silvestri" FLAGS DCP INDEX 01 12:23:27 TRACK 11 AUDIO TITLE "Busting the Thief" PERFORMER "Alan Silvestri" FLAGS DCP INDEX 01 12:58:62 TRACK 12 AUDIO TITLE "Good Chemistry" PERFORMER "Alan Silvestri" FLAGS DCP INDEX 01 14:19:58 TRACK 13 AUDIO TITLE "Vargas Appears" PERFORMER "Alan Silvestri" FLAGS DCP INDEX 01 14:35:54 TRACK 14 AUDIO TITLE "Collapsed House" PERFORMER "Alan Silvestri" FLAGS DCP INDEX 01 16:26:13 TRACK 15 AUDIO TITLE "Burning Car" PERFORMER "Alan Silvestri" FLAGS DCP INDEX 01 16:37:46 TRACK 16 AUDIO TITLE "The Director Bursts in" PERFORMER "Alan Silvestri" FLAGS DCP INDEX 01 16:50:73 TRACK 17 AUDIO TITLE "Hood Jumping" PERFORMER "Alan Silvestri" FLAGS DCP INDEX 01 17:18:50 TRACK 18 AUDIO TITLE "T.J. Okay" PERFORMER "Alan Silvestri" FLAGS DCP INDEX 01 17:57:13 TRACK 19 AUDIO TITLE "Micro Cameras in the Car" PERFORMER "Alan Silvestri" FLAGS DCP INDEX 01 18:08:19 TRACK 20 AUDIO TITLE "Trey's Tale" PERFORMER "Alan Silvestri" FLAGS DCP INDEX 01 19:10:08 TRACK 21 AUDIO TITLE "Crime Scene Arrival" PERFORMER "Alan Silvestri" FLAGS DCP INDEX 01 20:07:42 TRACK 22 AUDIO TITLE "Charlie Advises" PERFORMER "Alan Silvestri" FLAGS DCP INDEX 01 20:43:15 TRACK 23 AUDIO TITLE "Partner" PERFORMER "Alan Silvestri" FLAGS DCP INDEX 01 21:15:32 TRACK 24 AUDIO TITLE "Surprise" PERFORMER "Alan Silvestri" FLAGS DCP INDEX 01 21:50:52 TRACK 25 AUDIO TITLE "Pottery Studio" PERFORMER "Alan Silvestri" FLAGS DCP INDEX 01 22:17:63 TRACK 26 AUDIO TITLE "Mitch's new Car" PERFORMER "Alan Silvestri" FLAGS DCP INDEX 01 23:02:15 TRACK 27 AUDIO TITLE "Scratched" PERFORMER "Alan Silvestri" FLAGS DCP INDEX 01 24:09:19 TRACK 28 AUDIO TITLE "New Workspace, Showtime" PERFORMER "Alan Silvestri" FLAGS DCP INDEX 01 24:29:05 TRACK 29 AUDIO TITLE "Muffler Test, Trey's Plan" PERFORMER "Alan Silvestri" FLAGS DCP INDEX 01 26:40:59 TRACK 30 AUDIO TITLE "ReRun gives Evidence" PERFORMER "Alan Silvestri" FLAGS DCP INDEX 01 28:04:20 TRACK 31 AUDIO TITLE "ReRun's Story Stalled" PERFORMER "Alan Silvestri" FLAGS DCP INDEX 01 28:54:53 TRACK 32 AUDIO TITLE "Mitch and Trey" PERFORMER "Alan Silvestri" FLAGS DCP INDEX 01 29:33:26 TRACK 33 AUDIO TITLE "Another Surprise" PERFORMER "Alan Silvestri" FLAGS DCP INDEX 01 30:44:28 TRACK 34 AUDIO TITLE "The Big Hit and City Chase" PERFORMER "Alan Silvestri" FLAGS DCP INDEX 01 31:08:56 TRACK 35 AUDIO TITLE "Mitch Saved" PERFORMER "Alan Silvestri" FLAGS DCP INDEX 01 37:23:52 TRACK 36 AUDIO TITLE "It's over" PERFORMER "Alan Silvestri" FLAGS DCP INDEX 01 37:37:62 TRACK 37 AUDIO TITLE "The Dog stays" PERFORMER "Alan Silvestri" FLAGS DCP INDEX 01 38:15:16 TRACK 38 AUDIO TITLE "Watching the Show, Charlie Hertz' House" PERFORMER "Alan Silvestri" FLAGS DCP INDEX 01 39:47:54 TRACK 39 AUDIO TITLE "A new lead" PERFORMER "Alan Silvestri" FLAGS DCP INDEX 01 42:25:50 TRACK 40 AUDIO TITLE "Arrival at the Gun Show" PERFORMER "Alan Silvestri" FLAGS DCP INDEX 01 42:40:63 TRACK 41 AUDIO TITLE "Gunfire and Escape" PERFORMER "Alan Silvestri" FLAGS DCP INDEX 01 43:19:56 TRACK 42 AUDIO TITLE "Hostage situation, Pool Flood" PERFORMER "Alan Silvestri" FLAGS DCP INDEX 01 44:54:50 TRACK 43 AUDIO TITLE "Loose Change Dish" PERFORMER "Alan Silvestri" FLAGS DCP INDEX 01 47:43:12 TRACK 44 AUDIO TITLE "Reprise" PERFORMER "Alan Silvestri" FLAGS DCP INDEX 01 48:37:05 TRACK 45 AUDIO TITLE "The Bet" PERFORMER "Alan Silvestri" FLAGS DCP INDEX 01 49:56:46 TRACK 46 AUDIO TITLE "Introduction" PERFORMER "Alan Silvestri" FLAGS DCP INDEX 01 51:10:31 TRACK 47 AUDIO TITLE "Jeep Drive to the Church" PERFORMER "Alan Silvestri" FLAGS DCP INDEX 01 52:45:64 TRACK 48 AUDIO TITLE "One Game with Rita" PERFORMER "Alan Silvestri" FLAGS DCP INDEX 01 53:23:67 TRACK 49 AUDIO TITLE "Return to Fort Baxter" PERFORMER "Alan Silvestri" FLAGS DCP INDEX 01 54:04:29 TRACK 50 AUDIO TITLE "Boxing History" PERFORMER "Alan Silvestri" FLAGS DCP INDEX 01 54:37:24 TRACK 51 AUDIO TITLE "Thorn Transferred to Greenland" PERFORMER "Alan Silvestri" FLAGS DCP INDEX 01 57:13:25 TRACK 52 AUDIO TITLE "The Hover Tank Demonstration" PERFORMER "Alan Silvestri" FLAGS DCP INDEX 01 57:53:74 TRACK 53 AUDIO TITLE "Flash of Recall" PERFORMER "Alan Silvestri" FLAGS DCP INDEX 01 59:15:41 TRACK 54 AUDIO TITLE "Plan B" PERFORMER "Alan Silvestri" FLAGS DCP INDEX 01 59:40:58 TRACK 55 AUDIO TITLE "Viva Las Vegas" PERFORMER "Alan Silvestri" FLAGS DCP INDEX 01 60:35:24 TRACK 56 AUDIO TITLE "System Accessed" PERFORMER "Alan Silvestri" FLAGS DCP INDEX 01 62:58:51 TRACK 57 AUDIO TITLE "The Ring" PERFORMER "Alan Silvestri" FLAGS DCP INDEX 01 63:46:62 TRACK 58 AUDIO TITLE "Jealousy Dinner" PERFORMER "Alan Silvestri" FLAGS DCP INDEX 01 65:23:28 TRACK 59 AUDIO TITLE "Colonel Hall's Speech" PERFORMER "Alan Silvestri" FLAGS DCP INDEX 01 68:21:18 TRACK 60 AUDIO TITLE "Sgt. Bilko's Speech" PERFORMER "Alan Silvestri" FLAGS DCP INDEX 01 68:57:60 TRACK 61 AUDIO TITLE "The Master Plan" PERFORMER "Alan Silvestri" FLAGS DCP INDEX 01 69:58:53 TRACK 62 AUDIO TITLE "Thorn steals the Control Board" PERFORMER "Alan Silvestri" FLAGS DCP INDEX 01 70:29:21 TRACK 63 AUDIO TITLE "The Tank's Big Show" PERFORMER "Alan Silvestri" FLAGS DCP INDEX 01 71:00:06 TRACK 64 AUDIO TITLE "Wedding Ceremony" PERFORMER "Alan Silvestri" FLAGS DCP INDEX 01 73:31:67 TRACK 65 AUDIO TITLE "End Credits" PERFORMER "Alan Silvestri" FLAGS DCP INDEX 01 75:14:01

Скриншоты спектра частот (png)

[teatrix.ru].t10254.torrent 
Торрент: Зарегистрирован [ 2015-11-01 20:51 ] · 53DB2A353A2CB42C5F560A3C346F65A055E07854

Скачать .torrent

Скачать

17 KB

Статус: проверено
Скачан: 0 раз
Размер: 420 MB
terms.php



Быстрый ответ

Имя:

      
Для отправки сообщений необходимо включить JavaScript
Показать сообщения:    

Текущее время: 09-Дек 01:05

Часовой пояс: UTC + 3


Вы можете начинать темы
Вы можете отвечать на сообщения
Вы не можете редактировать свои сообщения
Вы не можете удалять свои сообщения
Вы не можете голосовать в опросах
Вы не можете прикреплять файлы к сообщениям
Вы можете скачивать файлы