(Score) Необычайная отвага / Необыкновенная отвага // Uncommon Valor (by James Horner) - 2000 (1983), WavPack (image+.cue), lossless


Статистика раздачи [Обновить пиров]
Размер:  263 MB   |    Зарегистрирован:  1 год 1 месяц   |    Скачан:  0 раз

Полного источника не было: Никогда

 
   
 
 
 

[Цитировать]

Необычайная отвага / Необыкновенная отвага // Uncommon Valor
Жанр: Score
Композитор: James Horner
Год выпуска диска: 2000
Год выпуска фильма: 1983
Страна-производитель диска: США
Издатель (лейбл): Pony Boy
Номер по каталогу: PBCD 1001
Аудиокодек: WavPack (*.wv)
Тип рипа: image+.cue
Битрейт аудио: lossless
Продолжительность: 43:54
Источник: ослосеть
Наличие сканов в содержимом раздачи: да
Треклист:
01. M.I.A. Prologue (07:01)
02. Reunions (02:13)
03. Back in Training (02:40)
04. Parade Ground (03:48)
05. The Rationale (01:18)
06. Preparations (01:36)
07. Village of the Dead (02:40)
08. The Tunnel (07:28)
09. Compound Assault (03:06)
10. Stealing the Chopper (03:13)
11. Vietnam Relived (02:44)
12. Mission Accomplished (05:39)

Лог создания рипа

Exact Audio Copy V0.99 prebeta 3 from 28. July 2007
EAC extraction logfile from 17. November 2007, 16:07
James Horner / Uncommon Valor
Used drive : PLEXTOR DVDR PX-760A Adapter: 1 ID: 0
Read mode : SecureUtilize accurate stream : YesDefeat audio cache : YesMake use of C2 pointers : No
Read offset correction : 30Overread into Lead-In and Lead-Out : YesFill up missing offset samples with silence : YesDelete leading and trailing silent blocks : NoNull samples used in CRC calculations : YesUsed interface : Installed external ASPI interface
Used output format : Internal WAV RoutinesSample format : 44.100 Hz; 16 Bit; Stereo
TOC of the extracted CD
Track | Start | Length | Start sector | End sector --------------------------------------------------------- 1 | 0:00.00 | 7:03.72 | 0 | 31796 2 | 7:03.72 | 2:16.50 | 31797 | 42046 3 | 9:20.47 | 2:42.35 | 42047 | 54231 4 | 12:03.07 | 3:51.08 | 54232 | 71564 5 | 15:54.15 | 1:21.15 | 71565 | 77654 6 | 17:15.30 | 1:38.42 | 77655 | 85046 7 | 18:53.72 | 2:42.25 | 85047 | 97221 8 | 21:36.22 | 7:31.13 | 97222 | 131059 9 | 29:07.35 | 3:06.72 | 131060 | 145081 10 | 32:14.32 | 3:14.33 | 145082 | 159664 11 | 35:28.65 | 2:45.15 | 159665 | 172054 12 | 38:14.05 | 5:40.02 | 172055 | 197556
Range status and errors
Selected range
Filename E:\EAC\James Horner - Uncommon Valor.wav
Peak level 100.0 % Range quality 100.0 % Copy CRC 0B9EFC71 Copy OK
No errors occurred
End of status report

Содержание индексной карты (.CUE)

REM GENRE SoundtrackREM DATE 1983REM DISCID A60A4A0CREM COMMENT "ExactAudioCopy v0.99pb3"CATALOG 0000000000000PERFORMER "James Horner"TITLE "Uncommon Valor"FILE "James Horner - Uncommon Valor.wv" WAVE TRACK 01 AUDIO TITLE "M.I.A. Prologue" PERFORMER "James Horner" INDEX 01 00:00:00 TRACK 02 AUDIO TITLE "Reunions" PERFORMER "James Horner" INDEX 00 07:02:20 INDEX 01 07:03:72 TRACK 03 AUDIO TITLE "Back In Training" PERFORMER "James Horner" INDEX 00 09:18:20 INDEX 01 09:20:47 TRACK 04 AUDIO TITLE "Parade Ground" PERFORMER "James Horner" INDEX 00 12:01:72 INDEX 01 12:03:07 TRACK 05 AUDIO TITLE "The Rationale" PERFORMER "James Horner" INDEX 00 15:51:45 INDEX 01 15:54:15 TRACK 06 AUDIO TITLE "Preparations" PERFORMER "James Horner" INDEX 00 17:13:17 INDEX 01 17:15:30 TRACK 07 AUDIO TITLE "Village Of The Dead" PERFORMER "James Horner" INDEX 00 18:52:07 INDEX 01 18:53:72 TRACK 08 AUDIO TITLE "The Tunnel" PERFORMER "James Horner" INDEX 00 21:35:15 INDEX 01 21:36:22 TRACK 09 AUDIO TITLE "Compound Assault" PERFORMER "James Horner" INDEX 00 29:05:15 INDEX 01 29:07:35 TRACK 10 AUDIO TITLE "Stealing The Chopper" PERFORMER "James Horner" INDEX 00 32:14:00 INDEX 01 32:14:32 TRACK 11 AUDIO TITLE "Vietnam Relived" PERFORMER "James Horner" INDEX 01 35:28:65 TRACK 12 AUDIO TITLE "Mission Accomplished" PERFORMER "James Horner" INDEX 00 38:13:32 INDEX 01 38:14:05

Скриншот спектра частот

[teatrix.ru].t10255.torrent 
Торрент: Зарегистрирован [ 2015-11-01 20:51 ] · 9BC2598DDBD10928C27A49F54BAFBDFDD02A5D

Скачать .torrent

Скачать

11 KB

Статус: проверено
Скачан: 0 раз
Размер: 263 MB
terms.php



Быстрый ответ

Имя:

      
Для отправки сообщений необходимо включить JavaScript
Показать сообщения:    

Текущее время: 11-Дек 03:19

Часовой пояс: UTC + 3


Вы можете начинать темы
Вы можете отвечать на сообщения
Вы не можете редактировать свои сообщения
Вы не можете удалять свои сообщения
Вы не можете голосовать в опросах
Вы не можете прикреплять файлы к сообщениям
Вы можете скачивать файлы