(Score) Проект Икс / Project X (by James Horner) - 2001 (1987), WavPack (image+.cue), lossless


Статистика раздачи [Обновить пиров]
Размер:  430 MB   |    Зарегистрирован:  1 год 1 месяц   |    Скачан:  0 раз

Полного источника не было: Никогда

Личеров:  6  [  0 KB/s  ]   Подробная статистика пиров
 
   
 
 
 

[Цитировать]

Проект Икс / Project X
Жанр: Score
Композитор: James Horner
Год выпуска диска: 2001
Год выпуска фильма: 1987
Страна-производитель диска: США
Издатель (лейбл): Varese Sarabande CD Club
Номер по каталогу: VCL 1101 1002
Аудиокодек: WavPack (*.wv)
Тип рипа: image+.cue
Битрейт аудио: lossless
Продолжительность: 1:14:58
Источник: ослосеть
Наличие сканов в содержимом раздачи: да
Треклист:
01. Main Title (04:54)
02. First Lesson (03:15)
03. Losing Virgil (04:10)
04. Learning To Fly (03:02)
05. The Plea (01:03)
06. New Friends (05:48)
07. Student Pilots (05:00)
08. Bluebeard's Flight (06:13)
09. Ghost Call (04:09)
10. The Rescue (06:00)
11. The Tower (06:02)
12. Chimp Rumble (05:48)
13. Chain Reaction (04:36)
14. The Escape (04:12)
15. Flying (04:28)
16. End Credits (06:09)

Лог создания рипа

Exact Audio Copy V0.99 prebeta 3 from 28. July 2007
EAC extraction logfile from 17. November 2007, 15:16
James Horner / Project X
Used drive : PLEXTOR DVDR PX-760A Adapter: 1 ID: 0
Read mode : SecureUtilize accurate stream : YesDefeat audio cache : YesMake use of C2 pointers : No
Read offset correction : 30Overread into Lead-In and Lead-Out : YesFill up missing offset samples with silence : YesDelete leading and trailing silent blocks : NoNull samples used in CRC calculations : YesUsed interface : Installed external ASPI interface
Used output format : Internal WAV RoutinesSample format : 44.100 Hz; 16 Bit; Stereo
TOC of the extracted CD
Track | Start | Length | Start sector | End sector --------------------------------------------------------- 1 | 0:00.00 | 4:54.58 | 0 | 22107 2 | 4:54.58 | 3:17.03 | 22108 | 36885 3 | 8:11.61 | 4:11.07 | 36886 | 55717 4 | 12:22.68 | 3:02.32 | 55718 | 69399 5 | 15:25.25 | 1:03.15 | 69400 | 74139 6 | 16:28.40 | 5:48.38 | 74140 | 100277 7 | 22:17.03 | 5:00.30 | 100278 | 122807 8 | 27:17.33 | 6:13.51 | 122808 | 150833 9 | 33:31.09 | 4:09.12 | 150834 | 169520 10 | 37:40.21 | 6:00.26 | 169521 | 196546 11 | 43:40.47 | 6:02.24 | 196547 | 223720 12 | 49:42.71 | 5:48.16 | 223721 | 249836 13 | 55:31.12 | 4:36.37 | 249837 | 270573 14 | 60:07.49 | 4:12.59 | 270574 | 289532 15 | 64:20.33 | 4:28.43 | 289533 | 309675 16 | 68:49.01 | 6:09.13 | 309676 | 337363
Range status and errors
Selected range
Filename E:\EAC\James Horner - Project X.wav
Peak level 97.2 % Range quality 100.0 % Copy CRC 365C8D87 Copy OK
No errors occurred
End of status report

Содержание индексной карты (.CUE)

REM GENRE SoundtrackREM DATE 1987REM DISCID E8119210REM COMMENT "ExactAudioCopy v0.99pb3"PERFORMER "James Horner"TITLE "Project X"FILE "James Horner - Project X.wv" WAVE TRACK 01 AUDIO TITLE "Main Title" PERFORMER "James Horner" INDEX 01 00:00:00 TRACK 02 AUDIO TITLE "First Lesson" PERFORMER "James Horner" INDEX 01 04:54:58 TRACK 03 AUDIO TITLE "Losing Virgil" PERFORMER "James Horner" INDEX 01 08:11:61 TRACK 04 AUDIO TITLE "Learning To Fly" PERFORMER "James Horner" INDEX 01 12:22:68 TRACK 05 AUDIO TITLE "The Plea" PERFORMER "James Horner" INDEX 01 15:25:25 TRACK 06 AUDIO TITLE "New Friends" PERFORMER "James Horner" INDEX 01 16:28:40 TRACK 07 AUDIO TITLE "Student Pilots" PERFORMER "James Horner" INDEX 01 22:17:03 TRACK 08 AUDIO TITLE "Bluebeard's Flight" PERFORMER "James Horner" INDEX 01 27:17:33 TRACK 09 AUDIO TITLE "Ghost Call" PERFORMER "James Horner" INDEX 01 33:31:09 TRACK 10 AUDIO TITLE "The Rescue" PERFORMER "James Horner" INDEX 01 37:40:21 TRACK 11 AUDIO TITLE "The Tower" PERFORMER "James Horner" INDEX 01 43:40:47 TRACK 12 AUDIO TITLE "Chimp Rumble" PERFORMER "James Horner" INDEX 01 49:42:71 TRACK 13 AUDIO TITLE "Chain Reaction" PERFORMER "James Horner" INDEX 01 55:31:12 TRACK 14 AUDIO TITLE "The Escape" PERFORMER "James Horner" INDEX 01 60:07:49 TRACK 15 AUDIO TITLE "Flying" PERFORMER "James Horner" INDEX 01 64:20:33 TRACK 16 AUDIO TITLE "End Credits" PERFORMER "James Horner" INDEX 01 68:49:01

Скриншоты спектра частот (png)

[teatrix.ru].t10256.torrent 
Торрент: Зарегистрирован [ 2015-11-01 20:51 ] · 9618B5A547DA92931BD5049528FE217B00E54B40

Скачать .torrent

Скачать

18 KB

Статус: проверено
Скачан: 0 раз
Размер: 430 MB
terms.php



Быстрый ответ

Имя:

      
Для отправки сообщений необходимо включить JavaScript
Показать сообщения:    

Текущее время: 10-Дек 09:57

Часовой пояс: UTC + 3


Вы можете начинать темы
Вы можете отвечать на сообщения
Вы не можете редактировать свои сообщения
Вы не можете удалять свои сообщения
Вы не можете голосовать в опросах
Вы не можете прикреплять файлы к сообщениям
Вы можете скачивать файлы