(Score) Доктор Живаго / Дочь Райана // Doctor Zhivago / Ryan\'s Daughter (by Maurice Jarre) - 1989 (1965, 1970), APE (image+.cue), lossless


Статистика раздачи [Обновить пиров]
Размер:  321 MB   |    Зарегистрирован:  1 год 1 месяц   |    Скачан:  0 раз

Полного источника не было: Никогда

Личеров:  7  [  0 KB/s  ]   Подробная статистика пиров
 
   
 
 
 

[Цитировать]

Доктор Живаго / Дочь Райана // Doctor Zhivago / Ryan's Daughter
Жанр: Score
Композитор: Maurice Jarre
Год выпуска диска: 1989
Год выпуска фильма: 1965, 1970
Страна-производитель диска: Германия
Издатель (лейбл): EMI Records
Номер по каталогу: CDP 7932982
Аудиокодек: APE (*.ape)
Тип рипа: image+.cue
Битрейт аудио: lossless
Продолжительность: 1:12:01
Источник: ослосеть
Наличие сканов в содержимом раздачи: да
Треклист:
01. Overture
02. Main Title
03. Lara Leaves Yuri
04. At The Student Cafe
05. Komarovsky And Lara's Rendezvous
06. Revolution
07. Lara's Theme
08. The Funeral
09. Sventytski's Waltz
10. Yuri Escapes
11. Tonya Arrives At Varykino
12. Yuri Writes A Poem For Lara
tracks 01-12 from Doctor Zhivago
13. Main Title
14. The Major
15. You Don't Want Me Then
16. Michael's Theme
17. Ride Through The Woods
18. Obsession
19. Overture
20. The Shakes Based On Michael's Theme
21. Rosy On The Beach
22. Song Of The Irish Rebels
23. Rosy And The Schoolmaster
24. Michael Shows Randolph His Strange Treasure
25. Rosy's Theme
tracks 13-25 from Ryan's Daughter

Лог создания рипа

Exact Audio Copy V0.99 prebeta 3 from 28. July 2007
EAC extraction logfile from 21. November 2007, 13:52
Maurice Jarre / Doctor Zhivago & Ryan's Daughter
Used drive : LITE-ON DVDRW SHW-1635S Adapter: 1 ID: 0
Read mode : SecureUtilize accurate stream : YesDefeat audio cache : YesMake use of C2 pointers : No
Read offset correction : 6Overread into Lead-In and Lead-Out : NoFill up missing offset samples with silence : YesDelete leading and trailing silent blocks : NoNull samples used in CRC calculations : YesUsed interface : Installed external ASPI interface
Used output format : Internal WAV RoutinesSample format : 44.100 Hz; 16 Bit; Stereo
TOC of the extracted CD
Track | Start | Length | Start sector | End sector --------------------------------------------------------- 1 | 0:00.33 | 4:24.52 | 33 | 19884 2 | 4:25.10 | 2:41.25 | 19885 | 31984 3 | 7:06.35 | 1:28.68 | 31985 | 38652 4 | 8:35.28 | 1:35.67 | 38653 | 45844 5 | 10:11.20 | 3:53.05 | 45845 | 63324 6 | 14:04.25 | 4:05.70 | 63325 | 81769 7 | 18:10.20 | 2:53.58 | 81770 | 94802 8 | 21:04.03 | 3:09.10 | 94803 | 108987 9 | 24:13.13 | 2:19.70 | 108988 | 119482 10 | 26:33.08 | 2:20.70 | 119483 | 130052 11 | 28:54.03 | 3:51.17 | 130053 | 147394 12 | 32:45.20 | 2:54.10 | 147395 | 160454 13 | 35:39.30 | 4:36.50 | 160455 | 181204 14 | 40:16.05 | 2:35.15 | 181205 | 192844 15 | 42:51.20 | 2:54.65 | 192845 | 205959 16 | 45:46.10 | 3:13.38 | 205960 | 220472 17 | 48:59.48 | 2:49.17 | 220473 | 233164 18 | 51:48.65 | 2:05.45 | 233165 | 242584 19 | 53:54.35 | 4:03.08 | 242585 | 260817 20 | 57:57.43 | 2:11.60 | 260818 | 270702 21 | 60:09.28 | 1:43.20 | 270703 | 278447 22 | 61:52.48 | 2:10.10 | 278448 | 288207 23 | 64:02.58 | 2:44.35 | 288208 | 300542 24 | 66:47.18 | 3:07.10 | 300543 | 314577 25 | 69:54.28 | 2:06.67 | 314578 | 324094
Range status and errors
Selected range
Filename D:\Maurice Jarre - Doctor Zhivago & Ryan's Daughter.wav
Peak level 100.0 % Range quality 100.0 % Copy CRC 47EC8CDD Copy OK
No errors occurred
AccurateRip summary
Track 1 not present in databaseTrack 2 not present in databaseTrack 3 not present in databaseTrack 4 not present in databaseTrack 5 not present in databaseTrack 6 not present in databaseTrack 7 not present in databaseTrack 8 not present in databaseTrack 9 not present in databaseTrack 10 not present in databaseTrack 11 not present in databaseTrack 12 not present in databaseTrack 13 not present in databaseTrack 14 not present in databaseTrack 15 not present in databaseTrack 16 not present in databaseTrack 17 not present in databaseTrack 18 not present in databaseTrack 19 not present in databaseTrack 20 not present in databaseTrack 21 not present in databaseTrack 22 not present in databaseTrack 23 not present in databaseTrack 24 not present in databaseTrack 25 not present in database
None of the tracks are present in the AccurateRip database
End of status report

Содержание индексной карты (.CUE)

REM GENRE SoundtrackREM DATE 1989REM DISCID 7410E119REM COMMENT "ExactAudioCopy v0.99pb3"PERFORMER "Maurice Jarre"TITLE "Doctor Zhivago & Ryan's Daughter"FILE "Maurice Jarre - Doctor Zhivago & Ryan's Daughter.ape" WAVE TRACK 01 AUDIO TITLE "Overture From 'Doctor Zhivago'" PERFORMER "Maurice Jarre" INDEX 00 00:00:00 INDEX 01 00:00:33 TRACK 02 AUDIO TITLE "Main Title From 'Doctor Zhivago'" PERFORMER "Maurice Jarre" INDEX 00 04:23:03 INDEX 01 04:25:10 TRACK 03 AUDIO TITLE "Lara Leaves Yuri" PERFORMER "Maurice Jarre" INDEX 00 07:05:00 INDEX 01 07:06:35 TRACK 04 AUDIO TITLE "At The Student's Cafe" PERFORMER "Maurice Jarre" INDEX 00 08:34:29 INDEX 01 08:35:28 TRACK 05 AUDIO TITLE "Komarovsky And Lara's Rendez-Vous" PERFORMER "Maurice Jarre" INDEX 00 10:09:68 INDEX 01 10:11:20 TRACK 06 AUDIO TITLE "Revolution" PERFORMER "Maurice Jarre" INDEX 00 14:03:30 INDEX 01 14:04:25 TRACK 07 AUDIO TITLE "Lara's Theme From 'Doctor Zhivago'" PERFORMER "Maurice Jarre" INDEX 00 18:09:13 INDEX 01 18:10:20 TRACK 08 AUDIO TITLE "The Funeral" PERFORMER "Maurice Jarre" INDEX 00 21:02:68 INDEX 01 21:04:03 TRACK 09 AUDIO TITLE "Sventytski's Waltz" PERFORMER "Maurice Jarre" INDEX 00 24:12:00 INDEX 01 24:13:13 TRACK 10 AUDIO TITLE "Yuri Escapes" PERFORMER "Maurice Jarre" INDEX 00 26:31:30 INDEX 01 26:33:08 TRACK 11 AUDIO TITLE "Tonya Arrives At Varykino" PERFORMER "Maurice Jarre" INDEX 00 28:52:20 INDEX 01 28:54:03 TRACK 12 AUDIO TITLE "Yuri Writes A Poem For Lara" PERFORMER "Maurice Jarre" INDEX 00 32:43:58 INDEX 01 32:45:20 TRACK 13 AUDIO TITLE "Main Title" PERFORMER "Maurice Jarre" INDEX 00 35:33:28 INDEX 01 35:39:30 TRACK 14 AUDIO TITLE "The Major" PERFORMER "Maurice Jarre" INDEX 00 40:13:70 INDEX 01 40:16:05 TRACK 15 AUDIO TITLE "You Don't Want Me Then" PERFORMER "Maurice Jarre" INDEX 00 42:50:30 INDEX 01 42:51:20 TRACK 16 AUDIO TITLE "Michael's Theme" PERFORMER "Maurice Jarre" INDEX 00 45:45:20 INDEX 01 45:46:10 TRACK 17 AUDIO TITLE "Ride Through The Woods" PERFORMER "Maurice Jarre" INDEX 00 48:58:20 INDEX 01 48:59:48 TRACK 18 AUDIO TITLE "Obsession" PERFORMER "Maurice Jarre" INDEX 00 51:47:33 INDEX 01 51:48:65 TRACK 19 AUDIO TITLE "Overture" PERFORMER "Maurice Jarre" INDEX 00 53:53:68 INDEX 01 53:54:35 TRACK 20 AUDIO TITLE "The Shakes Based On Michael's Theme" PERFORMER "Maurice Jarre" INDEX 00 57:55:68 INDEX 01 57:57:43 TRACK 21 AUDIO TITLE "Rosy On The Beach" PERFORMER "Maurice Jarre" INDEX 00 60:08:08 INDEX 01 60:09:28 TRACK 22 AUDIO TITLE "Song Of The Irish Rebels" PERFORMER "Maurice Jarre" INDEX 00 61:51:03 INDEX 01 61:52:48 TRACK 23 AUDIO TITLE "Rosy And The Schoolmaster" PERFORMER "Maurice Jarre" INDEX 00 64:01:20 INDEX 01 64:02:58 TRACK 24 AUDIO TITLE "Michael Shows Randolph His Strange Treasure" PERFORMER "Maurice Jarre" INDEX 00 66:45:48 INDEX 01 66:47:18 TRACK 25 AUDIO TITLE "Rosy's Theme" PERFORMER "Maurice Jarre" INDEX 00 69:53:03 INDEX 01 69:54:28

Лог проверки качества

Started at: воскресенье, 18. 10. 2015. - 22:51.43
1 file found, 1 file left after filtering
1 -===- C:\!_TORRENT\Maurice Jarre - Doctor Zhivago & Ryan's Daughter (1989) [APE]\Maurice Jarre - Doctor Zhivago & Ryan's Daughter.ape Extracted successfully Conclusion: This track looks like CDDA with probability 43% Tempfile successfully deleted.
Finished at: воскресенье, 18. 10. 2015. - 22:59.27 (operation time: 0:07.43)

Скриншоты спектра частот (png)

[teatrix.ru].t10257.torrent 
Торрент: Зарегистрирован [ 2015-11-01 20:51 ] · 89C6216A1E6357C7EE00837F4C9A8D97BDD921C5

Скачать .torrent

Скачать

14 KB

Статус: проверено
Скачан: 0 раз
Размер: 321 MB
terms.php



Быстрый ответ

Имя:

      
Для отправки сообщений необходимо включить JavaScript
Показать сообщения:    

Текущее время: 03-Дек 22:48

Часовой пояс: UTC + 3


Вы можете начинать темы
Вы можете отвечать на сообщения
Вы не можете редактировать свои сообщения
Вы не можете удалять свои сообщения
Вы не можете голосовать в опросах
Вы не можете прикреплять файлы к сообщениям
Вы можете скачивать файлы