(Score) Доброе утро, мисс Дав / Черная вдова // Good Morning, Miss Dove / Black Widow (by Leigh Harline) - 2009 (1955, 1954), WavPack (image+.cue), lossless


Статистика раздачи [Обновить пиров]
Размер:  278 MB   |    Зарегистрирован:  1 год 1 месяц   |    Скачан:  0 раз

Полного источника не было: Никогда

Личеров:  5  [  0 KB/s  ]   Подробная статистика пиров
 
   
 
 
 

[Цитировать]

Доброе утро, мисс Дав / Черная вдова // Good Morning, Miss Dove / Black Widow
Жанр: Score
Композитор: Leigh Harline
Год выпуска диска: 2009
Год выпуска фильма: 1955, 1954
Страна-производитель диска: США
Издатель (лейбл): Intrada Special Collection
Номер по каталогу: Vol. 105
Аудиокодек: WavPack (*.wv)
Тип рипа: image+.cue
Битрейт аудио: lossless
Продолжительность: 53:36
Источник: ослосеть
Наличие сканов в содержимом раздачи: да
Треклист:
01. Foreword (04:27)
02. Second Warning (01:45)
03. Death of Mr. Dove (01:58)
04. "You Tell Me Your Dream, I'll Tell You Mine" (04:34)
05. The Awesome Miss Dove (02:48)
06. Graduation Present (03:30)
07. Miss Dove's Medal (03:07)
08. Rescue and Accomplishment (01:51)
09. The Legacy (04:46)
10. "Good Morning, Miss Dove" song demo (02:41)
tracks 01-10 from "Good Morning, Miss Dove"
11. Main Title (01:25)
12. New York Skyline (01:31)
13. West Ninth Street (01:56)
14. Iris Bolieres (04:05)
15. "Salome's Dance" (01:45)
16. The Letter (01:55)
17. Decision (02:49)
18. Confession (02:57)
19. Overheard Conversation (02:47)
20. Finale (00:21)
tracks 11-20 from "Black Widow"

Лог создания рипа

Exact Audio Copy V0.99 prebeta 5 from 4. May 2009
EAC extraction logfile from 18. October 2009, 16:24
Leigh Harline / Good Morning, Miss Dove - Black Widow
Used drive : PIONEER BD-ROM BDC-202 Adapter: 2 ID: 0
Read mode : SecureUtilize accurate stream : YesDefeat audio cache : YesMake use of C2 pointers : No
Read offset correction : 667Overread into Lead-In and Lead-Out : NoFill up missing offset samples with silence : YesDelete leading and trailing silent blocks : NoNull samples used in CRC calculations : YesUsed interface : Installed external ASPI interface
Used output format : Internal WAV RoutinesSample format : 44.100 Hz; 16 Bit; Stereo
TOC of the extracted CD
Track | Start | Length | Start sector | End sector --------------------------------------------------------- 1 | 0:00.00 | 4:28.48 | 0 | 20147 2 | 4:28.48 | 1:46.71 | 20148 | 28168 3 | 6:15.44 | 1:59.40 | 28169 | 37133 4 | 8:15.09 | 4:34.30 | 37134 | 57713 5 | 12:49.39 | 2:48.59 | 57714 | 70372 6 | 15:38.23 | 3:31.00 | 70373 | 86197 7 | 19:09.23 | 3:07.41 | 86198 | 100263 8 | 22:16.64 | 1:51.63 | 100264 | 108651 9 | 24:08.52 | 4:48.60 | 108652 | 130311 10 | 28:57.37 | 2:48.72 | 130312 | 142983 11 | 31:46.34 | 1:29.01 | 142984 | 149659 12 | 33:15.35 | 1:31.24 | 149660 | 156508 13 | 34:46.59 | 1:58.14 | 156509 | 165372 14 | 36:44.73 | 4:07.48 | 165373 | 183945 15 | 40:52.46 | 1:47.10 | 183946 | 191980 16 | 42:39.56 | 1:57.29 | 191981 | 200784 17 | 44:37.10 | 2:51.31 | 200785 | 213640 18 | 47:28.41 | 2:58.43 | 213641 | 227033 19 | 50:27.09 | 2:49.26 | 227034 | 239734 20 | 53:16.35 | 0:20.00 | 239735 | 241234
Range status and errors
Selected range
Filename D:\Discos\Leigh Harline - Good Morning, Miss Dove & Black Widow\Good Morning, Miss Dove & Black Widow.wav
Peak level 98.8 % Range quality 100.0 % Copy CRC 9429D07B Copy OK
No errors occurred
End of status report

Содержание индексной карты (.CUE)

REM GENRE SoundtrackREM DATE 1955REM DISCID 310C9014REM COMMENT "ExactAudioCopy v0.99pb5"PERFORMER "Leigh Harline"TITLE "Good Morning, Miss Dove - Black Widow"FILE "Good Morning, Miss Dove & Black Widow.wav" WAVE TRACK 01 AUDIO TITLE "Foreword" PERFORMER "Leigh Harline" INDEX 01 00:00:00 TRACK 02 AUDIO TITLE "Second Warning" PERFORMER "Leigh Harline" INDEX 00 04:27:38 INDEX 01 04:28:48 TRACK 03 AUDIO TITLE "Death Of Mr. Dove" PERFORMER "Leigh Harline" INDEX 00 06:14:36 INDEX 01 06:15:44 TRACK 04 AUDIO TITLE "'You Tell Me Your Dream, I'll Tell You Mine'" PERFORMER "Leigh Harline" INDEX 00 08:14:06 INDEX 01 08:15:09 TRACK 05 AUDIO TITLE "The Awesome Miss Dove" PERFORMER "Leigh Harline" INDEX 01 12:49:39 TRACK 06 AUDIO TITLE "Graduation Present" PERFORMER "Leigh Harline" INDEX 01 15:38:23 TRACK 07 AUDIO TITLE "Miss Dove's Medal" PERFORMER "Leigh Harline" INDEX 00 19:08:22 INDEX 01 19:09:23 TRACK 08 AUDIO TITLE "Rescue And Accomplishment" PERFORMER "Leigh Harline" INDEX 01 22:16:64 TRACK 09 AUDIO TITLE "The Legacy" PERFORMER "Leigh Harline" INDEX 01 24:08:52 TRACK 10 AUDIO TITLE "'Good Morning, Miss Dove' Song Demo" PERFORMER "Leigh Harline" INDEX 00 28:55:31 INDEX 01 28:57:37 TRACK 11 AUDIO TITLE "Main Title" PERFORMER "Leigh Harline" INDEX 00 31:39:34 INDEX 01 31:46:34 TRACK 12 AUDIO TITLE "New York Skyline" PERFORMER "Leigh Harline" INDEX 00 33:12:30 INDEX 01 33:15:35 TRACK 13 AUDIO TITLE "West Ninth Street" PERFORMER "Leigh Harline" INDEX 01 34:46:59 TRACK 14 AUDIO TITLE "Iris Bolieres" PERFORMER "Leigh Harline" INDEX 00 36:43:16 INDEX 01 36:44:73 TRACK 15 AUDIO TITLE "'Salome's Dance'" PERFORMER "Leigh Harline" INDEX 00 40:50:57 INDEX 01 40:52:46 TRACK 16 AUDIO TITLE "The Letter" PERFORMER "Leigh Harline" INDEX 00 42:38:29 INDEX 01 42:39:56 TRACK 17 AUDIO TITLE "Decision" PERFORMER "Leigh Harline" INDEX 00 44:35:25 INDEX 01 44:37:10 TRACK 18 AUDIO TITLE "Confession" PERFORMER "Leigh Harline" INDEX 00 47:26:67 INDEX 01 47:28:41 TRACK 19 AUDIO TITLE "Overheard Conversation" PERFORMER "Leigh Harline" INDEX 00 50:25:72 INDEX 01 50:27:09 TRACK 20 AUDIO TITLE "Finale" PERFORMER "Leigh Harline" INDEX 00 53:14:67 INDEX 01 53:16:35

Скриншоты спектра частот (png)

[teatrix.ru].t10258.torrent 
Торрент: Зарегистрирован [ 2015-11-01 20:51 ] · 4FEB6C3723761F266FB55D2268AF879E9378BB4C

Скачать .torrent

Скачать

12 KB

Статус: проверено
Скачан: 0 раз
Размер: 278 MB
terms.php



Быстрый ответ

Имя:

      
Для отправки сообщений необходимо включить JavaScript
Показать сообщения:    

Текущее время: 04-Дек 11:08

Часовой пояс: UTC + 3


Вы можете начинать темы
Вы можете отвечать на сообщения
Вы не можете редактировать свои сообщения
Вы не можете удалять свои сообщения
Вы не можете голосовать в опросах
Вы не можете прикреплять файлы к сообщениям
Вы можете скачивать файлы