(Soundtrack) Джек и Сара / Jack & Sarah (Jack & Sarah) (Simon Boswell) - 1995, FLAC (tracks+.cue), lossless


Статистика раздачи [Обновить пиров]
Размер:  416 MB   |    Зарегистрирован:  1 год 1 месяц   |    Скачан:  0 раз

Полного источника не было: Никогда

Личеров:  6  [  0 KB/s  ]   Подробная статистика пиров
 
   
 
 
 

[Цитировать]

.
.
Джек и Сара / Jack & Sarah.
.
Название альбома: Jack & Sarah
Жанр: Soundtrack
Композитор: Simon Boswell
Год выпуска диска: 1995
Год выпуска фильма: 1995
Страна-производитель диска: Germany
Издатель (лейбл): Polydor
Номер по каталогу: CD 527 925-2
Аудиокодек: FLAC (*.flac)
Тип рипа: tracks+.cue
Битрейт аудио: lossless
Продолжительность: 01:02:00
Источник: собственный рип
Наличие сканов в содержимом раздачи: да 600 dpi
.
.
.
.
.
Треклист:

01. Simply Red - Stars.
02. Oleta Adams - Window Of Hope.
03. Del Amitri - Here And Now.
04. East 17 - Around The World.
05. Lighthouse Family - Ocean Drive.
06. Gabrielle - We Don't Talk.
07. Paulo Mendonca - Chocolate Chop & Chicken Bone.
08. Massive Attack - Unfinished Sympathy.
09. Omar - There's Nothing Like This.
10. Simon Boswell - Jack And Sarah's Theme.
11. The Brand New Heavies - Forever.
12. Annie Lennox - Precious.

Лог создания рипа

Exact Audio Copy V1.0 beta 3 from 29. August 2011
Отчёт EAC об извлечении, выполненном 14. октября 2015, 10:08
Various / Jack & Sarah
Дисковод: DVDRW DRW-6S160P Adapter: 7 ID: 0
Режим чтения : ДостоверностьИспользование точного потока : ДаОтключение кэша аудио : ДаИспользование указателей C2 : Нет
Коррекция смещения при чтении : 6Способность читать области Lead-in и Lead-out : НетЗаполнение пропущенных сэмплов тишиной : ДаУдаление блоков с тишиной в начале и конце : НетПри вычислениях CRC использовались нулевые сэмплы : ДаИнтерфейс : Установленный внешний ASPI-интерфейсОбработка зазоров : Добавлено к предыдущему треку
Выходной формат : Пользовательский кодировщикВыбранный битрейт : 128 kBit/sКачество : ВысокийДобавление ID3-тега : НетУтилита сжатия : C:\Program Files\Exact Audio Copy\FLAC\FLAC.EXEДополнительные параметры : -V -8 -T "Genre=%genre%" -T "Artist=%artist%" -T "Title=%title%" -T "Album=%albumtitle%" -T "Date=%year%" -T "Tracknumber=%tracknr%" -T "Comment=%comment%" %source%
TOC извлечённого CD
Трек | Старт | Длительность | Начальный сектор | Конечный сектор --------------------------------------------------------------------- 1 | 0:00.33 | 4:09.37 | 33 | 18744 2 | 4:09.70 | 4:17.45 | 18745 | 38064 3 | 8:27.40 | 5:39.30 | 38065 | 63519 4 | 14:06.70 | 4:34.50 | 63520 | 84119 5 | 18:41.45 | 4:07.25 | 84120 | 102669 6 | 22:48.70 | 4:32.38 | 102670 | 123107 7 | 27:21.33 | 3:41.50 | 123108 | 139732 8 | 31:03.08 | 5:03.65 | 139733 | 162522 9 | 36:06.73 | 3:59.10 | 162523 | 180457 10 | 40:06.08 | 10:35.12 | 180458 | 228094 11 | 50:41.20 | 5:30.08 | 228095 | 252852 12 | 56:11.28 | 5:49.55 | 252853 | 279082
Трек 1
Имя файла I:\MOI_RAZDACI\VA Jack & Sarah - Soundtrack\VA_Jack.and.Sarah_1995\01. Simply Red - Stars.wav
Длина предзазора 0:00:02.33
Пиковый уровень 95.0 % Скорость извлечения 2.2 X Качество трека 100.0 % CRC теста 408C0366 CRC копии 408C0366 Точное извлечение (достоверность 4) [BBE746B7] (AR v1) Копирование... OK
Трек 2
Имя файла I:\MOI_RAZDACI\VA Jack & Sarah - Soundtrack\VA_Jack.and.Sarah_1995\02. Oleta Adams - Window Of Hope.wav
Длина предзазора 0:00:01.25
Пиковый уровень 98.0 % Скорость извлечения 1.6 X Качество трека 99.9 % CRC теста 57B6083D CRC копии 57B6083D Точное извлечение (достоверность 4) [1D2D2EFD] (AR v1) Копирование... OK
Трек 3
Имя файла I:\MOI_RAZDACI\VA Jack & Sarah - Soundtrack\VA_Jack.and.Sarah_1995\03. Del Amitri - Here And Now.wav
Длина предзазора 0:00:00.11
Пиковый уровень 86.9 % Скорость извлечения 1.8 X Качество трека 99.9 % CRC теста DDA0E6B4 CRC копии DDA0E6B4 Точное извлечение (достоверность 4) [99DAA5AF] (AR v1) Копирование... OK
Трек 4
Имя файла I:\MOI_RAZDACI\VA Jack & Sarah - Soundtrack\VA_Jack.and.Sarah_1995\04. East 17 - Around The World.wav
Длина предзазора 0:00:00.40
Пиковый уровень 98.2 % Скорость извлечения 2.2 X Качество трека 100.0 % CRC теста 7C534D69 CRC копии 7C534D69 Точное извлечение (достоверность 4) [D1AC7609] (AR v1) Копирование... OK
Трек 5
Имя файла I:\MOI_RAZDACI\VA Jack & Sarah - Soundtrack\VA_Jack.and.Sarah_1995\05. Lighthouse Family - Ocean Drive.wav
Длина предзазора 0:00:00.09
Пиковый уровень 98.0 % Скорость извлечения 1.5 X Качество трека 99.9 % CRC теста 2CED649E CRC копии 2CED649E Точное извлечение (достоверность 4) [2C32A47C] (AR v1) Копирование... OK
Трек 6
Имя файла I:\MOI_RAZDACI\VA Jack & Sarah - Soundtrack\VA_Jack.and.Sarah_1995\06. Gabrielle - We Don't Talk.wav
Длина предзазора 0:00:00.18
Пиковый уровень 96.5 % Скорость извлечения 2.2 X Качество трека 100.0 % CRC теста 20E286CE CRC копии 20E286CE Точное извлечение (достоверность 4) [B3B9D27D] (AR v1) Копирование... OK
Трек 7
Имя файла I:\MOI_RAZDACI\VA Jack & Sarah - Soundtrack\VA_Jack.and.Sarah_1995\07. Paulo Mendonca - Chocolate Chop & Chicken Bone.wav
Длина предзазора 0:00:00.71
Пиковый уровень 79.5 % Скорость извлечения 2.1 X Качество трека 100.0 % CRC теста 10066023 CRC копии 10066023 Точное извлечение (достоверность 4) [B92734FF] (AR v1) Копирование... OK
Трек 8
Имя файла I:\MOI_RAZDACI\VA Jack & Sarah - Soundtrack\VA_Jack.and.Sarah_1995\08. Massive Attack - Unfinished Sympathy.wav
Длина предзазора 0:00:00.47
Пиковый уровень 94.1 % Скорость извлечения 2.2 X Качество трека 100.0 % CRC теста E16CC9AD CRC копии E16CC9AD Точное извлечение (достоверность 4) [01E3C0B0] (AR v1) Копирование... OK
Трек 9
Имя файла I:\MOI_RAZDACI\VA Jack & Sarah - Soundtrack\VA_Jack.and.Sarah_1995\09. Omar - There's Nothing Like This.wav
Длина предзазора 0:00:00.03
Пиковый уровень 98.0 % Скорость извлечения 1.6 X Качество трека 99.9 % CRC теста 858695E0 CRC копии 858695E0 Точное извлечение (достоверность 4) [DA29DE8A] (AR v1) Копирование... OK
Трек 10
Имя файла I:\MOI_RAZDACI\VA Jack & Sarah - Soundtrack\VA_Jack.and.Sarah_1995\10. Simon Boswell - Jack And Sarah's Theme.wav
Длина предзазора 0:00:01.47
Пиковый уровень 93.6 % Скорость извлечения 2.4 X Качество трека 100.0 % CRC теста 135A6458 CRC копии 135A6458 Точное извлечение (достоверность 4) [87D67CF8] (AR v1) Копирование... OK
Трек 11
Имя файла I:\MOI_RAZDACI\VA Jack & Sarah - Soundtrack\VA_Jack.and.Sarah_1995\11. The Brand New Heavies - Forever.wav
Длина предзазора 0:00:01.02
Пиковый уровень 94.3 % Скорость извлечения 1.8 X Качество трека 99.9 % CRC теста A2112385 CRC копии A2112385 Точное извлечение (достоверность 4) [39A9F035] (AR v1) Копирование... OK
Трек 12
Имя файла I:\MOI_RAZDACI\VA Jack & Sarah - Soundtrack\VA_Jack.and.Sarah_1995\12. Annie Lennox - Precious.wav
Длина предзазора 0:00:00.02
Пиковый уровень 98.0 % Скорость извлечения 2.2 X Качество трека 100.0 % CRC теста C479FD83 CRC копии C479FD83 Точное извлечение (достоверность 4) [0328BF70] (AR v1) Копирование... OK
Все треки извлечены точно
Ошибок не произошло
Конец отчёта
==== Контрольная сумма отчёта C0DB1DADC6C9D15BA0F2608268A3A78BB52874E97C3491899189D7EE4914C6EC ====

Содержание индексной карты (.CUE)

REM GENRE SoundtrackREM DATE 1995REM DISCID 990E890CREM COMMENT "ExactAudioCopy v1.0b3"CATALOG 1201054802346PERFORMER "Various"TITLE "Jack & Sarah"FILE "01. Simply Red - Stars.wav" WAVE TRACK 01 AUDIO TITLE "Stars" PERFORMER "Simply Red" PREGAP 00:00:33 INDEX 01 00:00:00 TRACK 02 AUDIO TITLE "Window Of Hope" PERFORMER "Oleta Adams" INDEX 00 04:08:12FILE "02. Oleta Adams - Window Of Hope.wav" WAVE INDEX 01 00:00:00 TRACK 03 AUDIO TITLE "Here And Now" PERFORMER "Del Amitri" INDEX 00 04:17:34FILE "03. Del Amitri - Here And Now.wav" WAVE INDEX 01 00:00:00 TRACK 04 AUDIO TITLE "Around The World" PERFORMER "East 17" INDEX 00 05:38:65FILE "04. East 17 - Around The World.wav" WAVE INDEX 01 00:00:00 TRACK 05 AUDIO TITLE "Ocean Drive" PERFORMER "Lighthouse Family" INDEX 00 04:34:41FILE "05. Lighthouse Family - Ocean Drive.wav" WAVE INDEX 01 00:00:00 TRACK 06 AUDIO TITLE "We Don't Talk" PERFORMER "Gabrielle" INDEX 00 04:07:07FILE "06. Gabrielle - We Don't Talk.wav" WAVE INDEX 01 00:00:00 TRACK 07 AUDIO TITLE "Chocolate Chop & Chicken Bone" PERFORMER "Paulo Mendonca" INDEX 00 04:31:42FILE "07. Paulo Mendonca - Chocolate Chop & Chicken Bone.wav" WAVE INDEX 01 00:00:00 TRACK 08 AUDIO TITLE "Unfinished Sympathy" PERFORMER "Massive Attack" INDEX 00 03:41:03FILE "08. Massive Attack - Unfinished Sympathy.wav" WAVE INDEX 01 00:00:00 TRACK 09 AUDIO TITLE "There's Nothing Like This" PERFORMER "Omar" INDEX 00 05:03:62FILE "09. Omar - There's Nothing Like This.wav" WAVE INDEX 01 00:00:00 TRACK 10 AUDIO TITLE "Jack And Sarah's Theme" PERFORMER "Simon Boswell" INDEX 00 03:57:38FILE "10. Simon Boswell - Jack And Sarah's Theme.wav" WAVE INDEX 01 00:00:00 TRACK 11 AUDIO TITLE "Forever" PERFORMER "The Brand New Heavies" INDEX 00 10:34:10FILE "11. The Brand New Heavies - Forever.wav" WAVE INDEX 01 00:00:00 TRACK 12 AUDIO TITLE "Precious" PERFORMER "Annie Lennox" INDEX 00 05:30:06FILE "12. Annie Lennox - Precious.wav" WAVE INDEX 01 00:00:00

Лог проверки качества

-----------------------
DON'T MODIFY THIS FILE
-----------------------
PERFORMER: auCDtect Task Manager, ver. 1.5.1RC6 build 1.5.1.7Copyright (c) 2008-2010 y-soft. All rights reservedhttp://y-soft.org
ANALYZER: auCDtect: CD records authenticity detector, version 0.8.2Copyright (c) 2004 Oleg Berngardt. All rights reserved.Copyright (c) 2004 Alexander Djourik. All rights reserved.
FILE: 12. Annie Lennox - Precious.flac Size: 38280182 Hash: 0B18F1742AED72AE5A3AD8E52413BD0F Accuracy: -m0 Conclusion: CDDA 100% Signature: 728BABAE008170EB37DEF44F4D300C5EDE4A3106FILE: 11. The Brand New Heavies - Forever.flac Size: 39689072 Hash: 6796694795330DCEDC06EC0D8D300824 Accuracy: -m0 Conclusion: CDDA 100% Signature: 8A1BFA170BA0EE0FD3E3BFEBA071EF2FBF8F658DFILE: 10. Simon Boswell - Jack And Sarah's Theme.flac Size: 58316988 Hash: 6AF47E620926536DC7F67FF1840F6FB3 Accuracy: -m0 Conclusion: CDDA 100% Signature: AB4BE645264F9133E3226D674E98895853DE725DFILE: 09. Omar - There's Nothing Like This.flac Size: 24981550 Hash: 80BDE69E33BD1506969AEB5CDEDFBA07 Accuracy: -m0 Conclusion: MPEG 95% Signature: 5AF42B125241605819A4F3A1C1F0E3642939F2DAFILE: 08. Massive Attack - Unfinished Sympathy.flac Size: 33789307 Hash: A8E006C5ACDD1F63311F93C9FDF9328D Accuracy: -m0 Conclusion: CDDA 100% Signature: B7F3504D297824EC45CF509665190F7021081357FILE: 07. Paulo Mendonca - Chocolate Chop & Chicken Bone.flac Size: 27918145 Hash: C9AFF68805C86F25D44EF0EA9E38FB20 Accuracy: -m0 Conclusion: CDDA 100% Signature: 208AA8550F83D19410B3FD6B88884790798BD8E2FILE: 06. Gabrielle - We Don't Talk.flac Size: 32904292 Hash: 5F5E45F7C677782B2944511D940EECA1 Accuracy: -m0 Conclusion: CDDA 100% Signature: D38F4E77BC0ADE5931FA3C3EFCAB60EF11FDB4ADFILE: 05. Lighthouse Family - Ocean Drive.flac Size: 27177145 Hash: 0EA52D074A5A1654D1BD25F5F9B177EC Accuracy: -m0 Conclusion: CDDA 100% Signature: AC3D8CDFAE4C7955C442348C684B9ED0922A2925FILE: 04. East 17 - Around The World.flac Size: 31859493 Hash: 6DF3BDBFDFC54D16608DAAD32691A4F5 Accuracy: -m0 Conclusion: CDDA 100% Signature: 169CEAC760F192818CE2A422F5F2A47FE7F12E88FILE: 03. Del Amitri - Here And Now.flac Size: 39306855 Hash: A3AFDAD7C8A3EC392525A3A3F6974C57 Accuracy: -m0 Conclusion: CDDA 100% Signature: FD1BFC1DDA038953864E2ABA5A4A900199A2FD65FILE: 02. Oleta Adams - Window Of Hope.flac Size: 31345804 Hash: 15815A3B787B027DA4E618707527C4C9 Accuracy: -m0 Conclusion: CDDA 100% Signature: 96AB13E949071F862F2375985D60111D7CB99914FILE: 01. Simply Red - Stars.flac Size: 28391946 Hash: 5EE1CD286863A097616AD60C7CFC62D3 Accuracy: -m0 Conclusion: CDDA 100% Signature: C22E91503363A75ED7F133AC6E8D2BF6951479C5

Скриншот спектра частот

[teatrix.ru].t10260.torrent 
Торрент: Зарегистрирован [ 2015-11-01 20:51 ] · 44125282910118C1781A7A2BF1AE72FF53984F04

Скачать .torrent

Скачать

18 KB

Статус: проверено
Скачан: 0 раз
Размер: 416 MB
terms.php



Быстрый ответ

Имя:

      
Для отправки сообщений необходимо включить JavaScript
Показать сообщения:    

Текущее время: 04-Дек 17:14

Часовой пояс: UTC + 3


Вы можете начинать темы
Вы можете отвечать на сообщения
Вы не можете редактировать свои сообщения
Вы не можете удалять свои сообщения
Вы не можете голосовать в опросах
Вы не можете прикреплять файлы к сообщениям
Вы можете скачивать файлы