(Score / Cartoon) Рио 2 / Rio 2 (by John Powell) - 2012, FLAC (tracks+.cue), lossless


Статистика раздачи [Обновить пиров]
Размер:  384 MB   |    Зарегистрирован:  1 год 1 месяц   |    Скачан:  0 раз

Полного источника не было: Никогда

Личеров:  7  [  0 KB/s  ]   Подробная статистика пиров
 
   
 
 
 

[Цитировать]

Рио 2 / Rio 2-Жанр: Score / Cartoon
Композитор: John Powell
Год выпуска диска: 2014
Производитель диска: Sony DADC, Austria
Издатель (лейбл): Sony Classical
Номер по каталогу: 88843048452-Аудиокодек: FLAC (*.flac)
Тип рипа: tracks+.cue
Битрейт аудио: lossless
Продолжительность: 00:55:45
Источник: собственный рип
Наличие сканов в содержимом раздачи: да, 600dpi-Ссылки: Кинопоиск | IMDB | Wikipedia | SoundtrackCollector

Треклист

01. 20th Century Fox Fanfare (Rio 2 Samba Version) [0:00:24.42]
02. Batucada Pagode (Featuring Carlinhos Brown) [0:01:37.24]
03. Over The Falls (Featuring Milton Nascimento) [0:03:40.69]
04. Breakfast In Rio [0:03:09.47]
05. Fireworks On The Roof (Featuring UAKTI) [0:01:28.59]
06. Traveling Family [0:02:00.49]
07. Sideshow Freaks (Featuring UAKTI) [0:03:10.06]
08. Stalking The Ferry [0:02:08.26]
09. River Boat To The Loggers (Featuring Carlinhos Brown And UAKTI) [0:03:00.42]
10. Escorted To The Clan (Featuring UAKTI And Barbatuques) [0:05:42.23]
11. Up Carla's Monkey (Featuring UAKTI) [0:02:18.33]
12. Spider Invite (Featuring UAKTI And Barbatuques) [0:02:46.49]
13. Humans Are Longer Than They Told Me (Featuring UAKTI) [0:02:24.47]
14. Tongue-A-Pult To Blu's Nightmare! [0:02:09.64]
15. Red Bullies (Featuring UAKTI) [0:03:20.64]
16. Tantrums Lead To Explosions (Featuring UAKTI) [0:03:43.68]
17. Lollipops Are Bad For Your Teeth (Featuring Milton Nascimento, UAKTI, And Barbatuques) [0:03:56.53]
18. Battle For The Heart Of The Forest (Featuring UAKTI And Barbatuques) [0:04:45.39]
19. Romeo And Juliet's Unfortunate Demise (Featuring UAKTI And Barbatuques) [0:03:52.50]

Лог создания рипа

Exact Audio Copy V1.1 from 23. June 2015
EAC extraction logfile from 10. October 2015, 23:45
John Powell / Rio 2
Used drive : PLEXTOR CD-R PX-230A Adapter: 1 ID: 2
Read mode : SecureUtilize accurate stream : YesDefeat audio cache : YesMake use of C2 pointers : No
Read offset correction : 738Overread into Lead-In and Lead-Out : NoFill up missing offset samples with silence : YesDelete leading and trailing silent blocks : NoNull samples used in CRC calculations : YesUsed interface : Native Win32 interface for Win NT & 2000Gap handling : Appended to previous track
Used output format : User Defined EncoderSelected bitrate : 1024 kBit/sQuality : HighAdd ID3 tag : NoCommand line compressor : C:\Program Files (x86)\Exact Audio Copy\FLAC\FLAC.EXEAdditional command line options : -6 -V -T "ARTIST=%artist%" -T "TITLE=%title%" -T "ALBUM=%albumtitle%" -T "DATE=%year%"-T "TRACKNUMBER=%tracknr%" -T "GENRE=%genre%" -T "COMMENT=%comment%" -T "ALBUMARTIST=%albuminterpret%" -T "COMPOSER=%composer%"-T "DISCNUMBER=%cdnumber%" -T "TOTALDISCS=%totalcds%" -T "TOTALTRACKS=%numtracks%" %source% -o %dest%
TOC of the extracted CD
Track | Start | Length | Start sector | End sector --------------------------------------------------------- 1 | 0:00.00 | 0:24.42 | 0 | 1841 2 | 0:24.42 | 1:37.24 | 1842 | 9140 3 | 2:01.66 | 3:40.69 | 9141 | 25709 4 | 5:42.60 | 3:09.47 | 25710 | 39931 5 | 8:52.32 | 1:28.59 | 39932 | 46590 6 | 10:21.16 | 2:00.49 | 46591 | 55639 7 | 12:21.65 | 3:10.06 | 55640 | 69895 8 | 15:31.71 | 2:08.26 | 69896 | 79521 9 | 17:40.22 | 3:00.42 | 79522 | 93063 10 | 20:40.64 | 5:42.23 | 93064 | 118736 11 | 26:23.12 | 2:18.33 | 118737 | 129119 12 | 28:41.45 | 2:46.49 | 129120 | 141618 13 | 31:28.19 | 2:24.47 | 141619 | 152465 14 | 33:52.66 | 2:09.64 | 152466 | 162204 15 | 36:02.55 | 3:20.64 | 162205 | 177268 16 | 39:23.44 | 3:43.68 | 177269 | 194061 17 | 43:07.37 | 3:56.53 | 194062 | 211814 18 | 47:04.15 | 4:45.39 | 211815 | 233228 19 | 51:49.54 | 3:52.50 | 233229 | 250678
Track 1
Filename C:\Music\01 - John Powell - 20th Century Fox Fanfare (Rio 2 Samba Version).wav
Pre-gap length 0:00:02.00
Peak level 94.3 % Extraction speed 1.9 X Track quality 99.5 % Test CRC AC1F1929 Copy CRC AC1F1929 Accurately ripped (confidence 8) [35DA5ADC] (AR v2) Copy OK
Track 2
Filename C:\Music\02 - John Powell - Batucada Pagode (Featuring Carlinhos Brown).wav
Pre-gap length 0:00:00.39
Peak level 98.2 % Extraction speed 5.9 X Track quality 100.0 % Test CRC DF4338B8 Copy CRC DF4338B8 Accurately ripped (confidence 8) [A5748E14] (AR v2) Copy OK
Track 3
Filename C:\Music\03 - John Powell - Over The Falls (Featuring Milton Nascimento).wav
Pre-gap length 0:00:01.40
Peak level 100.0 % Extraction speed 7.2 X Track quality 100.0 % Test CRC 56E33A50 Copy CRC 56E33A50 Accurately ripped (confidence 8) [B2D809AC] (AR v2) Copy OK
Track 4
Filename C:\Music\04 - John Powell - Breakfast In Rio.wav
Pre-gap length 0:00:01.38
Peak level 95.0 % Extraction speed 7.5 X Track quality 100.0 % Test CRC 872FB5EF Copy CRC 872FB5EF Accurately ripped (confidence 8) [B883A6E3] (AR v2) Copy OK
Track 5
Filename C:\Music\05 - John Powell - Fireworks On The Roof (Featuring UAKTI).wav
Pre-gap length 0:00:01.43
Peak level 94.5 % Extraction speed 6.8 X Track quality 100.0 % Test CRC 50EB2826 Copy CRC 50EB2826 Accurately ripped (confidence 8) [51D34B75] (AR v2) Copy OK
Track 6
Filename C:\Music\06 - John Powell - Traveling Family.wav
Pre-gap length 0:00:01.38
Peak level 94.4 % Extraction speed 7.5 X Track quality 100.0 % Test CRC D660562B Copy CRC D660562B Accurately ripped (confidence 8) [63EF0C01] (AR v2) Copy OK
Track 7
Filename C:\Music\07 - John Powell - Sideshow Freaks (Featuring UAKTI).wav
Pre-gap length 0:00:01.38
Peak level 97.6 % Extraction speed 8.3 X Track quality 100.0 % Test CRC A43C1851 Copy CRC A43C1851 Accurately ripped (confidence 8) [A85FFCF3] (AR v2) Copy OK
Track 8
Filename C:\Music\08 - John Powell - Stalking The Ferry.wav
Pre-gap length 0:00:01.38
Peak level 97.7 % Extraction speed 8.2 X Track quality 100.0 % Test CRC B3FAEA4F Copy CRC B3FAEA4F Accurately ripped (confidence 8) [F0FD08A3] (AR v2) Copy OK
Track 9
Filename C:\Music\09 - John Powell - River Boat To The Loggers (Featuring Carlinhos Brown And UAKTI).wav
Pre-gap length 0:00:01.38
Peak level 94.8 % Extraction speed 7.5 X Track quality 99.9 % Test CRC 2A787CBD Copy CRC 2A787CBD Accurately ripped (confidence 8) [0FAAF87A] (AR v2) Copy OK
Track 10
Filename C:\Music\10 - John Powell - Escorted To The Clan (Featuring UAKTI And Barbatuques).wav
Pre-gap length 0:00:01.38
Peak level 98.5 % Extraction speed 8.5 X Track quality 99.9 % Test CRC 5F0D6596 Copy CRC 5F0D6596 Accurately ripped (confidence 8) [215DC3E1] (AR v2) Copy OK
Track 11
Filename C:\Music\11 - John Powell - Up Carla's Monkey (Featuring UAKTI).wav
Pre-gap length 0:00:01.38
Peak level 94.8 % Extraction speed 6.7 X Track quality 99.9 % Test CRC F2465CC8 Copy CRC F2465CC8 Accurately ripped (confidence 8) [017BC14F] (AR v2) Copy OK
Track 12
Filename C:\Music\12 - John Powell - Spider Invite (Featuring UAKTI And Barbatuques).wav
Pre-gap length 0:00:02.56
Peak level 98.6 % Extraction speed 8.0 X Track quality 99.9 % Test CRC 8D0907FD Copy CRC 8D0907FD Accurately ripped (confidence 8) [F2B7668F] (AR v2) Copy OK
Track 13
Filename C:\Music\13 - John Powell - Humans Are Longer Than They Told Me (Featuring UAKTI).wav
Pre-gap length 0:00:00.38
Peak level 96.9 % Extraction speed 9.4 X Track quality 100.0 % Test CRC 49B5AF0A Copy CRC 49B5AF0A Accurately ripped (confidence 8) [E4EC3FF0] (AR v2) Copy OK
Track 14
Filename C:\Music\14 - John Powell - Tongue-A-Pult To Blu's Nightmare!.wav
Pre-gap length 0:00:01.38
Peak level 94.7 % Extraction speed 9.5 X Track quality 100.0 % Test CRC F99435BB Copy CRC F99435BB Accurately ripped (confidence 8) [18AAEAAD] (AR v2) Copy OK
Track 15
Filename C:\Music\15 - John Powell - Red Bullies (Featuring UAKTI).wav
Pre-gap length 0:00:01.38
Peak level 94.3 % Extraction speed 8.4 X Track quality 99.9 % Test CRC E1C8DB10 Copy CRC E1C8DB10 Accurately ripped (confidence 8) [2CD5722B] (AR v2) Copy OK
Track 16
Filename C:\Music\16 - John Powell - Tantrums Lead To Explosions (Featuring UAKTI).wav
Pre-gap length 0:00:01.51
Peak level 94.5 % Extraction speed 9.5 X Track quality 100.0 % Test CRC 7E39D884 Copy CRC 7E39D884 Accurately ripped (confidence 8) [58326149] (AR v2) Copy OK
Track 17
Filename C:\Music\17 - John Powell - Lollipops Are Bad For Your Teeth (Featuring Milton Nascimento, UAKTI, And Barbatuques).wav
Pre-gap length 0:00:01.33
Peak level 95.0 % Extraction speed 8.4 X Track quality 99.9 % Test CRC C4EF89AD Copy CRC C4EF89AD Accurately ripped (confidence 8) [072C074D] (AR v2) Copy OK
Track 18
Filename C:\Music\18 - John Powell - Battle For The Heart Of The Forest (Featuring UAKTI And Barbatuques).wav
Pre-gap length 0:00:01.38
Peak level 94.5 % Extraction speed 8.9 X Track quality 99.9 % Test CRC 332C1C27 Copy CRC 332C1C27 Accurately ripped (confidence 8) [70313C0D] (AR v2) Copy OK
Track 19
Filename C:\Music\19 - John Powell - Romeo And Juliet's Unfortunate Demise (Featuring UAKTI And Barbatuques).wav
Peak level 99.0 % Extraction speed 10.0 X Track quality 100.0 % Test CRC B9592164 Copy CRC B9592164 Accurately ripped (confidence 8) [6BC5ED8D] (AR v2) Copy OK
All tracks accurately ripped
No errors occurred
End of status report
---- CUETools DB Plugin V2.1.6
[CTDB TOCID: 01SKFouzYoExwnfubcSkBzq_I3g-] foundSubmit result: 01SKFouzYoExwnfubcSkBzq_I3g- has been confirmedTrack | CTDB Status 1 | (13/13) Accurately ripped 2 | (13/13) Accurately ripped 3 | (13/13) Accurately ripped 4 | (13/13) Accurately ripped 5 | (13/13) Accurately ripped 6 | (13/13) Accurately ripped 7 | (13/13) Accurately ripped 8 | (13/13) Accurately ripped 9 | (13/13) Accurately ripped 10 | (13/13) Accurately ripped 11 | (13/13) Accurately ripped 12 | (13/13) Accurately ripped 13 | (13/13) Accurately ripped 14 | (13/13) Accurately ripped 15 | (13/13) Accurately ripped 16 | (13/13) Accurately ripped 17 | (13/13) Accurately ripped 18 | (13/13) Accurately ripped 19 | (13/13) Accurately ripped
==== Log checksum 12D0252371C5EF61A4682D16BF19F4224E89D86C105D67FA62662057B32BA628 ====

Содержание индексной карты (.CUE)

REM GENRE SoundtrackREM DATE 2014REM DISCID E90D0E13REM COMMENT "ExactAudioCopy v1.1"PERFORMER "John Powell"TITLE "Rio 2"FILE "01 - John Powell - 20th Century Fox Fanfare (Rio 2 Samba Version).wav" WAVE TRACK 01 AUDIO TITLE "20th Century Fox Fanfare (Rio 2 Samba Version)" PERFORMER "John Powell" INDEX 01 00:00:00 TRACK 02 AUDIO TITLE "Batucada Pagode (Featuring Carlinhos Brown)" PERFORMER "John Powell" INDEX 00 00:24:03FILE "02 - John Powell - Batucada Pagode (Featuring Carlinhos Brown).wav" WAVE INDEX 01 00:00:00 TRACK 03 AUDIO TITLE "Over The Falls (Featuring Milton Nascimento)" PERFORMER "John Powell" INDEX 00 01:35:59FILE "03 - John Powell - Over The Falls (Featuring Milton Nascimento).wav" WAVE INDEX 01 00:00:00 TRACK 04 AUDIO TITLE "Breakfast In Rio" PERFORMER "John Powell" INDEX 00 03:39:31FILE "04 - John Powell - Breakfast In Rio.wav" WAVE INDEX 01 00:00:00 TRACK 05 AUDIO TITLE "Fireworks On The Roof (Featuring UAKTI)" PERFORMER "John Powell" INDEX 00 03:08:04FILE "05 - John Powell - Fireworks On The Roof (Featuring UAKTI).wav" WAVE INDEX 01 00:00:00 TRACK 06 AUDIO TITLE "Traveling Family" PERFORMER "John Powell" INDEX 00 01:27:21FILE "06 - John Powell - Traveling Family.wav" WAVE INDEX 01 00:00:00 TRACK 07 AUDIO TITLE "Sideshow Freaks (Featuring UAKTI)" PERFORMER "John Powell" INDEX 00 01:59:11FILE "07 - John Powell - Sideshow Freaks (Featuring UAKTI).wav" WAVE INDEX 01 00:00:00 TRACK 08 AUDIO TITLE "Stalking The Ferry" PERFORMER "John Powell" INDEX 00 03:08:43FILE "08 - John Powell - Stalking The Ferry.wav" WAVE INDEX 01 00:00:00 TRACK 09 AUDIO TITLE "River Boat To The Loggers (Featuring Carlinhos Brown And UAKTI)" PERFORMER "John Powell" INDEX 00 02:06:63FILE "09 - John Powell - River Boat To The Loggers (Featuring Carlinhos Brown And UAKTI).wav" WAVE INDEX 01 00:00:00 TRACK 10 AUDIO TITLE "Escorted To The Clan (Featuring UAKTI And Barbatuques)" PERFORMER "John Powell" INDEX 00 02:59:04FILE "10 - John Powell - Escorted To The Clan (Featuring UAKTI And Barbatuques).wav" WAVE INDEX 01 00:00:00 TRACK 11 AUDIO TITLE "Up Carla's Monkey (Featuring UAKTI)" PERFORMER "John Powell" INDEX 00 05:40:60FILE "11 - John Powell - Up Carla's Monkey (Featuring UAKTI).wav" WAVE INDEX 01 00:00:00 TRACK 12 AUDIO TITLE "Spider Invite (Featuring UAKTI And Barbatuques)" PERFORMER "John Powell" INDEX 00 02:15:52FILE "12 - John Powell - Spider Invite (Featuring UAKTI And Barbatuques).wav" WAVE INDEX 01 00:00:00 TRACK 13 AUDIO TITLE "Humans Are Longer Than They Told Me (Featuring UAKTI)" PERFORMER "John Powell" INDEX 00 02:46:11FILE "13 - John Powell - Humans Are Longer Than They Told Me (Featuring UAKTI).wav" WAVE INDEX 01 00:00:00 TRACK 14 AUDIO TITLE "Tongue-A-Pult To Blu's Nightmare!" PERFORMER "John Powell" INDEX 00 02:23:09FILE "14 - John Powell - Tongue-A-Pult To Blu's Nightmare!.wav" WAVE INDEX 01 00:00:00 TRACK 15 AUDIO TITLE " Red Bullies (Featuring UAKTI)" PERFORMER "John Powell" INDEX 00 02:08:26FILE "15 - John Powell - Red Bullies (Featuring UAKTI).wav" WAVE INDEX 01 00:00:00 TRACK 16 AUDIO TITLE "Tantrums Lead To Explosions (Featuring UAKTI)" PERFORMER "John Powell" INDEX 00 03:19:13FILE "16 - John Powell - Tantrums Lead To Explosions (Featuring UAKTI).wav" WAVE INDEX 01 00:00:00 TRACK 17 AUDIO TITLE "Lollipops Are Bad For Your Teeth (Featuring Milton Nascimento, UAKTI, And Bar..." PERFORMER "John Powell" INDEX 00 03:42:35FILE "17 - John Powell - Lollipops Are Bad For Your Teeth (Featuring Milton Nascimento, UAKTI, And Barbatuques).wav" WAVE INDEX 01 00:00:00 TRACK 18 AUDIO TITLE "Battle For The Heart Of The Forest (Featuring UAKTI And Barbatuques)" PERFORMER "John Powell" INDEX 00 03:55:15FILE "18 - John Powell - Battle For The Heart Of The Forest (Featuring UAKTI And Barbatuques).wav" WAVE INDEX 01 00:00:00FILE "19 - John Powell - Romeo And Juliet's Unfortunate Demise (Featuring UAKTI And Barbatuques).wav" WAVE TRACK 19 AUDIO TITLE "Romeo And Juliet's Unfortunate Demise (Featuring UAKTI And Barbatuques)" PERFORMER "John Powell" INDEX 01 00:00:00
[teatrix.ru].t10261.torrent 
Торрент: Зарегистрирован [ 2015-11-01 20:51 ] · AF7F93C5526E2D4E0879917A7BC87FC1098CDF64

Скачать .torrent

Скачать

10 KB

Статус: проверено
Скачан: 0 раз
Размер: 384 MB
terms.php



Быстрый ответ

Имя:

      
Для отправки сообщений необходимо включить JavaScript
Показать сообщения:    

Текущее время: 08-Дек 21:11

Часовой пояс: UTC + 3


Вы можете начинать темы
Вы можете отвечать на сообщения
Вы не можете редактировать свои сообщения
Вы не можете удалять свои сообщения
Вы не можете голосовать в опросах
Вы не можете прикреплять файлы к сообщениям
Вы можете скачивать файлы