(Score / Cartoon) Рио / Rio (by John Powell) - 2011, FLAC (tracks+.cue), lossless


Статистика раздачи [Обновить пиров]
Размер:  322 MB   |    Зарегистрирован:  1 год 1 месяц   |    Скачан:  0 раз

Полного источника не было: Никогда

Личеров:  6  [  0 KB/s  ]   Подробная статистика пиров
 
   
 
 
 

[Цитировать]

Рио / Rio-Жанр: Score / Cartoon
Композитор: John Powell
Год выпуска диска: 2011
Производитель диска: P&O, Germany
Издатель (лейбл): Varèse Sarabande
Номер по каталогу: VSD-7084-Аудиокодек: FLAC (*.flac)
Тип рипа: tracks+.cue
Битрейт аудио: lossless
Продолжительность: 00:47:10
Источник: собственный рип
Наличие сканов в содержимом раздачи: да, 600dpi-Ссылки: Кинопоиск | IMDB | Wikipedia | SoundtrackCollector

Треклист

01. Morning Routine [0:02:23.20]
02. Meet Tulio [0:02:55.28]
03. Great Big Momma Bird [0:02:46.59]
04. Paradise Concern [0:01:58.64]
05. Bagged And Missing [0:02:09.09]
06. Locked Up [0:02:09.64]
07. Chained Chase [0:02:35.36]
08. Bedtime Flyers [0:02:58.34]
09. Idiot Glider [0:01:55.37]
10. Juicy Little Mango [0:02:27.04]
11. Umbrellas Of Rio [0:02:26.55]
12. Motorbike [0:01:23.27]
13. Bird Fight [0:01:02.53]
14. Birds Moved [0:02:33.24]
15. Heimlich [0:02:31.35]
16. Birdnapped [0:03:37.18]
17. Rio Airport [0:04:24.14]
18. Flying [0:02:42.67]
19. Market Forro [0:02:11.02]

Лог создания рипа

Exact Audio Copy V1.1 from 23. June 2015
EAC extraction logfile from 12. October 2015, 22:45
John Powell / Rio
Used drive : PLEXTOR CD-R PX-230A Adapter: 1 ID: 2
Read mode : SecureUtilize accurate stream : YesDefeat audio cache : YesMake use of C2 pointers : No
Read offset correction : 738Overread into Lead-In and Lead-Out : NoFill up missing offset samples with silence : YesDelete leading and trailing silent blocks : NoNull samples used in CRC calculations : YesUsed interface : Native Win32 interface for Win NT & 2000Gap handling : Appended to previous track
Used output format : User Defined EncoderSelected bitrate : 1024 kBit/sQuality : HighAdd ID3 tag : NoCommand line compressor : C:\Program Files (x86)\Exact Audio Copy\FLAC\FLAC.EXEAdditional command line options : -6 -V -T "ARTIST=%artist%" -T "TITLE=%title%" -T "ALBUM=%albumtitle%" -T "DATE=%year%"-T "TRACKNUMBER=%tracknr%" -T "GENRE=%genre%" -T "COMMENT=%comment%" -T "ALBUMARTIST=%albuminterpret%" -T "COMPOSER=%composer%"-T "DISCNUMBER=%cdnumber%" -T "TOTALDISCS=%totalcds%" -T "TOTALTRACKS=%numtracks%" %source% -o %dest%
TOC of the extracted CD
Track | Start | Length | Start sector | End sector --------------------------------------------------------- 1 | 0:00.00 | 2:23.20 | 0 | 10744 2 | 2:23.20 | 2:55.28 | 10745 | 23897 3 | 5:18.48 | 2:46.59 | 23898 | 36406 4 | 8:05.32 | 1:58.64 | 36407 | 45320 5 | 10:04.21 | 2:09.09 | 45321 | 55004 6 | 12:13.30 | 2:09.64 | 55005 | 64743 7 | 14:23.19 | 2:35.36 | 64744 | 76404 8 | 16:58.55 | 2:58.34 | 76405 | 89788 9 | 19:57.14 | 1:55.37 | 89789 | 98450 10 | 21:52.51 | 2:27.04 | 98451 | 109479 11 | 24:19.55 | 2:26.55 | 109480 | 120484 12 | 26:46.35 | 1:23.27 | 120485 | 126736 13 | 28:09.62 | 1:02.53 | 126737 | 131439 14 | 29:12.40 | 2:33.24 | 131440 | 142938 15 | 31:45.64 | 2:31.35 | 142939 | 154298 16 | 34:17.24 | 3:37.18 | 154299 | 170591 17 | 37:54.42 | 4:24.14 | 170592 | 190405 18 | 42:18.56 | 2:42.67 | 190406 | 202622 19 | 45:01.48 | 2:11.02 | 202623 | 212449
Track 1
Filename C:\Music\01 - John Powell - Morning Routine.wav
Pre-gap length 0:00:02.00
Peak level 98.2 % Extraction speed 6.4 X Track quality 100.0 % Test CRC C3E2E5CA Copy CRC C3E2E5CA Accurately ripped (confidence 2) [3228ACE5] (AR v2) Copy OK
Track 2
Filename C:\Music\02 - John Powell - Meet Tulio.wav
Peak level 97.1 % Extraction speed 7.0 X Track quality 100.0 % Test CRC D71132A6 Copy CRC D71132A6 Accurately ripped (confidence 2) [2FC664CC] (AR v2) Copy OK
Track 3
Filename C:\Music\03 - John Powell - Great Big Momma Bird.wav
Peak level 97.7 % Extraction speed 7.3 X Track quality 100.0 % Test CRC 72D6E59B Copy CRC 72D6E59B Accurately ripped (confidence 2) [242AD111] (AR v2) Copy OK
Track 4
Filename C:\Music\04 - John Powell - Paradise Concern.wav
Peak level 100.0 % Extraction speed 5.8 X Track quality 99.9 % Test CRC C4CF5695 Copy CRC C4CF5695 Accurately ripped (confidence 2) [CCAE1AF8] (AR v2) Copy OK
Track 5
Filename C:\Music\05 - John Powell - Bagged And Missing.wav
Peak level 97.8 % Extraction speed 6.1 X Track quality 99.9 % Test CRC 82C0660D Copy CRC 82C0660D Accurately ripped (confidence 2) [E43FBDDC] (AR v2) Copy OK
Track 6
Filename C:\Music\06 - John Powell - Locked Up.wav
Peak level 98.6 % Extraction speed 7.9 X Track quality 100.0 % Test CRC FA7B1686 Copy CRC FA7B1686 Accurately ripped (confidence 2) [EF2CB8EC] (AR v2) Copy OK
Track 7
Filename C:\Music\07 - John Powell - Chained Chase.wav
Peak level 98.6 % Extraction speed 8.4 X Track quality 100.0 % Test CRC DEA3C8B9 Copy CRC DEA3C8B9 Accurately ripped (confidence 2) [BB92C7BF] (AR v2) Copy OK
Track 8
Filename C:\Music\08 - John Powell - Bedtime Flyers.wav
Peak level 96.9 % Extraction speed 8.7 X Track quality 100.0 % Test CRC 9DC7548C Copy CRC 9DC7548C Accurately ripped (confidence 2) [234DF83B] (AR v2) Copy OK
Track 9
Filename C:\Music\09 - John Powell - Idiot Glider.wav
Peak level 98.9 % Extraction speed 6.5 X Track quality 99.9 % Test CRC 85561CE1 Copy CRC 85561CE1 Accurately ripped (confidence 2) [A0538712] (AR v2) Copy OK
Track 10
Filename C:\Music\10 - John Powell - Juicy Little Mango.wav
Peak level 97.5 % Extraction speed 7.1 X Track quality 99.9 % Test CRC 1A1B3878 Copy CRC 1A1B3878 Accurately ripped (confidence 2) [360B8DF3] (AR v2) Copy OK
Track 11
Filename C:\Music\11 - John Powell - Umbrellas Of Rio.wav
Peak level 99.3 % Extraction speed 7.2 X Track quality 99.9 % Test CRC 5625ADD9 Copy CRC 5625ADD9 Accurately ripped (confidence 2) [4102EBBE] (AR v2) Copy OK
Track 12
Filename C:\Music\12 - John Powell - Motorbike.wav
Peak level 98.7 % Extraction speed 7.5 X Track quality 100.0 % Test CRC 75C1C419 Copy CRC 75C1C419 Accurately ripped (confidence 2) [9F9BF2C7] (AR v2) Copy OK
Track 13
Filename C:\Music\13 - John Powell - Bird Fight.wav
Peak level 100.0 % Extraction speed 5.2 X Track quality 99.8 % Test CRC DAC71A39 Copy CRC DAC71A39 Accurately ripped (confidence 2) [878147CC] (AR v2) Copy OK
Track 14
Filename C:\Music\14 - John Powell - Birds Moved.wav
Peak level 97.6 % Extraction speed 8.8 X Track quality 100.0 % Test CRC 6F98813B Copy CRC 6F98813B Accurately ripped (confidence 2) [78819375] (AR v2) Copy OK
Track 15
Filename C:\Music\15 - John Powell - Heimlich.wav
Peak level 100.0 % Extraction speed 8.9 X Track quality 100.0 % Test CRC 33396B70 Copy CRC 33396B70 Accurately ripped (confidence 2) [422ACFAB] (AR v2) Copy OK
Track 16
Filename C:\Music\16 - John Powell - Birdnapped.wav
Peak level 96.7 % Extraction speed 9.1 X Track quality 100.0 % Test CRC 1CC053DF Copy CRC 1CC053DF Accurately ripped (confidence 2) [40DCCAF6] (AR v2) Copy OK
Track 17
Filename C:\Music\17 - John Powell - Rio Airport.wav
Peak level 100.0 % Extraction speed 9.5 X Track quality 100.0 % Test CRC 4FDD228C Copy CRC 4FDD228C Accurately ripped (confidence 2) [43BC3C0E] (AR v2) Copy OK
Track 18
Filename C:\Music\18 - John Powell - Flying.wav
Peak level 97.2 % Extraction speed 9.4 X Track quality 100.0 % Test CRC 3FD5625B Copy CRC 3FD5625B Accurately ripped (confidence 2) [4BCF96C7] (AR v2) Copy OK
Track 19
Filename C:\Music\19 - John Powell - Market Forro.wav
Peak level 99.3 % Extraction speed 8.9 X Track quality 100.0 % Test CRC 52B6DBF9 Copy CRC 52B6DBF9 Accurately ripped (confidence 2) [4CFC8A94] (AR v2) Copy OK
All tracks accurately ripped
No errors occurred
End of status report
---- CUETools DB Plugin V2.1.6
[CTDB TOCID: 0BfXWYLtm_eDYIKxGmneMghm1BQ-] foundSubmit result: 0BfXWYLtm_eDYIKxGmneMghm1BQ- has been confirmedTrack | CTDB Status 1 | (7/7) Accurately ripped 2 | (7/7) Accurately ripped 3 | (7/7) Accurately ripped 4 | (7/7) Accurately ripped 5 | (7/7) Accurately ripped 6 | (7/7) Accurately ripped 7 | (7/7) Accurately ripped 8 | (7/7) Accurately ripped 9 | (7/7) Accurately ripped 10 | (7/7) Accurately ripped 11 | (7/7) Accurately ripped 12 | (7/7) Accurately ripped 13 | (7/7) Accurately ripped 14 | (7/7) Accurately ripped 15 | (7/7) Accurately ripped 16 | (7/7) Accurately ripped 17 | (7/7) Accurately ripped 18 | (7/7) Accurately ripped 19 | (7/7) Accurately ripped
==== Log checksum 94C9AA122A66F330E825DC1326739C3788BAD38BF0E2DD692321F0C784A41929 ====

Содержание индексной карты (.CUE)

REM GENRE SoundtrackREM DATE 2011REM DISCID F80B1013REM COMMENT "ExactAudioCopy v1.1"PERFORMER "John Powell"TITLE "Rio"FILE "01 - John Powell - Morning Routine.wav" WAVE TRACK 01 AUDIO TITLE "Morning Routine" PERFORMER "John Powell" INDEX 01 00:00:00FILE "02 - John Powell - Meet Tulio.wav" WAVE TRACK 02 AUDIO TITLE "Meet Tulio" PERFORMER "John Powell" INDEX 01 00:00:00FILE "03 - John Powell - Great Big Momma Bird.wav" WAVE TRACK 03 AUDIO TITLE "Great Big Momma Bird" PERFORMER "John Powell" INDEX 01 00:00:00FILE "04 - John Powell - Paradise Concern.wav" WAVE TRACK 04 AUDIO TITLE "Paradise Concern" PERFORMER "John Powell" INDEX 01 00:00:00FILE "05 - John Powell - Bagged And Missing.wav" WAVE TRACK 05 AUDIO TITLE "Bagged And Missing" PERFORMER "John Powell" INDEX 01 00:00:00FILE "06 - John Powell - Locked Up.wav" WAVE TRACK 06 AUDIO TITLE "Locked Up" PERFORMER "John Powell" INDEX 01 00:00:00FILE "07 - John Powell - Chained Chase.wav" WAVE TRACK 07 AUDIO TITLE "Chained Chase" PERFORMER "John Powell" INDEX 01 00:00:00FILE "08 - John Powell - Bedtime Flyers.wav" WAVE TRACK 08 AUDIO TITLE "Bedtime Flyers" PERFORMER "John Powell" INDEX 01 00:00:00FILE "09 - John Powell - Idiot Glider.wav" WAVE TRACK 09 AUDIO TITLE "Idiot Glider" PERFORMER "John Powell" INDEX 01 00:00:00FILE "10 - John Powell - Juicy Little Mango.wav" WAVE TRACK 10 AUDIO TITLE "Juicy Little Mango" PERFORMER "John Powell" INDEX 01 00:00:00FILE "11 - John Powell - Umbrellas Of Rio.wav" WAVE TRACK 11 AUDIO TITLE "Umbrellas Of Rio" PERFORMER "John Powell" INDEX 01 00:00:00FILE "12 - John Powell - Motorbike.wav" WAVE TRACK 12 AUDIO TITLE "Motorbike" PERFORMER "John Powell" INDEX 01 00:00:00FILE "13 - John Powell - Bird Fight.wav" WAVE TRACK 13 AUDIO TITLE "Bird Fight" PERFORMER "John Powell" INDEX 01 00:00:00FILE "14 - John Powell - Birds Moved.wav" WAVE TRACK 14 AUDIO TITLE "Birds Moved" PERFORMER "John Powell" INDEX 01 00:00:00FILE "15 - John Powell - Heimlich.wav" WAVE TRACK 15 AUDIO TITLE "Heimlich" PERFORMER "John Powell" INDEX 01 00:00:00FILE "16 - John Powell - Birdnapped.wav" WAVE TRACK 16 AUDIO TITLE "Birdnapped" PERFORMER "John Powell" INDEX 01 00:00:00FILE "17 - John Powell - Rio Airport.wav" WAVE TRACK 17 AUDIO TITLE "Rio Airport" PERFORMER "John Powell" INDEX 01 00:00:00FILE "18 - John Powell - Flying.wav" WAVE TRACK 18 AUDIO TITLE "Flying" PERFORMER "John Powell" INDEX 01 00:00:00FILE "19 - John Powell - Market Forro.wav" WAVE TRACK 19 AUDIO TITLE "Market Forro" PERFORMER "John Powell" INDEX 01 00:00:00
[teatrix.ru].t10262.torrent 
Торрент: Зарегистрирован [ 2015-11-01 20:51 ] · 3FC829E79D43CFF25C576AF160288031FB432866

Скачать .torrent

Скачать

9 KB

Статус: проверено
Скачан: 0 раз
Размер: 322 MB
terms.php



Быстрый ответ

Имя:

      
Для отправки сообщений необходимо включить JavaScript
Показать сообщения:    

Текущее время: 03-Дек 03:24

Часовой пояс: UTC + 3


Вы можете начинать темы
Вы можете отвечать на сообщения
Вы не можете редактировать свои сообщения
Вы не можете удалять свои сообщения
Вы не можете голосовать в опросах
Вы не можете прикреплять файлы к сообщениям
Вы можете скачивать файлы