(Soundtrack) Смешная леди / Funny Lady (by Barbra Streisand & VA) - 1998 (1975), FLAC (tracks+.cue), lossless


Статистика раздачи [Обновить пиров]
Размер:  385 MB   |    Зарегистрирован:  1 год 1 месяц   |    Скачан:  0 раз

Полного источника не было: Никогда

Личеров:  7  [  0 KB/s  ]   Подробная статистика пиров
 
   
 
 
 

[Цитировать]

Смешная леди / Funny Lady (Remastered)-Жанр: Soundtrack
Год выпуска диска: 1998
Год выпуска фильма: 1975
Производитель диска: Sony DADC, US
Издатель (лейбл): Arista
Номер по каталогу: 08722-19006-2-Аудиокодек: FLAC (*.flac)
Тип рипа: tracks+.cue
Битрейт аудио: lossless
Продолжительность: 00:51:39
Источник: собственный рип
Наличие сканов в содержимом раздачи: да, 600 dpi-Ссылки: Кинопоиск | IMDB | Wikipedia | SoundtrackCollector

Треклист

01. Barbra Streisand / Blind Date [0:04:59.62]
02. Barbra Streisand / More than You Know [0:02:30.00]
03. Barbra Streisand / It's Only a Paper Moon/I Like Him [0:01:06.73]
04. James Caan / It's Only a Paper Moon/I Like Her [0:02:39.54]
05. Barbra Streisand / I Found a Million Dollar Baby (In a Five & Ten Cent Store) [0:02:00.18]
06. Ben Vereen & Barbra Streisand / So Long Honey Lamb [0:03:14.17]
07. Barbra Streisand / I Got a Code in My Doze [0:01:13.64]
08. Barbra Streisand / Clap Hands, Here Comes Charley [0:02:16.06]
09. Barbra Streisand / (It's Gonna Be A) Great Day [0:05:40.69]
10. Barbra Streisand / How Lucky Can You Get [0:04:51.60]
11. Barbra Streisand / Am I Blue [0:03:23.29]
12. Barbra Streisand / Isn't This Better [0:03:31.74]
13. Barbra Streisand / If I Love Again [0:03:00.31]
14. Barbra Streisand / Let's Hear It for Me [0:04:06.36]
15. James Caan / Me and My Shadow [0:03:08.47]
16. Barbra Streisand / How Lucky Can You Get (Single Mix) [0:03:55.27]

Лог создания рипа

Exact Audio Copy V1.1 from 23. June 2015
EAC extraction logfile from 10. October 2015, 19:31
Various Artists / Funny Lady
Used drive : PLEXTOR CD-R PX-230A Adapter: 1 ID: 2
Read mode : SecureUtilize accurate stream : YesDefeat audio cache : YesMake use of C2 pointers : No
Read offset correction : 738Overread into Lead-In and Lead-Out : NoFill up missing offset samples with silence : YesDelete leading and trailing silent blocks : NoNull samples used in CRC calculations : YesUsed interface : Native Win32 interface for Win NT & 2000Gap handling : Appended to previous track
Used output format : User Defined EncoderSelected bitrate : 1024 kBit/sQuality : HighAdd ID3 tag : NoCommand line compressor : C:\Program Files (x86)\Exact Audio Copy\FLAC\FLAC.EXEAdditional command line options : -6 -V -T "ARTIST=%artist%" -T "TITLE=%title%" -T "ALBUM=%albumtitle%" -T "DATE=%year%"-T "TRACKNUMBER=%tracknr%" -T "GENRE=%genre%" -T "COMMENT=%comment%" -T "ALBUMARTIST=%albuminterpret%" -T "COMPOSER=%composer%"-T "DISCNUMBER=%cdnumber%" -T "TOTALDISCS=%totalcds%" -T "TOTALTRACKS=%numtracks%" %source% -o %dest%
TOC of the extracted CD
Track | Start | Length | Start sector | End sector --------------------------------------------------------- 1 | 0:00.00 | 4:59.62 | 0 | 22486 2 | 4:59.62 | 2:30.00 | 22487 | 33736 3 | 7:29.62 | 1:06.73 | 33737 | 38759 4 | 8:36.60 | 2:39.54 | 38760 | 50738 5 | 11:16.39 | 2:00.18 | 50739 | 59756 6 | 13:16.57 | 3:14.17 | 59757 | 74323 7 | 16:30.74 | 1:13.64 | 74324 | 79862 8 | 17:44.63 | 2:16.06 | 79863 | 90068 9 | 20:00.69 | 5:40.69 | 90069 | 115637 10 | 25:41.63 | 4:51.60 | 115638 | 137522 11 | 30:33.48 | 3:23.29 | 137523 | 152776 12 | 33:57.02 | 3:31.74 | 152777 | 168675 13 | 37:29.01 | 3:00.31 | 168676 | 182206 14 | 40:29.32 | 4:06.36 | 182207 | 200692 15 | 44:35.68 | 3:08.47 | 200693 | 214839 16 | 47:44.40 | 3:55.27 | 214840 | 232491
Track 1
Filename C:\Music\01 - Barbra Streisand - Blind Date.wav
Pre-gap length 0:00:02.00
Peak level 89.2 % Extraction speed 4.7 X Track quality 100.0 % Test CRC B13463C6 Copy CRC B13463C6 Accurately ripped (confidence 2) [E8853D40] (AR v1) Copy OK
Track 2
Filename C:\Music\02 - Barbra Streisand - More than You Know.wav
Pre-gap length 0:00:03.07
Peak level 86.1 % Extraction speed 4.6 X Track quality 100.0 % Test CRC 0213BF58 Copy CRC 0213BF58 Accurately ripped (confidence 2) [E99A5CCF] (AR v1) Copy OK
Track 3
Filename C:\Music\03 - Barbra Streisand - It's Only a Paper Moon,I Like Him.wav
Pre-gap length 0:00:01.71
Peak level 85.4 % Extraction speed 3.9 X Track quality 100.0 % Test CRC E81DDFBD Copy CRC E81DDFBD Accurately ripped (confidence 2) [4D4ADE43] (AR v1) Copy OK
Track 4
Filename C:\Music\04 - James Caan - It's Only a Paper Moon,I Like Her.wav
Pre-gap length 0:00:02.63
Peak level 80.8 % Extraction speed 4.2 X Track quality 99.9 % Test CRC 1C957E8B Copy CRC 1C957E8B Accurately ripped (confidence 2) [17FB34BE] (AR v1) Copy OK
Track 5
Filename C:\Music\05 - Barbra Streisand - I Found a Million Dollar Baby (In a Five & Ten Cent Store).wav
Pre-gap length 0:00:02.50
Peak level 89.2 % Extraction speed 4.6 X Track quality 100.0 % Test CRC 3C883F02 Copy CRC 3C883F02 Accurately ripped (confidence 2) [0AE802E0] (AR v1) Copy OK
Track 6
Filename C:\Music\06 - Ben Vereen & Barbra Streisand - So Long Honey Lamb.wav
Pre-gap length 0:00:01.08
Peak level 90.0 % Extraction speed 4.4 X Track quality 99.9 % Test CRC 8CA1E8EA Copy CRC 8CA1E8EA Accurately ripped (confidence 2) [451EE3FC] (AR v1) Copy OK
Track 7
Filename C:\Music\07 - Barbra Streisand - I Got a Code in My Doze.wav
Pre-gap length 0:00:03.01
Peak level 90.9 % Extraction speed 4.0 X Track quality 100.0 % Test CRC 4D0D6DE0 Copy CRC 4D0D6DE0 Accurately ripped (confidence 2) [59F450F5] (AR v1) Copy OK
Track 8
Filename C:\Music\08 - Barbra Streisand - Clap Hands, Here Comes Charley.wav
Pre-gap length 0:00:03.13
Peak level 90.9 % Extraction speed 3.9 X Track quality 99.9 % Test CRC CE06E2CA Copy CRC CE06E2CA Accurately ripped (confidence 2) [C44348DE] (AR v1) Copy OK
Track 9
Filename C:\Music\09 - Barbra Streisand - (It's Gonna Be A) Great Day.wav
Pre-gap length 0:00:02.16
Peak level 89.2 % Extraction speed 3.8 X Track quality 99.9 % Test CRC 56612B98 Copy CRC 56612B98 Accurately ripped (confidence 2) [CB6E3E8D] (AR v1) Copy OK
Track 10
Filename C:\Music\10 - Barbra Streisand - How Lucky Can You Get.wav
Pre-gap length 0:00:03.06
Peak level 89.8 % Extraction speed 4.9 X Track quality 99.9 % Test CRC 5070B722 Copy CRC 5070B722 Accurately ripped (confidence 2) [1302B514] (AR v1) Copy OK
Track 11
Filename C:\Music\11 - Barbra Streisand - Am I Blue.wav
Pre-gap length 0:00:03.56
Peak level 90.4 % Extraction speed 4.8 X Track quality 100.0 % Test CRC 47D9D9C8 Copy CRC 47D9D9C8 Accurately ripped (confidence 2) [87765848] (AR v1) Copy OK
Track 12
Filename C:\Music\12 - Barbra Streisand - Isn't This Better.wav
Pre-gap length 0:00:02.23
Peak level 69.2 % Extraction speed 3.8 X Track quality 100.0 % Test CRC FE99F5A7 Copy CRC FE99F5A7 Accurately ripped (confidence 2) [596896D6] (AR v1) Copy OK
Track 13
Filename C:\Music\13 - Barbra Streisand - If I Love Again.wav
Pre-gap length 0:00:02.16
Peak level 64.3 % Extraction speed 5.0 X Track quality 100.0 % Test CRC 6D69818A Copy CRC 6D69818A Accurately ripped (confidence 2) [67AAAA8B] (AR v1) Copy OK
Track 14
Filename C:\Music\14 - Barbra Streisand - Let's Hear It for Me.wav
Pre-gap length 0:00:01.40
Peak level 89.4 % Extraction speed 5.3 X Track quality 100.0 % Test CRC 832F7615 Copy CRC 832F7615 Accurately ripped (confidence 2) [6FADB183] (AR v1) Copy OK
Track 15
Filename C:\Music\15 - James Caan - Me and My Shadow.wav
Pre-gap length 0:00:03.07
Peak level 81.9 % Extraction speed 5.0 X Track quality 100.0 % Test CRC 45543321 Copy CRC 45543321 Accurately ripped (confidence 2) [E278E494] (AR v1) Copy OK
Track 16
Filename C:\Music\16 - Barbra Streisand - How Lucky Can You Get (Single Mix).wav
Pre-gap length 0:00:05.41
Peak level 89.0 % Extraction speed 5.1 X Track quality 100.0 % Test CRC FE918D1C Copy CRC FE918D1C Accurately ripped (confidence 2) [5D31E6A7] (AR v1) Copy OK
All tracks accurately ripped
No errors occurred
End of status report
---- CUETools DB Plugin V2.1.6
[CTDB TOCID: AyYntok90kQHHKxkCi_q22pmWNI-] foundSubmit result: AyYntok90kQHHKxkCi_q22pmWNI- has been confirmedTrack | CTDB Status 1 | (2/2) Accurately ripped 2 | (2/2) Accurately ripped 3 | (2/2) Accurately ripped 4 | (2/2) Accurately ripped 5 | (2/2) Accurately ripped 6 | (2/2) Accurately ripped 7 | (2/2) Accurately ripped 8 | (2/2) Accurately ripped 9 | (2/2) Accurately ripped 10 | (2/2) Accurately ripped 11 | (2/2) Accurately ripped 12 | (2/2) Accurately ripped 13 | (2/2) Accurately ripped 14 | (2/2) Accurately ripped 15 | (2/2) Accurately ripped 16 | (2/2) Accurately ripped
==== Log checksum C5D53707C62CB0A4DBB7D6C81F698A3AFAAF40CDA640A5EE5972185180B4488D ====

Содержание индексной карты (.CUE)

REM GENRE SoundtrackREM DATE 1998REM DISCID DD0C1B10REM COMMENT "ExactAudioCopy v1.1"PERFORMER "Various Artists"TITLE "Funny Lady"FILE "01 - Barbra Streisand - Blind Date.wav" WAVE TRACK 01 AUDIO TITLE "Blind Date" PERFORMER "Barbra Streisand" INDEX 01 00:00:00 TRACK 02 AUDIO TITLE "More than You Know" PERFORMER "Barbra Streisand" INDEX 00 04:56:55FILE "02 - Barbra Streisand - More than You Know.wav" WAVE INDEX 01 00:00:00 TRACK 03 AUDIO TITLE "It's Only a Paper Moon/I Like Him" PERFORMER "Barbra Streisand" INDEX 00 02:28:04FILE "03 - Barbra Streisand - It's Only a Paper Moon,I Like Him.wav" WAVE INDEX 01 00:00:00 TRACK 04 AUDIO TITLE "It's Only a Paper Moon/I Like Her" PERFORMER "James Caan" INDEX 00 01:04:10FILE "04 - James Caan - It's Only a Paper Moon,I Like Her.wav" WAVE INDEX 01 00:00:00 TRACK 05 AUDIO TITLE "I Found a Million Dollar Baby (In a Five & Ten Cent Store)" PERFORMER "Barbra Streisand" INDEX 00 02:37:04FILE "05 - Barbra Streisand - I Found a Million Dollar Baby (In a Five & Ten Cent Store).wav" WAVE INDEX 01 00:00:00 TRACK 06 AUDIO TITLE "So Long Honey Lamb" PERFORMER "Ben Vereen & Barbra Streisand" INDEX 00 01:59:10FILE "06 - Ben Vereen & Barbra Streisand - So Long Honey Lamb.wav" WAVE INDEX 01 00:00:00 TRACK 07 AUDIO TITLE "I Got a Code in My Doze" PERFORMER "Barbra Streisand" INDEX 00 03:11:16FILE "07 - Barbra Streisand - I Got a Code in My Doze.wav" WAVE INDEX 01 00:00:00 TRACK 08 AUDIO TITLE "Clap Hands, Here Comes Charley" PERFORMER "Barbra Streisand" INDEX 00 01:10:51FILE "08 - Barbra Streisand - Clap Hands, Here Comes Charley.wav" WAVE INDEX 01 00:00:00 TRACK 09 AUDIO TITLE "(It's Gonna Be A) Great Day" PERFORMER "Barbra Streisand" INDEX 00 02:13:65FILE "09 - Barbra Streisand - (It's Gonna Be A) Great Day.wav" WAVE INDEX 01 00:00:00 TRACK 10 AUDIO TITLE "How Lucky Can You Get" PERFORMER "Barbra Streisand" INDEX 00 05:37:63FILE "10 - Barbra Streisand - How Lucky Can You Get.wav" WAVE INDEX 01 00:00:00 TRACK 11 AUDIO TITLE "Am I Blue" PERFORMER "Barbra Streisand" INDEX 00 04:48:04FILE "11 - Barbra Streisand - Am I Blue.wav" WAVE INDEX 01 00:00:00 TRACK 12 AUDIO TITLE "Isn't This Better" PERFORMER "Barbra Streisand" INDEX 00 03:21:06FILE "12 - Barbra Streisand - Isn't This Better.wav" WAVE INDEX 01 00:00:00 TRACK 13 AUDIO TITLE "If I Love Again" PERFORMER "Barbra Streisand" INDEX 00 03:29:58FILE "13 - Barbra Streisand - If I Love Again.wav" WAVE INDEX 01 00:00:00 TRACK 14 AUDIO TITLE "Let's Hear It for Me" PERFORMER "Barbra Streisand" INDEX 00 02:58:66FILE "14 - Barbra Streisand - Let's Hear It for Me.wav" WAVE INDEX 01 00:00:00 TRACK 15 AUDIO TITLE "Me and My Shadow" PERFORMER "James Caan" INDEX 00 04:03:29FILE "15 - James Caan - Me and My Shadow.wav" WAVE INDEX 01 00:00:00 TRACK 16 AUDIO TITLE "How Lucky Can You Get (Single Mix)" PERFORMER "Barbra Streisand" INDEX 00 03:03:06FILE "16 - Barbra Streisand - How Lucky Can You Get (Single Mix).wav" WAVE INDEX 01 00:00:00
[teatrix.ru].t10264.torrent 
Торрент: Зарегистрирован [ 2015-11-01 20:51 ] · C6CEBE0EF5A05E100C97F55B804ED25A544CAD62

Скачать .torrent

Скачать

33 KB

Статус: проверено
Скачан: 0 раз
Размер: 385 MB
terms.php



Быстрый ответ

Имя:

      
Для отправки сообщений необходимо включить JavaScript
Показать сообщения:    

Текущее время: 09-Дек 20:23

Часовой пояс: UTC + 3


Вы можете начинать темы
Вы можете отвечать на сообщения
Вы не можете редактировать свои сообщения
Вы не можете удалять свои сообщения
Вы не можете голосовать в опросах
Вы не можете прикреплять файлы к сообщениям
Вы можете скачивать файлы