(Score) На исходе дня / The Remains Of The Day (by Richard Robbins) - 1993, FLAC (tracks+.cue), lossless


Статистика раздачи [Обновить пиров]
Размер:  234 MB   |    Зарегистрирован:  1 год 1 месяц   |    Скачан:  0 раз

Полного источника не было: Никогда

Личеров:  6  [  0 KB/s  ]   Подробная статистика пиров
 
   
 
 
 

[Цитировать]

На исходе дня / The Remains Of The Day-Жанр: Score
Композитор: Richard Robbins
Год выпуска диска: 1993
Производитель диска: UK
Издатель (лейбл): Angel
Номер по каталогу: CDQ 5502926-Аудиокодек: FLAC (*.flac)
Тип рипа: tracks+.cue
Битрейт аудио: lossless
Продолжительность: 00:49:28
Источник: what.cd / jblade
Наличие сканов в содержимом раздачи: нет

Треклист

01. Opening Titles, Darlington Hall [0:07:28.17]
02. The Keyhole and the Chinaman [0:04:13.58]
03. Tradition and Order [0:01:51.35]
04. The Conference Begins [0:01:33.27]
05. Ann Murray & Graham Johnson / Sei Mir Gegrüsst [0:04:13.38]
06. The Cooks In The Kitchen [0:01:34.50]
07. Sir Geoffrey Wren and Stevens, Sr. [0:02:40.50]
08. You Mean A Great Deal To This House [0:02:21.62]
09. Loss and Separation [0:06:20.20]
10. Blue Moon [0:04:57.05]
11. Sentimental Love Story / Appeasement / In the Rain [0:05:23.28]
12. A Portrait Returns / Darlington Hall / End Credits [0:06:50.10]

Лог создания рипа

Exact Audio Copy V0.99 prebeta 5 from 4. May 2009
EAC extraction logfile from 12. May 2009, 10:15
Robbins, Richard / Remains Of The Day
Used drive : MATSHITADVD/CDRW UJDA775 Adapter: 0 ID: 0
Read mode : SecureUtilize accurate stream : YesDefeat audio cache : YesMake use of C2 pointers : No
Read offset correction : 102Overread into Lead-In and Lead-Out : NoFill up missing offset samples with silence : YesDelete leading and trailing silent blocks : NoNull samples used in CRC calculations : YesUsed interface : Native Win32 interface for Win NT & 2000Gap handling : Appended to previous track
Used output format : User Defined EncoderSelected bitrate : 768 kBit/sQuality : HighAdd ID3 tag : NoCommand line compressor : C:\Programs\Exact Audio Copy\FLAC\FLAC.EXEAdditional command line options : -V -8 -T "artist=%a" -T "title=%t" -T "album=%g" -T "date=%y" -T "tracknumber=%n" -T "genre=%m" %s
TOC of the extracted CD
Track | Start | Length | Start sector | End sector --------------------------------------------------------- 1 | 0:00.00 | 7:28.17 | 0 | 33616 2 | 7:28.17 | 4:13.58 | 33617 | 52649 3 | 11:42.00 | 1:51.35 | 52650 | 61009 4 | 13:33.35 | 1:33.27 | 61010 | 68011 5 | 15:06.62 | 4:13.38 | 68012 | 87024 6 | 19:20.25 | 1:34.50 | 87025 | 94124 7 | 20:55.00 | 2:40.50 | 94125 | 106174 8 | 23:35.50 | 2:21.62 | 106175 | 116811 9 | 25:57.37 | 6:20.20 | 116812 | 145331 10 | 32:17.57 | 4:57.05 | 145332 | 167611 11 | 37:14.62 | 5:23.28 | 167612 | 191864 12 | 42:38.15 | 6:50.10 | 191865 | 222624
Track 1
Filename C:\EACrips\Robbins, Richard - Remains Of The Day\ 01 - Opening Titles, Darlington Hall.wav
Pre-gap length 0:00:02.00
Peak level 75.7 % Track quality 100.0 % Test CRC 59CF43DA Copy CRC 59CF43DA Accurately ripped (confidence 3) [67F2D976] Copy OK
Track 2
Filename C:\EACrips\Robbins, Richard - Remains Of The Day\ 02 - The Keyhole and the Chinaman.wav
Pre-gap length 0:00:02.54
Peak level 95.4 % Track quality 99.8 % Test CRC A60B84BF Copy CRC A60B84BF Accurately ripped (confidence 3) [8A6A18A7] Copy OK
Track 3
Filename C:\EACrips\Robbins, Richard - Remains Of The Day\ 03 - Tradition and Order.wav
Pre-gap length 0:00:01.46
Peak level 63.1 % Track quality 99.4 % Test CRC 91EB3E99 Copy CRC 91EB3E99 Accurately ripped (confidence 3) [C3B6D81F] Copy OK
Track 4
Filename C:\EACrips\Robbins, Richard - Remains Of The Day\ 04 - The Conference Begins.wav
Pre-gap length 0:00:01.46
Peak level 96.6 % Track quality 100.0 % Test CRC A9DCBE74 Copy CRC A9DCBE74 Accurately ripped (confidence 3) [7DEBF126] Copy OK
Track 5
Filename C:\EACrips\Robbins, Richard - Remains Of The Day\ 05 - Sei Mir Gegrusst.wav
Pre-gap length 0:00:01.08
Peak level 73.8 % Track quality 99.8 % Test CRC DA098C3E Copy CRC DA098C3E Accurately ripped (confidence 3) [F6EFAA41] Copy OK
Track 6
Filename C:\EACrips\Robbins, Richard - Remains Of The Day\ 06 - The Cooks In The Kitchen.wav
Pre-gap length 0:00:01.17
Peak level 99.7 % Track quality 99.7 % Test CRC EBDF44E4 Copy CRC EBDF44E4 Accurately ripped (confidence 3) [FF91DBA1] Copy OK
Track 7
Filename C:\EACrips\Robbins, Richard - Remains Of The Day\ 07 - Sir Geoffrey Wren and Stevens, Sr..wav
Pre-gap length 0:00:01.22
Peak level 84.1 % Track quality 100.0 % Test CRC 387FA601 Copy CRC 387FA601 Accurately ripped (confidence 3) [7781517C] Copy OK
Track 8
Filename C:\EACrips\Robbins, Richard - Remains Of The Day\ 08 - You Mean A Great Deal To This House.wav
Pre-gap length 0:00:00.90
Peak level 73.4 % Track quality 100.0 % Test CRC 78C73DC8 Copy CRC 78C73DC8 Accurately ripped (confidence 3) [D2A16922] Copy OK
Track 9
Filename C:\EACrips\Robbins, Richard - Remains Of The Day\ 09 - Loss and Separation.wav
Pre-gap length 0:00:00.98
Peak level 84.3 % Track quality 100.0 % Test CRC 6DF940A6 Copy CRC 6DF940A6 Accurately ripped (confidence 3) [BA31A594] Copy OK
Track 10
Filename C:\EACrips\Robbins, Richard - Remains Of The Day\ 10 - Blue Moon.wav
Pre-gap length 0:00:02.01
Peak level 63.1 % Track quality 100.0 % Test CRC D7D9C64E Copy CRC D7D9C64E Accurately ripped (confidence 3) [A7ECA0BC] Copy OK
Track 11
Filename C:\EACrips\Robbins, Richard - Remains Of The Day\ 11 - Sentimental Love Story , Appeasement , In the Rain.wav
Pre-gap length 0:00:01.34
Peak level 83.5 % Track quality 100.0 % Test CRC 0BFCC268 Copy CRC 0BFCC268 Accurately ripped (confidence 3) [ED787F9D] Copy OK
Track 12
Filename C:\EACrips\Robbins, Richard - Remains Of The Day\ 12 - A Portrait Returns , Darlington Hall , End Credits.wav
Pre-gap length 0:00:01.93
Peak level 80.6 % Track quality 99.9 % Test CRC 31FCC178 Copy CRC 31FCC178 Accurately ripped (confidence 3) [94EB9BBA] Copy OK
All tracks accurately ripped
No errors occurred
End of status report

Содержание индексной карты (.CUE)

REM GENRE SoundtrackREM DATE 1993REM DISCID 9F0B980CREM COMMENT "ExactAudioCopy v0.99pb5"PERFORMER "Robbins, Richard"TITLE "Remains Of The Day"FILE "01 - Opening Titles, Darlington Hall.wav" WAVE TRACK 01 AUDIO TITLE "Opening Titles, Darlington Hall" PERFORMER "Robbins, Richard" INDEX 01 00:00:00 TRACK 02 AUDIO TITLE "The Keyhole and the Chinaman" PERFORMER "Robbins, Richard" INDEX 00 07:25:51FILE "02 - The Keyhole and the Chinaman.wav" WAVE INDEX 01 00:00:00 TRACK 03 AUDIO TITLE "Tradition and Order" PERFORMER "Robbins, Richard" INDEX 00 04:12:23FILE "03 - Tradition and Order.wav" WAVE INDEX 01 00:00:00 TRACK 04 AUDIO TITLE "The Conference Begins" PERFORMER "Robbins, Richard" INDEX 00 01:50:00FILE "04 - The Conference Begins.wav" WAVE INDEX 01 00:00:00 TRACK 05 AUDIO TITLE "Sei Mir Gegrusst" PERFORMER "Robbins, Richard" INDEX 00 01:32:21FILE "05 - Sei Mir Gegrusst.wav" WAVE INDEX 01 00:00:00 TRACK 06 AUDIO TITLE "The Cooks In The Kitchen" PERFORMER "Robbins, Richard" INDEX 00 04:12:25FILE "06 - The Cooks In The Kitchen.wav" WAVE INDEX 01 00:00:00 TRACK 07 AUDIO TITLE "Sir Geoffrey Wren and Stevens, Sr." PERFORMER "Robbins, Richard" INDEX 00 01:33:33FILE "07 - Sir Geoffrey Wren and Stevens, Sr..wav" WAVE INDEX 01 00:00:00 TRACK 08 AUDIO TITLE "You Mean A Great Deal To This House" PERFORMER "Robbins, Richard" INDEX 00 02:39:57FILE "08 - You Mean A Great Deal To This House.wav" WAVE INDEX 01 00:00:00 TRACK 09 AUDIO TITLE "Loss and Separation" PERFORMER "Robbins, Richard" INDEX 00 02:20:63FILE "09 - Loss and Separation.wav" WAVE INDEX 01 00:00:00 TRACK 10 AUDIO TITLE "Blue Moon" PERFORMER "Robbins, Richard" INDEX 00 06:18:19FILE "10 - Blue Moon.wav" WAVE INDEX 01 00:00:00 TRACK 11 AUDIO TITLE "Sentimental Love Story / Appeasement / In the Rain" PERFORMER "Robbins, Richard" INDEX 00 04:55:54FILE "11 - Sentimental Love Story , Appeasement , In the Rain.wav" WAVE INDEX 01 00:00:00 TRACK 12 AUDIO TITLE "A Portrait Returns / Darlington Hall / End Credits" PERFORMER "Robbins, Richard" INDEX 00 05:21:33FILE "12 - A Portrait Returns , Darlington Hall , End Credits.wav" WAVE INDEX 01 00:00:00
[teatrix.ru].t10265.torrent 
Торрент: Зарегистрирован [ 2015-11-01 20:51 ] · 17C0941EB4BA66A244537ABC917693BAB29662ED

Скачать .torrent

Скачать

20 KB

Статус: проверено
Скачан: 0 раз
Размер: 234 MB
terms.php



Быстрый ответ

Имя:

      
Для отправки сообщений необходимо включить JavaScript
Показать сообщения:    

Текущее время: 03-Дек 01:17

Часовой пояс: UTC + 3


Вы можете начинать темы
Вы можете отвечать на сообщения
Вы не можете редактировать свои сообщения
Вы не можете удалять свои сообщения
Вы не можете голосовать в опросах
Вы не можете прикреплять файлы к сообщениям
Вы можете скачивать файлы