(Score) Все ради нее / Pour Elle (by Klaus Badelt) - 2008, FLAC (tracks+.cue), lossless


Статистика раздачи [Обновить пиров]
Размер:  177 MB   |    Зарегистрирован:  1 год 1 месяц   |    Скачан:  0 раз

Полного источника не было: 9 месяцев 19 дней

Личеров:  7  [  0 KB/s  ]   Подробная статистика пиров
 
   
 
 
 

[Цитировать]

Все ради нее / Pour Elle-Жанр: Score
Композитор: Klaus Badelt
Год выпуска диска: 2008
Производитель диска: P&O, Germany
Издатель (лейбл): Varèse Sarabande
Номер по каталогу: CST 8127.2-Аудиокодек: FLAC (*.flac)
Тип рипа: tracks+.cue
Битрейт аудио: lossless
Продолжительность: 00:39:01
Источник: what.cd / lostindrink
Наличие сканов в содержимом раздачи: нет

Треклист

1. Lisa & Oscar (03:13)
2. Monsieur Tout-Le-Monde (10:33)
3. Innocent (05:05)
4. La Clé (The Key) (05:34)
5. Evasion (Escape) (05:47)
6. Trop Tard (Too Late) (03:33)
7. Générique Fin (End Credits) (05:13)

Лог создания рипа

Exact Audio Copy V1.0 beta 3 from 29. August 2011
EAC extraction logfile from 25. November 2014, 14:44
Klaus Badelt / Pour Elle
Used drive : PIONEER BD-RW BDR-208D Adapter: 0 ID: 0
Read mode : SecureUtilize accurate stream : YesDefeat audio cache : YesMake use of C2 pointers : No
Read offset correction : 667Overread into Lead-In and Lead-Out : YesFill up missing offset samples with silence : YesDelete leading and trailing silent blocks : NoNull samples used in CRC calculations : YesUsed interface : Native Win32 interface for Win NT & 2000Gap handling : Appended to previous track
Used output format : User Defined EncoderSelected bitrate : 1024 kBit/sQuality : HighAdd ID3 tag : NoCommand line compressor : C:\Program Files\Exact Audio Copy\Flac\flac.exeAdditional command line options : -8 -V -T "ARTIST=%artist%" -T "TITLE=%title%" -T "ALBUM=%albumtitle%" -T "DATE=%year%" -T "TRACKNUMBER=%tracknr%"-T "GENRE=%genre%" -T "PERFORMER=%albuminterpret%" -T "COMPOSER=%composer%" %haslyrics%--tag-from-file=LYRICS="%lyricsfile%"%haslyrics%-T "ALBUMARTIST=%albumartist%" -T "DISCNUMBER=%cdnumber%" -T "TOTALDISCS=%totalcds%" -T "TOTALTRACKS=%numtracks%" -T "COMMENT=%comment%" %source% -o %dest%
TOC of the extracted CD
Track | Start | Length | Start sector | End sector --------------------------------------------------------- 1 | 0:00.00 | 3:13.12 | 0 | 14486 2 | 3:13.12 | 10:33.10 | 14487 | 61971 3 | 13:46.22 | 5:05.02 | 61972 | 84848 4 | 18:51.24 | 5:34.26 | 84849 | 109924 5 | 24:25.50 | 5:47.54 | 109925 | 136003 6 | 30:13.29 | 3:33.38 | 136004 | 152016 7 | 33:46.67 | 5:13.52 | 152017 | 175543
Track 1
Filename C:\Klaus Badelt - Pour Elle (2008) [FLAC]\01 - Lisa& Oscar.wav
Pre-gap length 0:00:02.00
Peak level 54.8 % Extraction speed 4.4 X Track quality 100.0 % Test CRC F0E7F632 Copy CRC F0E7F632 Accurately ripped (confidence 3) [DAC76497] (AR v1) Copy OK
Track 2
Filename C:\Klaus Badelt - Pour Elle (2008) [FLAC]\02 - Monsieur Tout-le- monde.wav
Peak level 96.0 % Extraction speed 5.4 X Track quality 99.9 % Test CRC B4640A8D Copy CRC B4640A8D Accurately ripped (confidence 3) [4244F389] (AR v1) Copy OK
Track 3
Filename C:\Klaus Badelt - Pour Elle (2008) [FLAC]\03 - Innocent.wav
Peak level 95.8 % Extraction speed 6.1 X Track quality 100.0 % Test CRC B7692548 Copy CRC B7692548 Accurately ripped (confidence 3) [527FAD34] (AR v1) Copy OK
Track 4
Filename C:\Klaus Badelt - Pour Elle (2008) [FLAC]\04 - The Key.wav
Peak level 96.0 % Extraction speed 6.5 X Track quality 100.0 % Test CRC 0ABC9CAA Copy CRC 0ABC9CAA Accurately ripped (confidence 3) [46933886] (AR v1) Copy OK
Track 5
Filename C:\Klaus Badelt - Pour Elle (2008) [FLAC]\05 - Escape.wav
Peak level 96.0 % Extraction speed 7.1 X Track quality 100.0 % Test CRC DE66AEDD Copy CRC DE66AEDD Accurately ripped (confidence 3) [C8A45F76] (AR v1) Copy OK
Track 6
Filename C:\Klaus Badelt - Pour Elle (2008) [FLAC]\06 - Too Late.wav
Peak level 96.0 % Extraction speed 6.8 X Track quality 100.0 % Test CRC 667462BE Copy CRC 667462BE Accurately ripped (confidence 3) [EA22A80B] (AR v1) Copy OK
Track 7
Filename C:\Klaus Badelt - Pour Elle (2008) [FLAC]\07 - End Credits.wav
Peak level 60.8 % Extraction speed 8.0 X Track quality 99.9 % Test CRC F86D12A0 Copy CRC F86D12A0 Accurately ripped (confidence 3) [6AA54CFE] (AR v1) Copy OK
All tracks accurately ripped
No errors occurred
End of status report
---- CUETools DB Plugin V2.1.3
[CTDB TOCID: RzBPnPVJL9eOgdbVz4WL19omSDc-] disk not present in database, Submit result: RzBPnPVJL9eOgdbVz4WL19omSDc- has been uploaded
==== Log checksum 8223332C7498990CAB6FEB3424FBC1FEC3E4AB84CB66E3352B7A018963B3E670 ====

Содержание индексной карты (.CUE)

REM GENRE SoundtrackREM DATE 2008REM DISCID 58092407REM COMMENT "ExactAudioCopy v1.0b3"CATALOG 4005939812720PERFORMER "Klaus Badelt"TITLE "Pour Elle"FILE "01 - Lisa& Oscar.wav" WAVE TRACK 01 AUDIO TITLE "Lisa& Oscar" PERFORMER "Klaus Badelt" ISRC DEB510800148 INDEX 01 00:00:00FILE "02 - Monsieur Tout-le- monde.wav" WAVE TRACK 02 AUDIO TITLE "Monsieur Tout-le- monde" PERFORMER "Klaus Badelt" ISRC DEB510800149 INDEX 01 00:00:00FILE "03 - Innocent.wav" WAVE TRACK 03 AUDIO TITLE "Innocent" PERFORMER "Klaus Badelt" ISRC DEB510800150 INDEX 01 00:00:00FILE "04 - The Key.wav" WAVE TRACK 04 AUDIO TITLE "The Key" PERFORMER "Klaus Badelt" ISRC DEB510800151 INDEX 01 00:00:00FILE "05 - Escape.wav" WAVE TRACK 05 AUDIO TITLE "Escape" PERFORMER "Klaus Badelt" ISRC DEB510800152 INDEX 01 00:00:00FILE "06 - Too Late.wav" WAVE TRACK 06 AUDIO TITLE "Too Late" PERFORMER "Klaus Badelt" INDEX 01 00:00:00FILE "07 - End Credits.wav" WAVE TRACK 07 AUDIO TITLE "End Credits" PERFORMER "Klaus Badelt" ISRC DEB510800154 INDEX 01 00:00:00
[teatrix.ru].t10267.torrent 
Торрент: Зарегистрирован [ 2015-11-01 20:51 ] · 6C6369981FFAC23D54672DE3D213A8510BD35530

Скачать .torrent

Скачать

15 KB

Статус: проверено
Скачан: 0 раз
Размер: 177 MB
terms.php



Быстрый ответ

Имя:

      
Для отправки сообщений необходимо включить JavaScript
Показать сообщения:    

Текущее время: 11-Дек 16:55

Часовой пояс: UTC + 3


Вы можете начинать темы
Вы можете отвечать на сообщения
Вы не можете редактировать свои сообщения
Вы не можете удалять свои сообщения
Вы не можете голосовать в опросах
Вы не можете прикреплять файлы к сообщениям
Вы можете скачивать файлы