(Soundtrack / Score) Освободите Вилли 2: Новое приключение / Free Willy 2: The Adventure Home (by Basil Poledouris) - 1995, FLAC (tracks+.cue), lossless


Статистика раздачи [Обновить пиров]
Размер:  324 MB   |    Зарегистрирован:  1 год 1 месяц   |    Скачан:  0 раз

Полного источника не было: Никогда

Личеров:  6  [  0 KB/s  ]   Подробная статистика пиров
 
   
 
 
 

[Цитировать]

Освободите Вилли 2: Новое приключение / Free Willy 2: The Adventure Home-Жанр: Soundtrack / Score
Композитор: Basil Poledouris
Год выпуска диска: 1995
Производитель диска: Sony DADC, Austria
Издатель (лейбл): MJJ / Epic Soundtrax
Номер по каталогу: EPC 480739 2-Аудиокодек: FLAC (*.flac)
Тип рипа: tracks+.cue
Битрейт аудио: lossless
Продолжительность: 00:46:59
Источник: собственный рип
Наличие сканов в содержимом раздачи: да, 600 dpi-Ссылки: Кинопоиск | IMDB | Wikipedia | SoundtrackCollector
E-FuRLong писал(а):"Освободите Вилли 2: Новое приключение" - продолжение фильма "Освободите Вилли" 1993 года. В картине Джесси снова встречается с Вилли после того как косатка была выпущена на свободу; здесь мальчишка пытается спасти Вилли и других косаток от разлива нефти в океане (IMDb).
Один из лучших фильмов про животных с классной музыкой и приятными воспоминаниями из детства.

Треклист

01. Michael Jackson / Childhood [0:04:29.10]
02. Rebbie Jackson / Forever Young * [0:04:26.50]
03. Brownstone / Sometimes Dancin' (Featuring Spragga Benz) * [0:04:33.40]
04. 3T / What Will It Take [0:05:17.25]
05. Exposé / I'll Say Good-Bye For The Two Of Us [0:04:47.65]
06. Pretenders / Forever Young [0:05:06.32]
07. Nathan Cavaleri Band / Lou's Blues [0:03:17.13]
08. Basil Poledouris / Main Titles [0:03:32.00]
09. Basil Poledouris / Whale Swim [0:03:20.20]
10. Basil Poledouris / Reunion [0:03:41.05]
11. Michael Jackson / Childhood (Instrumental) [0:04:27.40]
* MJJ Music Bonus Tracks

Лог создания рипа

Exact Audio Copy V1.1 from 23. June 2015
EAC extraction logfile from 11. October 2015, 0:54
Basil Poledouris / Free Willy 2: The Adventure Home
Used drive : PLEXTOR CD-R PX-230A Adapter: 1 ID: 2
Read mode : SecureUtilize accurate stream : YesDefeat audio cache : YesMake use of C2 pointers : No
Read offset correction : 738Overread into Lead-In and Lead-Out : NoFill up missing offset samples with silence : YesDelete leading and trailing silent blocks : NoNull samples used in CRC calculations : YesUsed interface : Native Win32 interface for Win NT & 2000Gap handling : Appended to previous track
Used output format : User Defined EncoderSelected bitrate : 1024 kBit/sQuality : HighAdd ID3 tag : NoCommand line compressor : C:\Program Files (x86)\Exact Audio Copy\FLAC\FLAC.EXEAdditional command line options : -6 -V -T "ARTIST=%artist%" -T "TITLE=%title%" -T "ALBUM=%albumtitle%" -T "DATE=%year%"-T "TRACKNUMBER=%tracknr%" -T "GENRE=%genre%" -T "COMMENT=%comment%" -T "ALBUMARTIST=%albuminterpret%" -T "COMPOSER=%composer%"-T "DISCNUMBER=%cdnumber%" -T "TOTALDISCS=%totalcds%" -T "TOTALTRACKS=%numtracks%" %source% -o %dest%
TOC of the extracted CD
Track | Start | Length | Start sector | End sector --------------------------------------------------------- 1 | 0:00.00 | 4:29.10 | 0 | 20184 2 | 4:29.10 | 4:26.50 | 20185 | 40184 3 | 8:55.60 | 4:33.40 | 40185 | 60699 4 | 13:29.25 | 5:17.25 | 60700 | 84499 5 | 18:46.50 | 4:47.65 | 84500 | 106089 6 | 23:34.40 | 5:06.32 | 106090 | 129071 7 | 28:40.72 | 3:17.13 | 129072 | 143859 8 | 31:58.10 | 3:32.00 | 143860 | 159759 9 | 35:30.10 | 3:20.20 | 159760 | 174779 10 | 38:50.30 | 3:41.05 | 174780 | 191359 11 | 42:31.35 | 4:27.40 | 191360 | 211424
Track 1
Filename C:\Music\01 - Michael Jackson - Childhood.wav
Pre-gap length 0:00:02.00
Peak level 97.8 % Extraction speed 5.3 X Track quality 100.0 % Test CRC DE7F5987 Copy CRC DE7F5987 Accurately ripped (confidence 2) [32806382] (AR v2) Copy OK
Track 2
Filename C:\Music\02 - Rebbie Jackson - Forever Young.wav
Pre-gap length 0:00:01.34
Peak level 99.8 % Extraction speed 5.4 X Track quality 100.0 % Test CRC 39623F08 Copy CRC 39623F08 Accurately ripped (confidence 2) [E745B37E] (AR v2) Copy OK
Track 3
Filename C:\Music\03 - Brownstone - Sometimes Dancin' (Featuring Spragga Benz).wav
Pre-gap length 0:00:01.45
Peak level 97.1 % Extraction speed 4.0 X Track quality 99.9 % Test CRC DAF21F11 Copy CRC DAF21F11 Accurately ripped (confidence 2) [DB1D1A85] (AR v2) Copy OK
Track 4
Filename C:\Music\04 - Basil Poledouris - What Will It Take.wav
Peak level 99.8 % Extraction speed 4.6 X Track quality 100.0 % Test CRC C8D12883 Copy CRC C8D12883 Accurately ripped (confidence 2) [713694B3] (AR v2) Copy OK
Track 5
Filename C:\Music\05 - 3T - I'll say good-bye for the two of us.wav
Peak level 99.8 % Extraction speed 5.4 X Track quality 100.0 % Test CRC 09566C8C Copy CRC 09566C8C Accurately ripped (confidence 2) [C0127FF0] (AR v2) Copy OK
Track 6
Filename C:\Music\06 - Pretenders - Forever Young.wav
Peak level 90.6 % Extraction speed 5.0 X Track quality 99.9 % Test CRC 4D634E8B Copy CRC 4D634E8B Accurately ripped (confidence 2) [CFE624A3] (AR v2) Copy OK
Track 7
Filename C:\Music\07 - Nathan Cavaleri Band - Lou's Blues.wav
Pre-gap length 0:00:02.32
Peak level 99.8 % Extraction speed 4.4 X Track quality 99.9 % Test CRC B5ADAD06 Copy CRC B5ADAD06 Accurately ripped (confidence 2) [F222A41F] (AR v2) Copy OK
Track 8
Filename C:\Music\08 - Basil Poledouris - Main Titles.wav
Pre-gap length 0:00:02.33
Peak level 99.8 % Extraction speed 5.2 X Track quality 100.0 % Test CRC C83B5A3F Copy CRC C83B5A3F Accurately ripped (confidence 2) [232F150A] (AR v2) Copy OK
Track 9
Filename C:\Music\09 - Basil Poledouris - Whale Swim.wav
Pre-gap length 0:00:00.70
Peak level 99.8 % Extraction speed 5.2 X Track quality 100.0 % Test CRC 09019FC8 Copy CRC 09019FC8 Accurately ripped (confidence 2) [2CCF9BAA] (AR v2) Copy OK
Track 10
Filename C:\Music\10 - Basil Poledouris - Reunion.wav
Pre-gap length 0:00:01.53
Peak level 99.8 % Extraction speed 4.5 X Track quality 99.9 % Test CRC 0CC8CA30 Copy CRC 0CC8CA30 Accurately ripped (confidence 2) [68E54602] (AR v2) Copy OK
Track 11
Filename C:\Music\11 - Michael Jackson - Childhood (Instrumental).wav
Pre-gap length 0:00:01.58
Peak level 56.1 % Extraction speed 5.1 X Track quality 100.0 % Test CRC 46B50A4C Copy CRC 46B50A4C Accurately ripped (confidence 2) [21D27A46] (AR v2) Copy OK
All tracks accurately ripped
No errors occurred
End of status report
---- CUETools DB Plugin V2.1.6
[CTDB TOCID: EY344m0qDk.QCzEXBICCjUZu1Xg-] foundSubmit result: EY344m0qDk.QCzEXBICCjUZu1Xg- has been confirmedTrack | CTDB Status 1 | (1/1) Accurately ripped 2 | (1/1) Accurately ripped 3 | (1/1) Accurately ripped 4 | (1/1) Accurately ripped 5 | (1/1) Accurately ripped 6 | (1/1) Accurately ripped 7 | (1/1) Accurately ripped 8 | (1/1) Accurately ripped 9 | (1/1) Accurately ripped 10 | (1/1) Accurately ripped 11 | (1/1) Accurately ripped
==== Log checksum 7EE06B3B16D643E56E4A62E4F1BA8561F0CD7D2E5AD8A8258CECD8FD760C3B2B ====

Содержание индексной карты (.CUE)

REM GENRE SoundtrackREM DATE 1995REM DISCID 760B030BREM COMMENT "ExactAudioCopy v1.1"PERFORMER "Basil Poledouris"TITLE "Free Willy 2: The Adventure Home"FILE "01 - Michael Jackson - Childhood.wav" WAVE TRACK 01 AUDIO TITLE "Childhood" PERFORMER "Michael Jackson" INDEX 01 00:00:00 TRACK 02 AUDIO TITLE "Forever Young" PERFORMER "Rebbie Jackson" INDEX 00 04:27:51FILE "02 - Rebbie Jackson - Forever Young.wav" WAVE INDEX 01 00:00:00 TRACK 03 AUDIO TITLE "Sometimes Dancin' (Featuring Spragga Benz)" PERFORMER "Brownstone" INDEX 00 04:25:05FILE "03 - Brownstone - Sometimes Dancin' (Featuring Spragga Benz).wav" WAVE INDEX 01 00:00:00FILE "04 - 3T - What Will It Take.wav" WAVE TRACK 04 AUDIO TITLE "What Will It Take" PERFORMER "3T" INDEX 01 00:00:00FILE "05 - Expose - I'll Say Good-Bye For The Two Of Us.wav" WAVE TRACK 05 AUDIO TITLE "I'll Say Good-Bye For The Two Of Us" PERFORMER "Expose" INDEX 01 00:00:00FILE "06 - Pretenders - Forever Young.wav" WAVE TRACK 06 AUDIO TITLE "Forever Young" PERFORMER "Pretenders" INDEX 01 00:00:00 TRACK 07 AUDIO TITLE "Lou's Blues" PERFORMER "Nathan Cavaleri Band" INDEX 00 05:04:00FILE "07 - Nathan Cavaleri Band - Lou's Blues.wav" WAVE INDEX 01 00:00:00 TRACK 08 AUDIO TITLE "Main Titles" PERFORMER "Basil Poledouris" INDEX 00 03:14:55FILE "08 - Basil Poledouris - Main Titles.wav" WAVE INDEX 01 00:00:00 TRACK 09 AUDIO TITLE "Whale Swim" PERFORMER "Basil Poledouris" INDEX 00 03:31:05FILE "09 - Basil Poledouris - Whale Swim.wav" WAVE INDEX 01 00:00:00 TRACK 10 AUDIO TITLE "Reunion" PERFORMER "Basil Poledouris" INDEX 00 03:18:42FILE "10 - Basil Poledouris - Reunion.wav" WAVE INDEX 01 00:00:00 TRACK 11 AUDIO TITLE "Childhood (Instrumental)" PERFORMER "Michael Jackson" INDEX 00 03:39:22FILE "11 - Michael Jackson - Childhood (Instrumental).wav" WAVE INDEX 01 00:00:00
[teatrix.ru].t10268.torrent 
Торрент: Зарегистрирован [ 2015-11-01 20:51 ] · 7E8AAC6BD56F2581FF3406D0782DE1AC6B514178

Скачать .torrent

Скачать

27 KB

Статус: проверено
Скачан: 0 раз
Размер: 324 MB
terms.php



Быстрый ответ

Имя:

      
Для отправки сообщений необходимо включить JavaScript
Показать сообщения:    

Текущее время: 06-Дек 15:12

Часовой пояс: UTC + 3


Вы можете начинать темы
Вы можете отвечать на сообщения
Вы не можете редактировать свои сообщения
Вы не можете удалять свои сообщения
Вы не можете голосовать в опросах
Вы не можете прикреплять файлы к сообщениям
Вы можете скачивать файлы