(Soundtrack / Score / Cartoon) Мадагаскар 3 / Madagascar 3: Europe's Most Wanted (by Hans Zimmer) - 2012, FLAC (tracks+.cue), lossless


Статистика раздачи [Обновить пиров]
Размер:  261 MB   |    Зарегистрирован:  1 год 2 месяца   |    Скачан:  0 раз

Полного источника не было: Никогда

Личеров:  4  [  0 KB/s  ]   Подробная статистика пиров
 
   
 
 
 

[Цитировать]

Мадагаскар 3 / Madagascar 3: Europe's Most Wanted-Жанр: Soundtrack / Score
Композитор: Hans Zimmer
Год выпуска диска: 2012
Производитель диска: USA
Издатель (лейбл): Interscope
Номер по каталогу: B0016951-02-Аудиокодек: FLAC (*.flac)
Тип рипа: tracks+.cue
Битрейт аудио: lossless
Продолжительность: 01:09:25
Источник: what.cd / weisguy
Наличие сканов в содержимом раздачи: нет

Треклист

01 Hans Zimmer - New York City Surprise 08:47
02 Danny Jacobs - Gonna Make You Sweat 02:15
(Everybody Dance Now)
03 Danny Jacobs - Wannabe 02:37
04 Hans Zimmer - Game On 09:13
05 Danny Jacobs - Hot In Herre 02:27
06 The Capitols - Cool Jerk 02:44
07 Hans Zimmer - Light The Hoop On Fire! 08:51
08 Hans Zimmer - Fur Power! 06:11
09 Frances McDormand - Non Je Ne Regrette Rien 01:13
10 Peter Asher - Love Always Comes As A Surprise 03:22
11 Hans Zimmer - Rescue Stefano 15:17
12 Katy Perry - Firework 03:46
13 Chris Rock - Afro Circus_I Like To Move It 02:42

Лог создания рипа

Exact Audio Copy V1.0 beta 3 from 29. August 2011
EAC extraction logfile from 31. May 2015, 18:40
Various Artists / Madagascar 3: Europe's Most Wanted
Used drive : TSSTcorpCDDVDW SH-224BB Adapter: 0 ID: 0
Read mode : SecureUtilize accurate stream : YesDefeat audio cache : YesMake use of C2 pointers : No
Read offset correction : 6Overread into Lead-In and Lead-Out : NoFill up missing offset samples with silence : YesDelete leading and trailing silent blocks : NoNull samples used in CRC calculations : YesUsed interface : Native Win32 interface for Win NT & 2000Gap handling : Appended to previous track
Used output format : User Defined EncoderSelected bitrate : 1024 kBit/sQuality : HighAdd ID3 tag : NoCommand line compressor : C:\Program Files (x86)\Exact Audio Copy\Flac\flac.exeAdditional command line options : -8 -V -T "ARTIST=%artist%" -T "TITLE=%title%" -T "ALBUM=%albumtitle%" -T "DATE=%year%" -T "TRACKNUMBER=%tracknr%"-T "GENRE=%genre%" -T "PERFORMER=%albuminterpret%" -T "COMPOSER=%composer%" %haslyrics%--tag-from-file=LYRICS="%lyricsfile%"%haslyrics%-T "ALBUMARTIST=%albumartist%" -T "DISCNUMBER=%cdnumber%" -T "TOTALDISCS=%totalcds%" -T "TOTALTRACKS=%numtracks%" -T "COMMENT=%comment%" %source% -o %dest%
TOC of the extracted CD
Track | Start | Length | Start sector | End sector --------------------------------------------------------- 1 | 0:00.00 | 3:06.52 | 0 | 14001 2 | 3:06.52 | 2:15.29 | 14002 | 24155 3 | 5:22.06 | 2:37.50 | 24156 | 35980 4 | 7:59.56 | 3:12.08 | 35981 | 50388 5 | 11:11.64 | 2:27.64 | 50389 | 61477 6 | 13:39.53 | 4:29.63 | 61478 | 81715 7 | 18:09.41 | 3:10.25 | 81716 | 95990 8 | 21:19.66 | 2:19.23 | 95991 | 106438 9 | 23:39.14 | 1:13.13 | 106439 | 111926 10 | 24:52.27 | 3:21.42 | 111927 | 127043 11 | 28:13.69 | 5:51.10 | 127044 | 153378 12 | 34:05.04 | 3:45.74 | 153379 | 170327 13 | 37:51.03 | 2:41.42 | 170328 | 182444
Track 1
Filename d:\wave dumps\01 - Hans Zimmer - New York City Surprise.wav
Pre-gap length 0:00:02.00
Peak level 94.4 % Extraction speed 4.6 X Track quality 100.0 % Test CRC 8623A0BE Copy CRC 8623A0BE Accurately ripped (confidence 10) [84911F5D] (AR v2) Copy OK
Track 2
Filename d:\wave dumps\02 - Danny Jacobs - Gonna Make You Sweat (Everybody Dance Now).wav
Pre-gap length 0:00:01.38
Peak level 88.8 % Extraction speed 4.6 X Track quality 100.0 % Test CRC F1AE705E Copy CRC F1AE705E Accurately ripped (confidence 10) [E50B55C5] (AR v2) Copy OK
Track 3
Filename d:\wave dumps\03 - Danny Jacobs - Wannabe.wav
Peak level 88.9 % Extraction speed 3.7 X Track quality 99.9 % Test CRC 87FAC781 Copy CRC 87FAC781 Accurately ripped (confidence 10) [A5B84C0F] (AR v2) Copy OK
Track 4
Filename d:\wave dumps\04 - Hans Zimmer - Game On.wav
Pre-gap length 0:00:00.24
Peak level 94.4 % Extraction speed 5.5 X Track quality 100.0 % Test CRC 5F6D0302 Copy CRC 5F6D0302 Accurately ripped (confidence 10) [3573842A] (AR v2) Copy OK
Track 5
Filename d:\wave dumps\05 - Danny Jacobs - Hot In Herre.wav
Pre-gap length 0:00:00.06
Peak level 68.9 % Extraction speed 5.3 X Track quality 100.0 % Test CRC 2A965BF6 Copy CRC 2A965BF6 Accurately ripped (confidence 10) [271E057C] (AR v2) Copy OK
Track 6
Filename d:\wave dumps\06 - Yolanda Be Cool & Dcup - We No Speak Americano.wav
Pre-gap length 0:00:00.54
Peak level 70.5 % Extraction speed 6.3 X Track quality 100.0 % Test CRC 2B6E15D7 Copy CRC 2B6E15D7 Accurately ripped (confidence 10) [F9D79041] (AR v2) Copy OK
Track 7
Filename d:\wave dumps\07 - Hans Zimmer - Light The Hoop On Fire!.wav
Peak level 95.3 % Extraction speed 6.3 X Track quality 100.0 % Test CRC F7293CCD Copy CRC F7293CCD Accurately ripped (confidence 10) [F6A0DC6C] (AR v2) Copy OK
Track 8
Filename d:\wave dumps\08 - Hans Zimmer - Fur Power!.wav
Peak level 94.4 % Extraction speed 6.1 X Track quality 100.0 % Test CRC 2FD491AF Copy CRC 2FD491AF Accurately ripped (confidence 10) [F06E529D] (AR v2) Copy OK
Track 9
Filename d:\wave dumps\09 - Frances McDormand - Non Je Ne Regrette Rien.wav
Pre-gap length 0:00:00.58
Peak level 98.5 % Extraction speed 5.2 X Track quality 100.0 % Test CRC 45F4E6C1 Copy CRC 45F4E6C1 Accurately ripped (confidence 10) [3922F80B] (AR v2) Copy OK
Track 10
Filename d:\wave dumps\10 - Peter Asher - Love Always Comes As A Surprise.wav
Peak level 94.4 % Extraction speed 6.8 X Track quality 100.0 % Test CRC 932B522D Copy CRC 932B522D Accurately ripped (confidence 10) [0A13B265] (AR v2) Copy OK
Track 11
Filename d:\wave dumps\11 - Hans Zimmer - Rescue Stefano.wav
Pre-gap length 0:00:00.10
Peak level 94.4 % Extraction speed 7.7 X Track quality 100.0 % Test CRC A9EFA968 Copy CRC A9EFA968 Accurately ripped (confidence 10) [BBD0EB29] (AR v2) Copy OK
Track 12
Filename d:\wave dumps\12 - Katy Perry - Firework.wav
Peak level 87.6 % Extraction speed 7.6 X Track quality 100.0 % Test CRC FB413159 Copy CRC FB413159 Accurately ripped (confidence 10) [134381F2] (AR v2) Copy OK
Track 13
Filename d:\wave dumps\13 - Chris Rock & Danny Jacobs - Afro Circus - I Like To Move It.wav
Peak level 94.4 % Extraction speed 7.3 X Track quality 100.0 % Test CRC D50F71D9 Copy CRC D50F71D9 Accurately ripped (confidence 10) [C67A2F44] (AR v2) Copy OK
All tracks accurately ripped
No errors occurred
End of status report
==== Log checksum C72BD5D832755090C58799077EA7F6169BA958B834420BDB6317EEF4D4EFDD30 ====

Содержание индексной карты (.CUE)

REM GENRE "Movie Soundtrack"REM DATE 2012REM DISCID A509800DREM COMMENT "ExactAudioCopy v1.0b3"CATALOG 0602537055999PERFORMER "Various Artists"TITLE "Madagascar 3: Europe's Most Wanted"FILE "01 - Hans Zimmer - New York City Surprise.wav" WAVE TRACK 01 AUDIO TITLE "New York City Surprise" PERFORMER "Hans Zimmer" ISRC USUG11200905 INDEX 01 00:00:00 TRACK 02 AUDIO TITLE "Gonna Make You Sweat (Everybody Dance Now)" PERFORMER "Danny Jacobs" ISRC USUG11200901 INDEX 00 03:05:23FILE "02 - Danny Jacobs - Gonna Make You Sweat (Everybody Dance Now).wav" WAVE INDEX 01 00:00:00FILE "03 - Danny Jacobs - Wannabe.wav" WAVE TRACK 03 AUDIO TITLE "Wannabe" PERFORMER "Danny Jacobs" ISRC USUG11200908 INDEX 01 00:00:00 TRACK 04 AUDIO TITLE "Game On" PERFORMER "Hans Zimmer" ISRC USUG11200900 INDEX 00 02:37:32FILE "04 - Hans Zimmer - Game On.wav" WAVE INDEX 01 00:00:00 TRACK 05 AUDIO TITLE "Hot In Herre" PERFORMER "Danny Jacobs" ISRC USUG11200902 INDEX 00 03:12:03FILE "05 - Danny Jacobs - Hot In Herre.wav" WAVE INDEX 01 00:00:00 TRACK 06 AUDIO TITLE "We No Speak Americano" PERFORMER "Yolanda Be Cool & Dcup" ISRC AUCN30901316 INDEX 00 02:27:23FILE "06 - Yolanda Be Cool & Dcup - We No Speak Americano.wav" WAVE INDEX 01 00:00:00FILE "07 - Hans Zimmer - Light The Hoop On Fire!.wav" WAVE TRACK 07 AUDIO TITLE "Light The Hoop On Fire!" PERFORMER "Hans Zimmer" ISRC USUG11200903 INDEX 01 00:00:00FILE "08 - Hans Zimmer - Fur Power!.wav" WAVE TRACK 08 AUDIO TITLE "Fur Power!" PERFORMER "Hans Zimmer" ISRC USUG11200899 INDEX 01 00:00:00 TRACK 09 AUDIO TITLE "Non Je Ne Regrette Rien" PERFORMER "Frances McDormand" ISRC USUG11200906 INDEX 00 02:18:54FILE "09 - Frances McDormand - Non Je Ne Regrette Rien.wav" WAVE INDEX 01 00:00:00FILE "10 - Peter Asher - Love Always Comes As A Surprise.wav" WAVE TRACK 10 AUDIO TITLE "Love Always Comes As A Surprise" PERFORMER "Peter Asher" ISRC USUG11200906 INDEX 01 00:00:00 TRACK 11 AUDIO TITLE "Rescue Stefano" PERFORMER "Hans Zimmer" ISRC USUG11200907 INDEX 00 03:21:34FILE "11 - Hans Zimmer - Rescue Stefano.wav" WAVE INDEX 01 00:00:00FILE "12 - Katy Perry - Firework.wav" WAVE TRACK 12 AUDIO TITLE "Firework" PERFORMER "Katy Perry" ISRC USCA21001262 INDEX 01 00:00:00FILE "13 - Chris Rock & Danny Jacobs - Afro Circus - I Like To Move It.wav" WAVE TRACK 13 AUDIO TITLE "Afro Circus - I Like To Move It" PERFORMER "Chris Rock & Danny Jacobs" ISRC USUG11200898 INDEX 01 00:00:00
[teatrix.ru].t10272.torrent 
Торрент: Зарегистрирован [ 2015-11-01 20:51 ] · ABD7E24D4E01B22BCA412FB3908EEE8AAE8D5288

Скачать .torrent

Скачать

12 KB

Статус: проверено
Скачан: 0 раз
Размер: 261 MB
terms.php



Быстрый ответ

Имя:

      
Для отправки сообщений необходимо включить JavaScript
Показать сообщения:    

Текущее время: 18-Янв 00:23

Часовой пояс: UTC + 3


Вы можете начинать темы
Вы можете отвечать на сообщения
Вы не можете редактировать свои сообщения
Вы не можете удалять свои сообщения
Вы не можете голосовать в опросах
Вы не можете прикреплять файлы к сообщениям
Вы можете скачивать файлы