(Score) Крепкий орешек 4.0 / Live Free Or Die Hard (by Marco Beltrami) 2007, FLAC (tracks+.cue), lossless


Статистика раздачи [Обновить пиров]
Размер:  336 MB   |    Зарегистрирован:  1 год 1 месяц   |    Скачан:  0 раз

Полного источника не было: Никогда

Личеров:  4  [  0 KB/s  ]   Подробная статистика пиров
 
   
 
 
 

[Цитировать]

Крепкий орешек 4.0 / Live Free Or Die Hard-Жанр: Score
Композитор: Marco Beltrami
Год выпуска диска: 2007
Производитель диска: USA
Издатель (лейбл): Varèse Sarabande
Номер по каталогу: 302 066 824 2-Аудиокодек: FLAC (*.flac)
Тип рипа: tracks+.cue
Битрейт аудио: lossless
Продолжительность: 01:03:19
Источник: lztr.us / thedivine1
Наличие сканов в содержимом раздачи: да

Треклист

1. Out of Bullets (01:08)
2. Shootout (03:41)
3. Leaving the appartment (02:08)
4. Dead hackers (01:31)
5. Traffic Jam (04:13)
6. It's a Fire sale (02:57)
7. The Break-In (02:28)
8. Farrell to D.C. (04:36)
9. Copter Chase (04:41)
10. Blackout (02:03)
11. Illegal Broadcast (03:48)
12. Hurry up! (01:23)
13. The Power plant (02:01)
14. Landing (02:28)
15. Cold Cuts (02:00)
16. Yippee Ki Yay (04:43)
17. Break a Neck (02:47)
18. Farrell is in (04:22)
19. The F-35 (04:13)
20. Aftermath (03:12)
21. Live free or Die Hard (02:56)

Лог создания рипа

Exact Audio Copy V0.99 prebeta 5 from 4. May 2009
EAC extraction logfile from 6. July 2009, 1:18
Marco Beltrami / Live Free or Die Hard
Used drive : TSSTcorpCDDVDW SE-S224Q Adapter: 3 ID: 0
Read mode : SecureUtilize accurate stream : YesDefeat audio cache : YesMake use of C2 pointers : No
Read offset correction : 6Overread into Lead-In and Lead-Out : NoFill up missing offset samples with silence : YesDelete leading and trailing silent blocks : NoNull samples used in CRC calculations : YesUsed interface : Native Win32 interface for Win NT & 2000Gap handling : Appended to previous track
Used output format : User Defined EncoderSelected bitrate : 128 kBit/sQuality : HighAdd ID3 tag : NoCommand line compressor : D:\Rips\Programme\Exact Audio Copy\Flac\flac.exeAdditional command line options : -8 -V -T "artist=%a" -T "title=%t" -T "album=%g" -T "date=%y" -T "tracknumber=%n" -T "genre=%m" %s
TOC of the extracted CD
Track | Start | Length | Start sector | End sector --------------------------------------------------------- 1 | 0:00.00 | 1:06.07 | 0 | 4956 2 | 1:06.07 | 3:40.70 | 4957 | 21526 3 | 4:47.02 | 2:08.58 | 21527 | 31184 4 | 6:55.60 | 1:31.24 | 31185 | 38033 5 | 8:27.09 | 4:12.68 | 38034 | 57001 6 | 12:40.02 | 2:56.73 | 57002 | 70274 7 | 15:37.00 | 2:27.52 | 70275 | 81351 8 | 18:04.52 | 4:35.49 | 81352 | 102025 9 | 22:40.26 | 4:41.21 | 102026 | 123121 10 | 27:21.47 | 2:03.11 | 123122 | 132357 11 | 29:24.58 | 3:47.62 | 132358 | 149444 12 | 33:12.45 | 1:22.60 | 149445 | 155654 13 | 34:35.30 | 2:01.24 | 155655 | 164753 14 | 36:36.54 | 2:27.52 | 164754 | 175830 15 | 39:04.31 | 1:59.72 | 175831 | 184827 16 | 41:04.28 | 4:42.48 | 184828 | 206025 17 | 45:47.01 | 2:47.28 | 206026 | 218578 18 | 48:34.29 | 4:22.22 | 218579 | 238250 19 | 52:56.51 | 4:12.61 | 238251 | 257211 20 | 57:09.37 | 3:12.18 | 257212 | 271629 21 | 60:21.55 | 2:56.15 | 271630 | 284844
Track 1
Filename D:\Rips\01 - Out Of Bullets.wav
Pre-gap length 0:00:02.00
Peak level 98.4 % Track quality 99.8 % Test CRC 845F50C9 Copy CRC 845F50C9 Copy OK
Track 2
Filename D:\Rips\02 - Shootout.wav
Peak level 97.4 % Track quality 100.0 % Test CRC 3CC6706B Copy CRC 3CC6706B Copy OK
Track 3
Filename D:\Rips\03 - Leaving The Apartment.wav
Peak level 98.2 % Track quality 100.0 % Test CRC DF78548E Copy CRC DF78548E Copy OK
Track 4
Filename D:\Rips\04 - Dead Hackers.wav
Peak level 98.0 % Track quality 99.8 % Test CRC 86E8621F Copy CRC 86E8621F Copy OK
Track 5
Filename D:\Rips\05 - Traffic Jam.wav
Peak level 98.3 % Track quality 100.0 % Test CRC 6E4C9C57 Copy CRC 6E4C9C57 Copy OK
Track 6
Filename D:\Rips\06 - It's A Fire Sale.wav
Peak level 97.9 % Track quality 99.9 % Test CRC C004BB1F Copy CRC C004BB1F Copy OK
Track 7
Filename D:\Rips\07 - The Break-in.wav
Peak level 98.0 % Track quality 100.0 % Test CRC 926A5871 Copy CRC 926A5871 Copy OK
Track 8
Filename D:\Rips\08 - Farrell To D.C..wav
Peak level 98.2 % Track quality 100.0 % Test CRC AD19102F Copy CRC AD19102F Copy OK
Track 9
Filename D:\Rips\09 - Copter Chase.wav
Peak level 98.3 % Track quality 99.9 % Test CRC DB61F735 Copy CRC DB61F735 Copy OK
Track 10
Filename D:\Rips\10 - Blackout.wav
Peak level 98.2 % Track quality 100.0 % Test CRC CD195D6C Copy CRC CD195D6C Copy OK
Track 11
Filename D:\Rips\11 - Illegal Broadcast.wav
Peak level 98.1 % Track quality 99.9 % Test CRC AB826FB6 Copy CRC AB826FB6 Copy OK
Track 12
Filename D:\Rips\12 - Hurry Up!.wav
Peak level 97.9 % Track quality 100.0 % Test CRC 5183E8B3 Copy CRC 5183E8B3 Copy OK
Track 13
Filename D:\Rips\13 - The Power Plant.wav
Peak level 97.8 % Track quality 100.0 % Test CRC 5EDDAEA7 Copy CRC 5EDDAEA7 Copy OK
Track 14
Filename D:\Rips\14 - Landing.wav
Peak level 98.1 % Track quality 100.0 % Test CRC CA3E0415 Copy CRC CA3E0415 Copy OK
Track 15
Filename D:\Rips\15 - Cold Cut's.wav
Peak level 97.9 % Track quality 100.0 % Test CRC 5C41B10F Copy CRC 5C41B10F Copy OK
Track 16
Filename D:\Rips\16 - Yippee Ki Yay.wav
Peak level 98.2 % Track quality 100.0 % Test CRC 2E52295C Copy CRC 2E52295C Copy OK
Track 17
Filename D:\Rips\17 - Break A Neck.wav
Peak level 97.9 % Track quality 99.9 % Test CRC 615461F3 Copy CRC 615461F3 Copy OK
Track 18
Filename D:\Rips\18 - Farrell Is In.wav
Peak level 98.1 % Track quality 100.0 % Test CRC FDA32985 Copy CRC FDA32985 Copy OK
Track 19
Filename D:\Rips\19 - The F-35.wav
Peak level 98.6 % Track quality 100.0 % Test CRC B978E50E Copy CRC B978E50E Copy OK
Track 20
Filename D:\Rips\20 - Aftermath.wav
Peak level 97.7 % Track quality 100.0 % Test CRC 823AC7F9 Copy CRC 823AC7F9 Copy OK
Track 21
Filename D:\Rips\21 - Live Free Or Die Hard.wav
Peak level 98.3 % Track quality 100.0 % Test CRC 1F102973 Copy CRC 1F102973 Copy OK
No errors occurred
End of status report

Содержание индексной карты (.CUE)

REM GENRE SoundtrackREM DATE 2007REM DISCID 4F0ED515REM COMMENT "ExactAudioCopy v0.99pb5"PERFORMER "Marco Beltrami"TITLE "Live Free or Die Hard"FILE "01 - Out Of Bullets.wav" WAVE TRACK 01 AUDIO TITLE "Out Of Bullets" PERFORMER "Marco Beltrami" INDEX 01 00:00:00FILE "02 - Shootout.wav" WAVE TRACK 02 AUDIO TITLE "Shootout" PERFORMER "Marco Beltrami" INDEX 01 00:00:00FILE "03 - Leaving The Apartment.wav" WAVE TRACK 03 AUDIO TITLE "Leaving The Apartment" PERFORMER "Marco Beltrami" INDEX 01 00:00:00FILE "04 - Dead Hackers.wav" WAVE TRACK 04 AUDIO TITLE "Dead Hackers" PERFORMER "Marco Beltrami" INDEX 01 00:00:00FILE "05 - Traffic Jam.wav" WAVE TRACK 05 AUDIO TITLE "Traffic Jam" PERFORMER "Marco Beltrami" INDEX 01 00:00:00FILE "06 - It's A Fire Sale.wav" WAVE TRACK 06 AUDIO TITLE "It's A Fire Sale" PERFORMER "Marco Beltrami" INDEX 01 00:00:00FILE "07 - The Break-in.wav" WAVE TRACK 07 AUDIO TITLE "The Break-in" PERFORMER "Marco Beltrami" INDEX 01 00:00:00FILE "08 - Farrell To D.C..wav" WAVE TRACK 08 AUDIO TITLE "Farrell To D.C." PERFORMER "Marco Beltrami" INDEX 01 00:00:00FILE "09 - Copter Chase.wav" WAVE TRACK 09 AUDIO TITLE "Copter Chase" PERFORMER "Marco Beltrami" INDEX 01 00:00:00FILE "10 - Blackout.wav" WAVE TRACK 10 AUDIO TITLE "Blackout" PERFORMER "Marco Beltrami" INDEX 01 00:00:00FILE "11 - Illegal Broadcast.wav" WAVE TRACK 11 AUDIO TITLE "Illegal Broadcast" PERFORMER "Marco Beltrami" INDEX 01 00:00:00FILE "12 - Hurry Up!.wav" WAVE TRACK 12 AUDIO TITLE "Hurry Up!" PERFORMER "Marco Beltrami" INDEX 01 00:00:00FILE "13 - The Power Plant.wav" WAVE TRACK 13 AUDIO TITLE "The Power Plant" PERFORMER "Marco Beltrami" INDEX 01 00:00:00FILE "14 - Landing.wav" WAVE TRACK 14 AUDIO TITLE "Landing" PERFORMER "Marco Beltrami" INDEX 01 00:00:00FILE "15 - Cold Cut's.wav" WAVE TRACK 15 AUDIO TITLE "Cold Cut's" PERFORMER "Marco Beltrami" INDEX 01 00:00:00FILE "16 - Yippee Ki Yay.wav" WAVE TRACK 16 AUDIO TITLE "Yippee Ki Yay" PERFORMER "Marco Beltrami" INDEX 01 00:00:00FILE "17 - Break A Neck.wav" WAVE TRACK 17 AUDIO TITLE "Break A Neck" PERFORMER "Marco Beltrami" INDEX 01 00:00:00FILE "18 - Farrell Is In.wav" WAVE TRACK 18 AUDIO TITLE "Farrell Is In" PERFORMER "Marco Beltrami" INDEX 01 00:00:00FILE "19 - The F-35.wav" WAVE TRACK 19 AUDIO TITLE "The F-35" PERFORMER "Marco Beltrami" INDEX 01 00:00:00FILE "20 - Aftermath.wav" WAVE TRACK 20 AUDIO TITLE "Aftermath" PERFORMER "Marco Beltrami" INDEX 01 00:00:00FILE "21 - Live Free Or Die Hard.wav" WAVE TRACK 21 AUDIO TITLE "Live Free Or Die Hard" PERFORMER "Marco Beltrami" INDEX 01 00:00:00
[teatrix.ru].t10273.torrent 
Торрент: Зарегистрирован [ 2015-11-01 20:51 ] · BE20C068214DFBF7D4006997170AE3484B6D09F6

Скачать .torrent

Скачать

15 KB

Статус: проверено
Скачан: 0 раз
Размер: 336 MB
terms.php



Быстрый ответ

Имя:

      
Для отправки сообщений необходимо включить JavaScript
Показать сообщения:    

Текущее время: 04-Дек 15:12

Часовой пояс: UTC + 3


Вы можете начинать темы
Вы можете отвечать на сообщения
Вы не можете редактировать свои сообщения
Вы не можете удалять свои сообщения
Вы не можете голосовать в опросах
Вы не можете прикреплять файлы к сообщениям
Вы можете скачивать файлы