(Score) Женщина в золотом / Woman in Gold (by Martin Phipps & Hans Zimmer) - 2015, FLAC (tracks+.cue), lossless


Статистика раздачи [Обновить пиров]
Размер:  252 MB   |    Зарегистрирован:  1 год 1 месяц   |    Скачан:  0 раз

Полного источника не было: Никогда

Личеров:  2  [  0 KB/s  ]   Подробная статистика пиров
 
   
 
 
 

[Цитировать]

Женщина в золотом / Woman in Gold-Жанр: Score
Композитор: Martin Phipps & Hans Zimmer
Год выпуска диска: 2015
Производитель диска: Sony DADC, Austria
Издатель (лейбл): Sony Classical
Номер по каталогу: 88875097882-Аудиокодек: FLAC (*.flac)
Тип рипа: tracks+.cue
Битрейт аудио: lossless
Продолжительность: 00:41:35
Источник: собственный рип
Наличие сканов в содержимом раздачи: да, 600 dpi-Ссылки: Кинопоиск | IMDB | Wikipedia | SoundtrackCollector

Треклист

01. O Mary Don't You Weep [0:03:18.53]
02. Hotel Jazz [0:01:13.04]
03. Deh, Vieni Alla Finestra (from Don Giovanni) [0:01:14.67]
04. Restless [0:02:12.25]
05. Maria Altman [0:03:12.16]
06. The Belvedere [0:02:42.63]
07. Vienna [0:01:18.14]
08. Randy Schoenberg [0:01:29.35]
09. Open The Door [0:02:11.62]
10. Apotheke [0:01:28.50]
11. Fleeing Vienna [0:04:17.72]
12. Flight 12 To Cologne [0:03:29.10]
13. First Hurdle Down [0:02:03.16]
14. Art Theft [0:02:45.47]
15. Statues [0:01:10.63]
16. Final Testimony [0:02:15.30]
17. The Language Of Our Future [0:03:20.57]
18. I Lived Here [0:01:49.66]

Лог создания рипа

Exact Audio Copy V1.1 from 23. June 2015
EAC extraction logfile from 9. October 2015, 12:43
Martin Phipps & Hans Zimmer / Woman in Gold
Used drive : PLEXTOR CD-R PX-230A Adapter: 1 ID: 2
Read mode : SecureUtilize accurate stream : YesDefeat audio cache : YesMake use of C2 pointers : No
Read offset correction : 738Overread into Lead-In and Lead-Out : NoFill up missing offset samples with silence : YesDelete leading and trailing silent blocks : NoNull samples used in CRC calculations : YesUsed interface : Native Win32 interface for Win NT & 2000Gap handling : Appended to previous track
Used output format : User Defined EncoderSelected bitrate : 1024 kBit/sQuality : HighAdd ID3 tag : NoCommand line compressor : C:\Program Files (x86)\Exact Audio Copy\FLAC\FLAC.EXEAdditional command line options : -6 -V -T "ARTIST=%artist%" -T "TITLE=%title%" -T "ALBUM=%albumtitle%" -T "DATE=%year%"-T "TRACKNUMBER=%tracknr%" -T "GENRE=%genre%" -T "COMMENT=%comment%" -T "ALBUMARTIST=%albuminterpret%" -T "COMPOSER=%composer%"-T "DISCNUMBER=%cdnumber%" -T "TOTALDISCS=%totalcds%" -T "TOTALTRACKS=%numtracks%" %source% -o %dest%
TOC of the extracted CD
Track | Start | Length | Start sector | End sector --------------------------------------------------------- 1 | 0:00.00 | 3:18.53 | 0 | 14902 2 | 3:18.53 | 1:13.04 | 14903 | 20381 3 | 4:31.57 | 1:14.67 | 20382 | 25998 4 | 5:46.49 | 2:12.25 | 25999 | 35923 5 | 7:58.74 | 3:12.16 | 35924 | 50339 6 | 11:11.15 | 2:42.63 | 50340 | 62552 7 | 13:54.03 | 1:18.14 | 62553 | 68416 8 | 15:12.17 | 1:29.35 | 68417 | 75126 9 | 16:41.52 | 2:11.62 | 75127 | 85013 10 | 18:53.39 | 1:28.50 | 85014 | 91663 11 | 20:22.14 | 4:17.72 | 91664 | 111010 12 | 24:40.11 | 3:29.10 | 111011 | 126695 13 | 28:09.21 | 2:03.16 | 126696 | 135936 14 | 30:12.37 | 2:45.47 | 135937 | 148358 15 | 32:58.09 | 1:10.63 | 148359 | 153671 16 | 34:08.72 | 2:15.30 | 153672 | 163826 17 | 36:24.27 | 3:20.57 | 163827 | 178883 18 | 39:45.09 | 1:49.66 | 178884 | 187124
Track 1
Filename C:\Music\01 - Martin Phipps & Hans Zimmer - O Mary Don't You Weep.wav
Pre-gap length 0:00:02.00
Peak level 92.6 % Extraction speed 4.7 X Track quality 100.0 % Test CRC 6AED6759 Copy CRC 6AED6759 Accurately ripped (confidence 1) [CCB1E97E] (AR v2) Copy OK
Track 2
Filename C:\Music\02 - Martin Phipps & Hans Zimmer - Hotel Jazz.wav
Pre-gap length 0:00:01.42
Peak level 48.4 % Extraction speed 3.0 X Track quality 99.8 % Test CRC B7E57B25 Copy CRC B7E57B25 Accurately ripped (confidence 1) [08B85B66] (AR v2) Copy OK
Track 3
Filename C:\Music\03 - Martin Phipps & Hans Zimmer - Deh, Vieni Alla Finestra (from Don Giovanni).wav
Pre-gap length 0:00:02.39
Peak level 32.7 % Extraction speed 4.1 X Track quality 100.0 % Test CRC D5A0CDA7 Copy CRC D5A0CDA7 Accurately ripped (confidence 1) [A945D711] (AR v2) Copy OK
Track 4
Filename C:\Music\04 - Martin Phipps & Hans Zimmer - Restless.wav
Pre-gap length 0:00:01.67
Peak level 89.8 % Extraction speed 3.6 X Track quality 100.0 % Test CRC B1476F4E Copy CRC B1476F4E Accurately ripped (confidence 1) [AF28203C] (AR v2) Copy OK
Track 5
Filename C:\Music\05 - Martin Phipps & Hans Zimmer - Maria Altman.wav
Pre-gap length 0:00:01.37
Peak level 99.0 % Extraction speed 3.4 X Track quality 99.9 % Test CRC B3AF093D Copy CRC B3AF093D Accurately ripped (confidence 1) [BD1282E7] (AR v2) Copy OK
Track 6
Filename C:\Music\06 - Martin Phipps & Hans Zimmer - The Belvedere.wav
Pre-gap length 0:00:02.02
Peak level 99.0 % Extraction speed 3.9 X Track quality 100.0 % Test CRC 31F5FCE3 Copy CRC 31F5FCE3 Accurately ripped (confidence 1) [8DE00ED4] (AR v2) Copy OK
Track 7
Filename C:\Music\07 - Martin Phipps & Hans Zimmer - Vienna.wav
Pre-gap length 0:00:02.02
Peak level 63.0 % Extraction speed 4.2 X Track quality 100.0 % Test CRC DB7226B3 Copy CRC DB7226B3 Accurately ripped (confidence 1) [5B13F493] (AR v2) Copy OK
Track 8
Filename C:\Music\08 - Martin Phipps & Hans Zimmer - Randy Schoenberg.wav
Pre-gap length 0:00:01.60
Peak level 87.2 % Extraction speed 3.2 X Track quality 100.0 % Test CRC 71A952DF Copy CRC 71A952DF Accurately ripped (confidence 1) [384E039B] (AR v2) Copy OK
Track 9
Filename C:\Music\09 - Martin Phipps & Hans Zimmer - Open The Door.wav
Pre-gap length 0:00:01.46
Peak level 98.5 % Extraction speed 3.9 X Track quality 99.9 % Test CRC 33B40B25 Copy CRC 33B40B25 Accurately ripped (confidence 1) [A843A5A7] (AR v2) Copy OK
Track 10
Filename C:\Music\10 - Martin Phipps & Hans Zimmer - Apotheke.wav
Pre-gap length 0:00:01.49
Peak level 22.0 % Extraction speed 4.1 X Track quality 100.0 % Test CRC F7AE198D Copy CRC F7AE198D Accurately ripped (confidence 1) [0B3E1559] (AR v2) Copy OK
Track 11
Filename C:\Music\11 - Martin Phipps & Hans Zimmer - Fleeing Vienna.wav
Pre-gap length 0:00:01.66
Peak level 96.8 % Extraction speed 4.3 X Track quality 99.9 % Test CRC 310C7A84 Copy CRC 310C7A84 Accurately ripped (confidence 1) [14514A26] (AR v2) Copy OK
Track 12
Filename C:\Music\12 - Martin Phipps & Hans Zimmer - Flight 12 To Cologne.wav
Pre-gap length 0:00:01.58
Peak level 96.6 % Extraction speed 4.5 X Track quality 99.9 % Test CRC 7FD57FF2 Copy CRC 7FD57FF2 Accurately ripped (confidence 1) [C0922BAD] (AR v2) Copy OK
Track 13
Filename C:\Music\13 - Martin Phipps & Hans Zimmer - First Hurdle Down.wav
Pre-gap length 0:00:02.23
Peak level 97.0 % Extraction speed 4.7 X Track quality 100.0 % Test CRC D769092F Copy CRC D769092F Accurately ripped (confidence 1) [BE670E5B] (AR v2) Copy OK
Track 14
Filename C:\Music\14 - Martin Phipps & Hans Zimmer - Art Theft.wav
Pre-gap length 0:00:01.51
Peak level 95.6 % Extraction speed 5.0 X Track quality 100.0 % Test CRC DA03E562 Copy CRC DA03E562 Accurately ripped (confidence 1) [0293D861] (AR v2) Copy OK
Track 15
Filename C:\Music\15 - Martin Phipps & Hans Zimmer - Statues.wav
Pre-gap length 0:00:01.72
Peak level 97.6 % Extraction speed 4.0 X Track quality 100.0 % Test CRC 74E0761B Copy CRC 74E0761B Accurately ripped (confidence 1) [BB6C29A6] (AR v2) Copy OK
Track 16
Filename C:\Music\16 - Martin Phipps & Hans Zimmer - Final Testimony.wav
Pre-gap length 0:00:02.19
Peak level 94.8 % Extraction speed 4.7 X Track quality 100.0 % Test CRC 592CA4CF Copy CRC 592CA4CF Accurately ripped (confidence 1) [22BAE65E] (AR v2) Copy OK
Track 17
Filename C:\Music\17 - Martin Phipps & Hans Zimmer - The Language Of Our Future.wav
Pre-gap length 0:00:01.60
Peak level 91.9 % Extraction speed 4.3 X Track quality 100.0 % Test CRC 65151ACD Copy CRC 65151ACD Accurately ripped (confidence 1) [E7FEE01A] (AR v2) Copy OK
Track 18
Filename C:\Music\18 - Martin Phipps & Hans Zimmer - I Lived Here.wav
Pre-gap length 0:00:01.69
Peak level 99.0 % Extraction speed 3.4 X Track quality 99.9 % Test CRC 6A0EEC9B Copy CRC 6A0EEC9B Accurately ripped (confidence 1) [8352C5C4] (AR v2) Copy OK
All tracks accurately ripped
No errors occurred
End of status report
---- CUETools DB Plugin V2.1.6
[CTDB TOCID: 7AQXmyVFHJzxDcJvTSsDFSvMZXE-] foundSubmit result: 7AQXmyVFHJzxDcJvTSsDFSvMZXE- has been confirmedTrack | CTDB Status 1 | (2/2) Accurately ripped 2 | (2/2) Accurately ripped 3 | (2/2) Accurately ripped 4 | (2/2) Accurately ripped 5 | (2/2) Accurately ripped 6 | (2/2) Accurately ripped 7 | (2/2) Accurately ripped 8 | (2/2) Accurately ripped 9 | (2/2) Accurately ripped 10 | (2/2) Accurately ripped 11 | (2/2) Accurately ripped 12 | (2/2) Accurately ripped 13 | (2/2) Accurately ripped 14 | (2/2) Accurately ripped 15 | (2/2) Accurately ripped 16 | (2/2) Accurately ripped 17 | (2/2) Accurately ripped 18 | (2/2) Accurately ripped
==== Log checksum 2CF7C7A71F6340B82E86179B72BE9A57C267FF7749E1650FB0535E12C9D462E2 ====

Содержание индексной карты (.CUE)

REM GENRE SoundtrackREM DATE 2015REM DISCID DD09BF12REM COMMENT "ExactAudioCopy v1.1"PERFORMER "Martin Phipps & Hans Zimmer"TITLE "Woman in Gold"FILE "01 - Martin Phipps & Hans Zimmer - O Mary Don't You Weep.wav" WAVE TRACK 01 AUDIO TITLE "O Mary Don't You Weep" PERFORMER "Martin Phipps & Hans Zimmer" INDEX 01 00:00:00 TRACK 02 AUDIO TITLE "Hotel Jazz" PERFORMER "Martin Phipps & Hans Zimmer" INDEX 00 03:17:11FILE "02 - Martin Phipps & Hans Zimmer - Hotel Jazz.wav" WAVE INDEX 01 00:00:00 TRACK 03 AUDIO TITLE "Deh, Vieni Alla Finestra (from Don Giovanni)" PERFORMER "Martin Phipps & Hans Zimmer" INDEX 00 01:10:40FILE "03 - Martin Phipps & Hans Zimmer - Deh, Vieni Alla Finestra (from Don Giovanni).wav" WAVE INDEX 01 00:00:00 TRACK 04 AUDIO TITLE "Restless" PERFORMER "Martin Phipps & Hans Zimmer" INDEX 00 01:13:00FILE "04 - Martin Phipps & Hans Zimmer - Restless.wav" WAVE INDEX 01 00:00:00 TRACK 05 AUDIO TITLE "Maria Altman" PERFORMER "Martin Phipps & Hans Zimmer" INDEX 00 02:10:63FILE "05 - Martin Phipps & Hans Zimmer - Maria Altman.wav" WAVE INDEX 01 00:00:00 TRACK 06 AUDIO TITLE "The Belvedere" PERFORMER "Martin Phipps & Hans Zimmer" INDEX 00 03:10:14FILE "06 - Martin Phipps & Hans Zimmer - The Belvedere.wav" WAVE INDEX 01 00:00:00 TRACK 07 AUDIO TITLE "Vienna" PERFORMER "Martin Phipps & Hans Zimmer" INDEX 00 02:40:61FILE "07 - Martin Phipps & Hans Zimmer - Vienna.wav" WAVE INDEX 01 00:00:00 TRACK 08 AUDIO TITLE "Randy Schoenberg" PERFORMER "Martin Phipps & Hans Zimmer" INDEX 00 01:16:29FILE "08 - Martin Phipps & Hans Zimmer - Randy Schoenberg.wav" WAVE INDEX 01 00:00:00 TRACK 09 AUDIO TITLE "Open The Door" PERFORMER "Martin Phipps & Hans Zimmer" INDEX 00 01:27:64FILE "09 - Martin Phipps & Hans Zimmer - Open The Door.wav" WAVE INDEX 01 00:00:00 TRACK 10 AUDIO TITLE "Apotheke" PERFORMER "Martin Phipps & Hans Zimmer" INDEX 00 02:10:13FILE "10 - Martin Phipps & Hans Zimmer - Apotheke.wav" WAVE INDEX 01 00:00:00 TRACK 11 AUDIO TITLE "Fleeing Vienna" PERFORMER "Martin Phipps & Hans Zimmer" INDEX 00 01:26:59FILE "11 - Martin Phipps & Hans Zimmer - Fleeing Vienna.wav" WAVE INDEX 01 00:00:00 TRACK 12 AUDIO TITLE "Flight 12 To Cologne" PERFORMER "Martin Phipps & Hans Zimmer" INDEX 00 04:16:14FILE "12 - Martin Phipps & Hans Zimmer - Flight 12 To Cologne.wav" WAVE INDEX 01 00:00:00 TRACK 13 AUDIO TITLE "First Hurdle Down" PERFORMER "Martin Phipps & Hans Zimmer" INDEX 00 03:26:62FILE "13 - Martin Phipps & Hans Zimmer - First Hurdle Down.wav" WAVE INDEX 01 00:00:00 TRACK 14 AUDIO TITLE "Art Theft" PERFORMER "Martin Phipps & Hans Zimmer" INDEX 00 02:01:40FILE "14 - Martin Phipps & Hans Zimmer - Art Theft.wav" WAVE INDEX 01 00:00:00 TRACK 15 AUDIO TITLE "Statues" PERFORMER "Martin Phipps & Hans Zimmer" INDEX 00 02:43:50FILE "15 - Martin Phipps & Hans Zimmer - Statues.wav" WAVE INDEX 01 00:00:00 TRACK 16 AUDIO TITLE "Final Testimony" PERFORMER "Martin Phipps & Hans Zimmer" INDEX 00 01:08:44FILE "16 - Martin Phipps & Hans Zimmer - Final Testimony.wav" WAVE INDEX 01 00:00:00 TRACK 17 AUDIO TITLE "The Language Of Our Future" PERFORMER "Martin Phipps & Hans Zimmer" INDEX 00 02:13:45FILE "17 - Martin Phipps & Hans Zimmer - The Language Of Our Future.wav" WAVE INDEX 01 00:00:00 TRACK 18 AUDIO TITLE "I Lived Here" PERFORMER "Martin Phipps & Hans Zimmer" INDEX 00 03:18:63FILE "18 - Martin Phipps & Hans Zimmer - I Lived Here.wav" WAVE INDEX 01 00:00:00
[teatrix.ru].t10275.torrent 
Торрент: Зарегистрирован [ 2015-11-01 20:51 ] · 78DA601E1E2BBDF7A2C9629B3A711D68DA089F9A

Скачать .torrent

Скачать

8 KB

Статус: проверено
Скачан: 0 раз
Размер: 252 MB
terms.php



Быстрый ответ

Имя:

      
Для отправки сообщений необходимо включить JavaScript
Показать сообщения:    

Текущее время: 10-Дек 17:48

Часовой пояс: UTC + 3


Вы можете начинать темы
Вы можете отвечать на сообщения
Вы не можете редактировать свои сообщения
Вы не можете удалять свои сообщения
Вы не можете голосовать в опросах
Вы не можете прикреплять файлы к сообщениям
Вы можете скачивать файлы