(Score) Эверест / Everest (by Dario Marianelli) - 2015, FLAC (tracks+.cue), lossless


Статистика раздачи [Обновить пиров]
Размер:  287 MB   |    Зарегистрирован:  1 год 1 месяц   |    Скачан:  2 раза

Полного источника не было: 1 месяц 17 дней

Личеров:  2  [  0 KB/s  ]   Подробная статистика пиров
 
   
 
 
 

[Цитировать]

Эверест / Everest-Жанр: Score
Композитор: Dario Marianelli
Год выпуска диска: 2015
Производитель диска: arvato, USA
Издатель (лейбл): Varèse Sarabande
Номер по каталогу: 302 067 368 8-Аудиокодек: FLAC (*.flac)
Тип рипа: tracks+.cue
Битрейт аудио: lossless
Продолжительность: 00:49:03
Источник: собственный рип
Наличие сканов в содержимом раздачи: да, 600 dpi-Ссылки: Кинопоиск | IMDB | Wikipedia | SoundtrackCollector

Треклист

01. The Call [0:03:11.40]
02. Setting Off from Kathmandu [0:01:16.44]
03. First Trek: Base Camp [0:02:30.51]
04. The Monks of Tharig Monastery / Arriving at the Temple [0:01:01.40]
05. The Lowdown [0:02:36.22]
06. A Close Shave [0:03:25.17]
07. Starting the Ascent [0:03:06.21]
08. To Camp Four [0:02:09.47]
09. Someone Loves Us [0:01:56.57]
10. Summit [0:04:57.32]
11. Time Runs Out [0:06:58.55]
12. Lost [0:02:23.62]
13. Last Words [0:02:58.23]
14. Beck Gets Up [0:02:55.55]
15. Chopper Rescue [0:02:20.66]
16. Epilogue [0:05:11.50]

Лог создания рипа

Exact Audio Copy V1.1 from 23. June 2015
EAC extraction logfile from 9. October 2015, 12:15
Dario Marianelli / Everest
Used drive : PLEXTOR CD-R PX-230A Adapter: 1 ID: 2
Read mode : SecureUtilize accurate stream : YesDefeat audio cache : YesMake use of C2 pointers : No
Read offset correction : 738Overread into Lead-In and Lead-Out : NoFill up missing offset samples with silence : YesDelete leading and trailing silent blocks : NoNull samples used in CRC calculations : YesUsed interface : Native Win32 interface for Win NT & 2000Gap handling : Appended to previous track
Used output format : User Defined EncoderSelected bitrate : 1024 kBit/sQuality : HighAdd ID3 tag : NoCommand line compressor : C:\Program Files (x86)\Exact Audio Copy\FLAC\FLAC.EXEAdditional command line options : -6 -V -T "ARTIST=%artist%" -T "TITLE=%title%" -T "ALBUM=%albumtitle%" -T "DATE=%year%"-T "TRACKNUMBER=%tracknr%" -T "GENRE=%genre%" -T "COMMENT=%comment%" -T "ALBUMARTIST=%albuminterpret%" -T "COMPOSER=%composer%"-T "DISCNUMBER=%cdnumber%" -T "TOTALDISCS=%totalcds%" -T "TOTALTRACKS=%numtracks%" %source% -o %dest%
TOC of the extracted CD
Track | Start | Length | Start sector | End sector --------------------------------------------------------- 1 | 0:00.00 | 3:11.40 | 0 | 14364 2 | 3:11.40 | 1:16.44 | 14365 | 20108 3 | 4:28.09 | 2:30.51 | 20109 | 31409 4 | 6:58.60 | 1:01.40 | 31410 | 36024 5 | 8:00.25 | 2:36.22 | 36025 | 47746 6 | 10:36.47 | 3:25.17 | 47747 | 63138 7 | 14:01.64 | 3:06.21 | 63139 | 77109 8 | 17:08.10 | 2:09.47 | 77110 | 86831 9 | 19:17.57 | 1:56.57 | 86832 | 95588 10 | 21:14.39 | 4:57.32 | 95589 | 117895 11 | 26:11.71 | 6:58.55 | 117896 | 149300 12 | 33:10.51 | 2:23.62 | 149301 | 160087 13 | 35:34.38 | 2:58.23 | 160088 | 173460 14 | 38:32.61 | 2:55.55 | 173461 | 186640 15 | 41:28.41 | 2:20.66 | 186641 | 197206 16 | 43:49.32 | 5:11.50 | 197207 | 220581
Track 1
Filename C:\Music\01 - Dario Marianelli - The Call.wav
Pre-gap length 0:00:02.00
Peak level 99.4 % Extraction speed 3.6 X Track quality 99.9 % Test CRC FA2A70C3 Copy CRC FA2A70C3 Track not present in AccurateRip database Copy OK
Track 2
Filename C:\Music\02 - Dario Marianelli - Setting Off from Kathmandu.wav
Peak level 99.4 % Extraction speed 4.1 X Track quality 100.0 % Test CRC E2D58E31 Copy CRC E2D58E31 Track not present in AccurateRip database Copy OK
Track 3
Filename C:\Music\03 - Dario Marianelli - First Trek- Base Camp.wav
Peak level 99.5 % Extraction speed 5.0 X Track quality 100.0 % Test CRC 892E516B Copy CRC 892E516B Track not present in AccurateRip database Copy OK
Track 4
Filename C:\Music\04 - The Monks of Tharig Monastery - Arriving at the Temple.wav
Peak level 89.1 % Extraction speed 3.9 X Track quality 100.0 % Test CRC 8D7F8411 Copy CRC 8D7F8411 Track not present in AccurateRip database Copy OK
Track 5
Filename C:\Music\05 - Dario Marianelli - The Lowdown.wav
Peak level 97.9 % Extraction speed 5.0 X Track quality 100.0 % Test CRC 0E8C5284 Copy CRC 0E8C5284 Track not present in AccurateRip database Copy OK
Track 6
Filename C:\Music\06 - Dario Marianelli - A Close Shave.wav
Peak level 99.5 % Extraction speed 5.3 X Track quality 100.0 % Test CRC 6D9DBF9A Copy CRC 6D9DBF9A Track not present in AccurateRip database Copy OK
Track 7
Filename C:\Music\07 - Dario Marianelli - Starting the Ascent.wav
Peak level 100.0 % Extraction speed 4.4 X Track quality 99.9 % Test CRC F9601869 Copy CRC F9601869 Track not present in AccurateRip database Copy OK
Track 8
Filename C:\Music\08 - Dario Marianelli - To Camp Four.wav
Peak level 99.2 % Extraction speed 4.7 X Track quality 100.0 % Test CRC 675A2046 Copy CRC 675A2046 Track not present in AccurateRip database Copy OK
Track 9
Filename C:\Music\09 - Dario Marianelli - Someone Loves Us.wav
Peak level 84.0 % Extraction speed 4.7 X Track quality 100.0 % Test CRC 1A3A7BA1 Copy CRC 1A3A7BA1 Track not present in AccurateRip database Copy OK
Track 10
Filename C:\Music\10 - Dario Marianelli - Summit.wav
Peak level 99.6 % Extraction speed 5.5 X Track quality 100.0 % Test CRC B813A7E3 Copy CRC B813A7E3 Track not present in AccurateRip database Copy OK
Track 11
Filename C:\Music\11 - Dario Marianelli - Time Runs Out.wav
Peak level 99.8 % Extraction speed 5.6 X Track quality 100.0 % Test CRC D4BF3871 Copy CRC D4BF3871 Track not present in AccurateRip database Copy OK
Track 12
Filename C:\Music\12 - Dario Marianelli - Lost.wav
Peak level 99.4 % Extraction speed 4.8 X Track quality 100.0 % Test CRC 49FD67C3 Copy CRC 49FD67C3 Track not present in AccurateRip database Copy OK
Track 13
Filename C:\Music\13 - Dario Marianelli - Last Words.wav
Peak level 64.4 % Extraction speed 3.9 X Track quality 99.9 % Test CRC 67E42DC4 Copy CRC 67E42DC4 Track not present in AccurateRip database Copy OK
Track 14
Filename C:\Music\14 - Dario Marianelli - Beck Gets Up.wav
Peak level 79.0 % Extraction speed 5.0 X Track quality 100.0 % Test CRC 7CE344E2 Copy CRC 7CE344E2 Track not present in AccurateRip database Copy OK
Track 15
Filename C:\Music\15 - Dario Marianelli - Chopper Rescue.wav
Peak level 97.0 % Extraction speed 4.8 X Track quality 100.0 % Test CRC B5715573 Copy CRC B5715573 Track not present in AccurateRip database Copy OK
Track 16
Filename C:\Music\16 - Dario Marianelli - Epilogue.wav
Peak level 53.7 % Extraction speed 3.5 X Track quality 100.0 % Test CRC BB619C1B Copy CRC BB619C1B Track not present in AccurateRip database Copy OK
None of the tracks are present in the AccurateRip database
No errors occurred
End of status report
---- CUETools DB Plugin V2.1.6
[CTDB TOCID: MEwIPnWHqveUjtFTEw86Lb4Xzts-] disk not present in databaseSubmit result: MEwIPnWHqveUjtFTEw86Lb4Xzts- has been uploaded
==== Log checksum E5C3BB65646CCAE3B988185CE98C9765D07B8C59E71E79B5F578367DD0D8AC58 ====

Содержание индексной карты (.CUE)

REM GENRE SoundtrackREM DATE 2015REM DISCID C60B7D10REM COMMENT "ExactAudioCopy v1.1"PERFORMER "Dario Marianelli"TITLE "Everest"FILE "01 - Dario Marianelli - The Call.wav" WAVE TRACK 01 AUDIO TITLE "The Call" PERFORMER "Dario Marianelli" INDEX 01 00:00:00FILE "02 - Dario Marianelli - Setting Off from Kathmandu.wav" WAVE TRACK 02 AUDIO TITLE "Setting Off from Kathmandu" PERFORMER "Dario Marianelli" INDEX 01 00:00:00FILE "03 - Dario Marianelli - First Trek- Base Camp.wav" WAVE TRACK 03 AUDIO TITLE "First Trek: Base Camp" PERFORMER "Dario Marianelli" INDEX 01 00:00:00FILE "04 - The Monks of Tharig Monastery - Arriving at the Temple.wav" WAVE TRACK 04 AUDIO TITLE "Arriving at the Temple" PERFORMER "The Monks of Tharig Monastery" INDEX 01 00:00:00FILE "05 - Dario Marianelli - The Lowdown.wav" WAVE TRACK 05 AUDIO TITLE "The Lowdown" PERFORMER "Dario Marianelli" INDEX 01 00:00:00FILE "06 - Dario Marianelli - A Close Shave.wav" WAVE TRACK 06 AUDIO TITLE "A Close Shave" PERFORMER "Dario Marianelli" INDEX 01 00:00:00FILE "07 - Dario Marianelli - Starting the Ascent.wav" WAVE TRACK 07 AUDIO TITLE "Starting the Ascent" PERFORMER "Dario Marianelli" INDEX 01 00:00:00FILE "08 - Dario Marianelli - To Camp Four.wav" WAVE TRACK 08 AUDIO TITLE "To Camp Four" PERFORMER "Dario Marianelli" INDEX 01 00:00:00FILE "09 - Dario Marianelli - Someone Loves Us.wav" WAVE TRACK 09 AUDIO TITLE "Someone Loves Us" PERFORMER "Dario Marianelli" INDEX 01 00:00:00FILE "10 - Dario Marianelli - Summit.wav" WAVE TRACK 10 AUDIO TITLE "Summit" PERFORMER "Dario Marianelli" INDEX 01 00:00:00FILE "11 - Dario Marianelli - Time Runs Out.wav" WAVE TRACK 11 AUDIO TITLE "Time Runs Out" PERFORMER "Dario Marianelli" INDEX 01 00:00:00FILE "12 - Dario Marianelli - Lost.wav" WAVE TRACK 12 AUDIO TITLE "Lost" PERFORMER "Dario Marianelli" INDEX 01 00:00:00FILE "13 - Dario Marianelli - Last Words.wav" WAVE TRACK 13 AUDIO TITLE "Last Words" PERFORMER "Dario Marianelli" INDEX 01 00:00:00FILE "14 - Dario Marianelli - Beck Gets Up.wav" WAVE TRACK 14 AUDIO TITLE "Beck Gets Up" PERFORMER "Dario Marianelli" INDEX 01 00:00:00FILE "15 - Dario Marianelli - Chopper Rescue.wav" WAVE TRACK 15 AUDIO TITLE "Chopper Rescue" PERFORMER "Dario Marianelli" INDEX 01 00:00:00FILE "16 - Dario Marianelli - Epilogue.wav" WAVE TRACK 16 AUDIO TITLE "Epilogue" PERFORMER "Dario Marianelli" INDEX 01 00:00:00
[teatrix.ru].t10276.torrent 
Торрент: Зарегистрирован [ 2015-11-01 20:51 ] · 5658E85BA62661FAE5E91A2A4481A8CBFB9F60C6

Скачать .torrent

Скачать

24 KB

Статус: проверено
Скачан: 2 раз
Размер: 287 MB
terms.php



Быстрый ответ

Имя:

      
Для отправки сообщений необходимо включить JavaScript
Показать сообщения:    

Текущее время: 08-Дек 21:05

Часовой пояс: UTC + 3


Вы можете начинать темы
Вы можете отвечать на сообщения
Вы не можете редактировать свои сообщения
Вы не можете удалять свои сообщения
Вы не можете голосовать в опросах
Вы не можете прикреплять файлы к сообщениям
Вы можете скачивать файлы