(Score) Прогулка / The Walk (by Alan Silvestri) - 2015, FLAC (tracks+.cue), lossless


Статистика раздачи [Обновить пиров]
Размер:  357 MB   |    Зарегистрирован:  1 год 1 месяц   |    Скачан:  0 раз

Полного источника не было: Никогда

Личеров:  3  [  0 KB/s  ]   Подробная статистика пиров
 
   
 
 
 

[Цитировать]

Прогулка / The Walk-Жанр: Score
Композитор: Alan Silvestri
Год выпуска диска: 2015
Производитель диска: Sony DADC, USA
Издатель (лейбл): Sony Classical
Номер по каталогу: 88875122672-Аудиокодек: FLAC (*.flac)
Тип рипа: tracks+.cue
Битрейт аудио: lossless
Продолжительность: 00:56:45
Источник: собственный рип
Наличие сканов в содержимом раздачи: да, 600 dpi-Ссылки: Кинопоиск | IMDB | Wikipedia | SoundtrackCollector

Треклист

01. Pourquoi? [0:03:32.37]
02. Young Philippe [0:02:12.38]
03. Two Loves [0:03:21.10]
04. The Towers of Notre Dame [0:01:50.74]
05. It's Something Beautiful [0:02:58.20]
06. Spy Work [0:01:37.37]
07. Full of Doubt [0:02:31.74]
08. Time Passes [0:04:03.01]
09. The Arrow [0:03:17.15]
10. We Have A Problem [0:05:17.68]
11. The Walk [0:06:25.20]
12. I Feel Thankful [0:07:21.23]
13. They Want to Kill You [0:03:57.70]
14. There Is No Why [0:03:57.54]
15. Perhaps You Brought Them to Life - Given Them A Soul [0:04:20.67]

Лог создания рипа

Exact Audio Copy V1.1 from 23. June 2015
EAC extraction logfile from 9. October 2015, 11:48
Alan Silvestri / The Walk
Used drive : PLEXTOR CD-R PX-230A Adapter: 1 ID: 2
Read mode : SecureUtilize accurate stream : YesDefeat audio cache : YesMake use of C2 pointers : No
Read offset correction : 738Overread into Lead-In and Lead-Out : NoFill up missing offset samples with silence : YesDelete leading and trailing silent blocks : NoNull samples used in CRC calculations : YesUsed interface : Native Win32 interface for Win NT & 2000Gap handling : Appended to previous track
Used output format : User Defined EncoderSelected bitrate : 1024 kBit/sQuality : HighAdd ID3 tag : NoCommand line compressor : C:\Program Files (x86)\Exact Audio Copy\FLAC\FLAC.EXEAdditional command line options : -6 -V -T "ARTIST=%artist%" -T "TITLE=%title%" -T "ALBUM=%albumtitle%" -T "DATE=%year%"-T "TRACKNUMBER=%tracknr%" -T "GENRE=%genre%" -T "COMMENT=%comment%" -T "ALBUMARTIST=%albuminterpret%" -T "COMPOSER=%composer%"-T "DISCNUMBER=%cdnumber%" -T "TOTALDISCS=%totalcds%" -T "TOTALTRACKS=%numtracks%" %source% -o %dest%
TOC of the extracted CD
Track | Start | Length | Start sector | End sector --------------------------------------------------------- 1 | 0:00.00 | 3:32.37 | 0 | 15936 2 | 3:32.37 | 2:12.38 | 15937 | 25874 3 | 5:45.00 | 3:21.10 | 25875 | 40959 4 | 9:06.10 | 1:50.74 | 40960 | 49283 5 | 10:57.09 | 2:58.20 | 49284 | 62653 6 | 13:55.29 | 1:37.37 | 62654 | 69965 7 | 15:32.66 | 2:31.74 | 69966 | 81364 8 | 18:04.65 | 4:03.01 | 81365 | 99590 9 | 22:07.66 | 3:17.15 | 99591 | 114380 10 | 25:25.06 | 5:17.68 | 114381 | 138223 11 | 30:42.74 | 6:25.20 | 138224 | 167118 12 | 37:08.19 | 7:21.23 | 167119 | 200216 13 | 44:29.42 | 3:57.70 | 200217 | 218061 14 | 48:27.37 | 3:57.54 | 218062 | 235890 15 | 52:25.16 | 4:20.67 | 235891 | 255457
Track 1
Filename C:\Music\01 - Alan Silvestri - Pourquoi.wav
Pre-gap length 0:00:02.00
Peak level 94.3 % Extraction speed 4.2 X Track quality 99.9 % Test CRC 8B2C5B3E Copy CRC 8B2C5B3E Track not present in AccurateRip database Copy OK
Track 2
Filename C:\Music\02 - Alan Silvestri - Young Philippe.wav
Pre-gap length 0:00:01.20
Peak level 91.2 % Extraction speed 4.7 X Track quality 100.0 % Test CRC C9DBF69F Copy CRC C9DBF69F Track not present in AccurateRip database Copy OK
Track 3
Filename C:\Music\03 - Alan Silvestri - Two Loves.wav
Pre-gap length 0:00:01.32
Peak level 34.8 % Extraction speed 3.5 X Track quality 100.0 % Test CRC 711F66BB Copy CRC 711F66BB Track not present in AccurateRip database Copy OK
Track 4
Filename C:\Music\04 - Alan Silvestri - The Towers of Notre Dame.wav
Pre-gap length 0:00:01.22
Peak level 95.0 % Extraction speed 4.6 X Track quality 100.0 % Test CRC 0929D24A Copy CRC 0929D24A Track not present in AccurateRip database Copy OK
Track 5
Filename C:\Music\05 - Alan Silvestri - It's Something Beautiful.wav
Pre-gap length 0:00:01.35
Peak level 94.3 % Extraction speed 4.4 X Track quality 99.9 % Test CRC B689A293 Copy CRC B689A293 Track not present in AccurateRip database Copy OK
Track 6
Filename C:\Music\06 - Alan Silvestri - Spy Work.wav
Pre-gap length 0:00:01.08
Peak level 94.0 % Extraction speed 4.5 X Track quality 100.0 % Test CRC 6625064E Copy CRC 6625064E Track not present in AccurateRip database Copy OK
Track 7
Filename C:\Music\07 - Alan Silvestri - Full of Doubt.wav
Pre-gap length 0:00:01.22
Peak level 94.4 % Extraction speed 5.0 X Track quality 100.0 % Test CRC A458690C Copy CRC A458690C Track not present in AccurateRip database Copy OK
Track 8
Filename C:\Music\08 - Alan Silvestri - Time Passes.wav
Pre-gap length 0:00:01.09
Peak level 94.4 % Extraction speed 4.7 X Track quality 99.9 % Test CRC 7FCF3914 Copy CRC 7FCF3914 Track not present in AccurateRip database Copy OK
Track 9
Filename C:\Music\09 - Alan Silvestri - The Arrow.wav
Pre-gap length 0:00:01.11
Peak level 95.8 % Extraction speed 4.0 X Track quality 99.9 % Test CRC F7461681 Copy CRC F7461681 Track not present in AccurateRip database Copy OK
Track 10
Filename C:\Music\10 - Alan Silvestri - We Have A Problem.wav
Pre-gap length 0:00:01.08
Peak level 94.5 % Extraction speed 5.4 X Track quality 100.0 % Test CRC F66906F0 Copy CRC F66906F0 Track not present in AccurateRip database Copy OK
Track 11
Filename C:\Music\11 - Alan Silvestri - The Walk.wav
Pre-gap length 0:00:01.14
Peak level 94.3 % Extraction speed 5.6 X Track quality 100.0 % Test CRC 8F948E69 Copy CRC 8F948E69 Track not present in AccurateRip database Copy OK
Track 12
Filename C:\Music\12 - Alan Silvestri - I Feel Thankful.wav
Pre-gap length 0:00:01.19
Peak level 97.5 % Extraction speed 5.7 X Track quality 100.0 % Test CRC 208620AF Copy CRC 208620AF Track not present in AccurateRip database Copy OK
Track 13
Filename C:\Music\13 - Alan Silvestri - They Want to Kill You.wav
Pre-gap length 0:00:01.14
Peak level 94.4 % Extraction speed 5.3 X Track quality 100.0 % Test CRC FF3C6516 Copy CRC FF3C6516 Track not present in AccurateRip database Copy OK
Track 14
Filename C:\Music\14 - Alan Silvestri - There Is No Why.wav
Pre-gap length 0:00:01.11
Peak level 94.4 % Extraction speed 4.6 X Track quality 99.9 % Test CRC 4826259B Copy CRC 4826259B Track not present in AccurateRip database Copy OK
Track 15
Filename C:\Music\15 - Alan Silvestri - Perhaps You Brought Them to Life - Given Them A Soul.wav
Pre-gap length 0:00:01.37
Peak level 94.4 % Extraction speed 5.2 X Track quality 100.0 % Test CRC 75EC69EB Copy CRC 75EC69EB Track not present in AccurateRip database Copy OK
None of the tracks are present in the AccurateRip database
No errors occurred
End of status report
---- CUETools DB Plugin V2.1.6
[CTDB TOCID: yMju.44n7Geh_oOrP8n4UhSR9F8-] foundSubmit result: yMju.44n7Geh_oOrP8n4UhSR9F8- has been confirmedTrack | CTDB Status 1 | (1/1) Accurately ripped 2 | (1/1) Accurately ripped 3 | (1/1) Accurately ripped 4 | (1/1) Accurately ripped 5 | (1/1) Accurately ripped 6 | (1/1) Accurately ripped 7 | (1/1) Accurately ripped 8 | (1/1) Accurately ripped 9 | (1/1) Accurately ripped 10 | (1/1) Accurately ripped 11 | (1/1) Accurately ripped 12 | (1/1) Accurately ripped 13 | (1/1) Accurately ripped 14 | (1/1) Accurately ripped 15 | (1/1) Accurately ripped
==== Log checksum CB225EF92069B9279D8EFB643736E42232AB3232F95C54C5D8B067BC730DB565 ====

Содержание индексной карты (.CUE)

REM GENRE SoundtrackREM DATE 2015REM DISCID D60D4E0FREM COMMENT "ExactAudioCopy v1.1"PERFORMER "Alan Silvestri"TITLE "The Walk"FILE "01 - Alan Silvestri - Pourquoi.wav" WAVE TRACK 01 AUDIO TITLE "Pourquoi?" PERFORMER "Alan Silvestri" INDEX 01 00:00:00 TRACK 02 AUDIO TITLE "Young Philippe" PERFORMER "Alan Silvestri" INDEX 00 03:31:17FILE "02 - Alan Silvestri - Young Philippe.wav" WAVE INDEX 01 00:00:00 TRACK 03 AUDIO TITLE "Two Loves" PERFORMER "Alan Silvestri" INDEX 00 02:11:06FILE "03 - Alan Silvestri - Two Loves.wav" WAVE INDEX 01 00:00:00 TRACK 04 AUDIO TITLE "The Towers of Notre Dame" PERFORMER "Alan Silvestri" INDEX 00 03:19:63FILE "04 - Alan Silvestri - The Towers of Notre Dame.wav" WAVE INDEX 01 00:00:00 TRACK 05 AUDIO TITLE "It's Something Beautiful" PERFORMER "Alan Silvestri" INDEX 00 01:49:39FILE "05 - Alan Silvestri - It's Something Beautiful.wav" WAVE INDEX 01 00:00:00 TRACK 06 AUDIO TITLE "Spy Work" PERFORMER "Alan Silvestri" INDEX 00 02:57:12FILE "06 - Alan Silvestri - Spy Work.wav" WAVE INDEX 01 00:00:00 TRACK 07 AUDIO TITLE "Full of Doubt" PERFORMER "Alan Silvestri" INDEX 00 01:36:15FILE "07 - Alan Silvestri - Full of Doubt.wav" WAVE INDEX 01 00:00:00 TRACK 08 AUDIO TITLE "Time Passes" PERFORMER "Alan Silvestri" INDEX 00 02:30:65FILE "08 - Alan Silvestri - Time Passes.wav" WAVE INDEX 01 00:00:00 TRACK 09 AUDIO TITLE "The Arrow" PERFORMER "Alan Silvestri" INDEX 00 04:01:65FILE "09 - Alan Silvestri - The Arrow.wav" WAVE INDEX 01 00:00:00 TRACK 10 AUDIO TITLE "We Have A Problem" PERFORMER "Alan Silvestri" INDEX 00 03:16:07FILE "10 - Alan Silvestri - We Have A Problem.wav" WAVE INDEX 01 00:00:00 TRACK 11 AUDIO TITLE "The Walk" PERFORMER "Alan Silvestri" INDEX 00 05:16:54FILE "11 - Alan Silvestri - The Walk.wav" WAVE INDEX 01 00:00:00 TRACK 12 AUDIO TITLE "I Feel Thankful" PERFORMER "Alan Silvestri" INDEX 00 06:24:01FILE "12 - Alan Silvestri - I Feel Thankful.wav" WAVE INDEX 01 00:00:00 TRACK 13 AUDIO TITLE "They Want to Kill You" PERFORMER "Alan Silvestri" INDEX 00 07:20:09FILE "13 - Alan Silvestri - They Want to Kill You.wav" WAVE INDEX 01 00:00:00 TRACK 14 AUDIO TITLE "There Is No Why" PERFORMER "Alan Silvestri" INDEX 00 03:56:59FILE "14 - Alan Silvestri - There Is No Why.wav" WAVE INDEX 01 00:00:00 TRACK 15 AUDIO TITLE "Perhaps You Brought Them to Life - Given Them A Soul" PERFORMER "Alan Silvestri" INDEX 00 03:56:17FILE "15 - Alan Silvestri - Perhaps You Brought Them to Life - Given Them A Soul.wav" WAVE INDEX 01 00:00:00
[teatrix.ru].t10277.torrent 
Торрент: Зарегистрирован [ 2015-11-01 20:51 ] · F840EDBF6F62607AD70299C6573B847E7EB11063

Скачать .torrent

Скачать

30 KB

Статус: проверено
Скачан: 0 раз
Размер: 357 MB
terms.php



Быстрый ответ

Имя:

      
Для отправки сообщений необходимо включить JavaScript
Показать сообщения:    

Текущее время: 04-Дек 00:53

Часовой пояс: UTC + 3


Вы можете начинать темы
Вы можете отвечать на сообщения
Вы не можете редактировать свои сообщения
Вы не можете удалять свои сообщения
Вы не можете голосовать в опросах
Вы не можете прикреплять файлы к сообщениям
Вы можете скачивать файлы