(Score) Солярис / Solaris (by Cliff Martinez) - 2011 (2002), FLAC (tracks+.cue), lossless


Статистика раздачи [Обновить пиров]
Размер:  202 MB   |    Зарегистрирован:  1 год 1 месяц   |    Скачан:  1 раз

Полного источника не было: 1 год

Личеров:  3  [  0 KB/s  ]   Подробная статистика пиров
 
   
 
 
 

[Цитировать]

Солярис / Solaris (Remastered)-Жанр: Score
Композитор: Cliff Martinez
Год выпуска диска: 2011
Год выпуска фильма: 2002
Производитель диска: USA
Издатель (лейбл): La-La Land Records
Номер по каталогу: LLLCD 1161-Аудиокодек: FLAC (*.flac)
Тип рипа: tracks+.cue
Битрейт аудио: lossless
Продолжительность: 00:43:35
Источник: what.cd / neuroin
Наличие сканов в содержимом раздачи: да

Треклист

1. Is That What Everybody Wants (2:49)
2. First Sleep (2:53)
3. Can I Sit Next to You (1:45)
4. Will She Come Back (5:01)
5. Death Shall Have No Dominion (2:10)
6. Maybe You're My Puppet (3:50)
7. Don't Blow It (3:34)
8. Hi Energy Proton Accelerator (10:51)
9. Wear Your Seat Belt (3:10)
10. Wormhole (4:33)
11. We Don't Have to Think Like That Anymore (2:59)

Лог создания рипа

Exact Audio Copy V1.0 beta 3 from 29. August 2011
EAC extraction logfile from 28. March 2012, 10:04
Cliff Martinez / Solaris
Used drive : HL-DT-STDVD-RAM GH22LP21 Adapter: 0 ID: 0
Read mode : SecureUtilize accurate stream : YesDefeat audio cache : YesMake use of C2 pointers : No
Read offset correction : 102Overread into Lead-In and Lead-Out : NoFill up missing offset samples with silence : YesDelete leading and trailing silent blocks : NoNull samples used in CRC calculations : YesUsed interface : Native Win32 interface for Win NT & 2000Gap handling : Appended to previous track
Used output format : User Defined EncoderSelected bitrate : 128 kBit/sQuality : HighAdd ID3 tag : NoCommand line compressor : C:\Program Files\Exact Audio Copy\Flac\flac.exeAdditional command line options : -8 -V -T "ARTIST=%artist%" -T "TITLE=%title%" -T "ALBUM=%albumtitle%" -T "DATE=%year%" -T "TRACKNUMBER=%tracknr%"-T "GENRE=%genre%" -T "PERFORMER=%albuminterpret%" -T "COMPOSER=%composer%" %haslyrics%--tag-from-file=LYRICS="%lyricsfile%"%haslyrics% -T "ALBUMARTIST=%albumartist%"-T "ALBUM ARTIST=%albumartist%" -T "DISCNUMBER=%cdnumber%" -T "TOTALDISCS=%totalcds%" -T "TOTALTRACKS=%numtracks%" -T "COMMENT=%comment%" %source% -o %dest%
TOC of the extracted CD
Track | Start | Length | Start sector | End sector --------------------------------------------------------- 1 | 0:00.00 | 2:48.46 | 0 | 12645 2 | 2:48.46 | 2:52.46 | 12646 | 25591 3 | 5:41.17 | 1:44.54 | 25592 | 33445 4 | 7:25.71 | 5:00.51 | 33446 | 55996 5 | 12:26.47 | 2:09.56 | 55997 | 65727 6 | 14:36.28 | 3:50.21 | 65728 | 82998 7 | 18:26.49 | 3:34.01 | 82999 | 99049 8 | 22:00.50 | 10:51.06 | 99050 | 147880 9 | 32:51.56 | 3:10.06 | 147881 | 162136 10 | 36:01.62 | 4:33.01 | 162137 | 182612 11 | 40:34.63 | 2:59.28 | 182613 | 196065
Track 1
Filename C:\Music04_moviez\S\Solaris (2002, '11 La-La Land, FLAC) - Cliff Martinez\01 - Is That What Everybody Wants.wav
Pre-gap length 0:00:02.00
Peak level 95.5 % Extraction speed 1.3 X Track quality 99.9 % Test CRC C2C8CB52 Copy CRC C2C8CB52 Accurately ripped (confidence 4) [4F94D26C] (AR v2) Copy OK
Track 2
Filename C:\Music04_moviez\S\Solaris (2002, '11 La-La Land, FLAC) - Cliff Martinez\02 - First Sleep.wav
Peak level 95.5 % Extraction speed 1.4 X Track quality 99.9 % Test CRC F03B0B52 Copy CRC F03B0B52 Accurately ripped (confidence 4) [DC0F9EFB] (AR v2) Copy OK
Track 3
Filename C:\Music04_moviez\S\Solaris (2002, '11 La-La Land, FLAC) - Cliff Martinez\03 - Can I Sit Next to You.wav
Peak level 95.5 % Extraction speed 1.6 X Track quality 100.0 % Test CRC 3F13539C Copy CRC 3F13539C Accurately ripped (confidence 4) [6F6BE7CF] (AR v2) Copy OK
Track 4
Filename C:\Music04_moviez\S\Solaris (2002, '11 La-La Land, FLAC) - Cliff Martinez\04 - Will She Come Back.wav
Peak level 95.5 % Extraction speed 2.0 X Track quality 100.0 % Test CRC 5B40BDA6 Copy CRC 5B40BDA6 Accurately ripped (confidence 4) [F82FC855] (AR v2) Copy OK
Track 5
Filename C:\Music04_moviez\S\Solaris (2002, '11 La-La Land, FLAC) - Cliff Martinez\05 - Death Shall Have No Dominion.wav
Peak level 95.5 % Extraction speed 1.9 X Track quality 100.0 % Test CRC CFE8393D Copy CRC CFE8393D Accurately ripped (confidence 4) [C3CDF1D2] (AR v2) Copy OK
Track 6
Filename C:\Music04_moviez\S\Solaris (2002, '11 La-La Land, FLAC) - Cliff Martinez\06 - Maybe You're My Puppet.wav
Peak level 95.5 % Extraction speed 2.2 X Track quality 100.0 % Test CRC F5807AE5 Copy CRC F5807AE5 Accurately ripped (confidence 4) [903D7DE0] (AR v2) Copy OK
Track 7
Filename C:\Music04_moviez\S\Solaris (2002, '11 La-La Land, FLAC) - Cliff Martinez\07 - Don't Blow It.wav
Peak level 95.5 % Extraction speed 2.3 X Track quality 100.0 % Test CRC 69DF9A96 Copy CRC 69DF9A96 Accurately ripped (confidence 4) [6DCACAA0] (AR v2) Copy OK
Track 8
Filename C:\Music04_moviez\S\Solaris (2002, '11 La-La Land, FLAC) - Cliff Martinez\08 - Hi Energy Proton Accelerator.wav
Peak level 65.2 % Extraction speed 2.6 X Track quality 99.9 % Test CRC 4BBF7EAB Copy CRC 4BBF7EAB Accurately ripped (confidence 4) [D85DAEA7] (AR v2) Copy OK
Track 9
Filename C:\Music04_moviez\S\Solaris (2002, '11 La-La Land, FLAC) - Cliff Martinez\09 - Wear Your Seat Belt.wav
Peak level 95.5 % Extraction speed 2.6 X Track quality 100.0 % Test CRC E53FB282 Copy CRC E53FB282 Accurately ripped (confidence 4) [2B8895DB] (AR v2) Copy OK
Track 10
Filename C:\Music04_moviez\S\Solaris (2002, '11 La-La Land, FLAC) - Cliff Martinez\10 - Wormhole.wav
Peak level 95.5 % Extraction speed 2.8 X Track quality 100.0 % Test CRC 54100DFC Copy CRC 54100DFC Accurately ripped (confidence 4) [602AA6F0] (AR v2) Copy OK
Track 11
Filename C:\Music04_moviez\S\Solaris (2002, '11 La-La Land, FLAC) - Cliff Martinez\11 - We Don't Have to Think Like That Anymore.wav
Peak level 95.5 % Extraction speed 2.8 X Track quality 100.0 % Test CRC 45B8B8E1 Copy CRC 45B8B8E1 Accurately ripped (confidence 4) [54E1C05F] (AR v2) Copy OK
All tracks accurately ripped
No errors occurred
End of status report
---- CUETools DB Plugin V2.1.3
[CTDB TOCID: qRpbMri5ADNrc_ZViMSNq08tGfY-] found, Submit result: qRpbMri5ADNrc_ZViMSNq08tGfY- has been confirmed[30c92a99] (4/4) Accurately ripped
==== Log checksum A057EFA9E67C632ABB0808D2675B5F15A1EB491C8D20B30289ECFDF0A8402131 ====

Содержание индексной карты (.CUE)

REM GENRE SoundtrackREM DATE 2002REM DISCID 8E0A360BREM COMMENT "ExactAudioCopy v1.0b3"PERFORMER "Cliff Martinez"TITLE "Solaris"FILE "01 - Is That What Everybody Wants.wav" WAVE TRACK 01 AUDIO TITLE "Is That What Everybody Wants" PERFORMER "Cliff Martinez" INDEX 01 00:00:00FILE "02 - First Sleep.wav" WAVE TRACK 02 AUDIO TITLE "First Sleep" PERFORMER "Cliff Martinez" INDEX 01 00:00:00FILE "03 - Can I Sit Next to You.wav" WAVE TRACK 03 AUDIO TITLE "Can I Sit Next to You" PERFORMER "Cliff Martinez" INDEX 01 00:00:00FILE "04 - Will She Come Back.wav" WAVE TRACK 04 AUDIO TITLE "Will She Come Back" PERFORMER "Cliff Martinez" INDEX 01 00:00:00FILE "05 - Death Shall Have No Dominion.wav" WAVE TRACK 05 AUDIO TITLE "Death Shall Have No Dominion" PERFORMER "Cliff Martinez" INDEX 01 00:00:00FILE "06 - Maybe You're My Puppet.wav" WAVE TRACK 06 AUDIO TITLE "Maybe You're My Puppet" PERFORMER "Cliff Martinez" INDEX 01 00:00:00FILE "07 - Don't Blow It.wav" WAVE TRACK 07 AUDIO TITLE "Don't Blow It" PERFORMER "Cliff Martinez" INDEX 01 00:00:00FILE "08 - Hi Energy Proton Accelerator.wav" WAVE TRACK 08 AUDIO TITLE "Hi Energy Proton Accelerator" PERFORMER "Cliff Martinez" INDEX 01 00:00:00FILE "09 - Wear Your Seat Belt.wav" WAVE TRACK 09 AUDIO TITLE "Wear Your Seat Belt" PERFORMER "Cliff Martinez" INDEX 01 00:00:00FILE "10 - Wormhole.wav" WAVE TRACK 10 AUDIO TITLE "Wormhole" PERFORMER "Cliff Martinez" INDEX 01 00:00:00FILE "11 - We Don't Have to Think Like That Anymore.wav" WAVE TRACK 11 AUDIO TITLE "We Don't Have to Think Like That Anymore" PERFORMER "Cliff Martinez" INDEX 01 00:00:00
[teatrix.ru].t10278.torrent 
Торрент: Зарегистрирован [ 2015-11-01 20:51 ] · 27383C1FDAD58BFEFB7041FF59009B24C4058D03

Скачать .torrent

Скачать

18 KB

Статус: проверено
Скачан: 1 раз
Размер: 202 MB
terms.php



Быстрый ответ

Имя:

      
Для отправки сообщений необходимо включить JavaScript
Показать сообщения:    

Текущее время: 05-Дек 21:33

Часовой пояс: UTC + 3


Вы можете начинать темы
Вы можете отвечать на сообщения
Вы не можете редактировать свои сообщения
Вы не можете удалять свои сообщения
Вы не можете голосовать в опросах
Вы не можете прикреплять файлы к сообщениям
Вы можете скачивать файлы