(Score) Двойная рокировка / Infernal Affairs Trilogy (by Chan Kwong Wing) - 2003, FLAC (tracks+.cue), lossless


Статистика раздачи [Обновить пиров]
Размер:  567 MB   |    Зарегистрирован:  1 год 1 месяц   |    Скачан:  0 раз
Сидов:  1  [  0 KB/s  ]   Личеров:  2  [  0 KB/s  ]   Подробная статистика пиров
 
   
 
 
 

[Цитировать]

Двойная рокировка / Infernal Affairs Trilogy- -Жанр: Score
Композитор: Chan Kwong Wing
Год выпуска диска: 2003
Страна-производитель диска: Hong Kong
Издатель (лейбл): Click Music Limited
Номер по каталогу: 82876-589922-2
Аудиокодек: FLAC (*.flac)
Тип рипа: tracks+.cue
Битрейт аудио: lossless
Продолжительность: 01:56:36
Источник: CD / What.CD
Наличие сканов в содержимом раздачи: нет
-

Двойная рокировка / Infernal Affairs (00:30:00)

01 - Entering the Inferno
02 - If I were Him
03 - Goodbye Master
04 - Who are You?
05 - Let Me Quit
06 - I Dreamt about You
07 - Salute
08 - Mission Abort
09 - I am a Cop!
10 - You are the Only One
11 - I Want to Be a Good Guy
12 - Goodbye Master, Goodbye
13 - The Inferno

Лог создания рипа

Exact Audio Copy V0.99 prebeta 4 from 23. January 2008
EAC extraction logfile from 13. February 2010, 6:26
Chan Kwong Wing / Infernal Affairs
Used drive : PLEXTOR CD-R PREMIUM Adapter: 3 ID: 1
Read mode : SecureUtilize accurate stream : YesDefeat audio cache : YesMake use of C2 pointers : No
Read offset correction : 30Overread into Lead-In and Lead-Out : NoFill up missing offset samples with silence : YesDelete leading and trailing silent blocks : NoNull samples used in CRC calculations : YesUsed interface : Installed external ASPI interfaceGap handling : Appended to previous track
Used output format : User Defined EncoderSelected bitrate : 320 kBit/sQuality : HighAdd ID3 tag : NoCommand line compressor : C:\Program Files\FLAC\flac.exeAdditional command line options : -V -8 -T "artist=%a" -T "title=%t" -T "album=%g" -T "date=%y" -T "tracknumber=%n" -T "genre=%m" %s
TOC of the extracted CD
Track | Start | Length | Start sector | End sector --------------------------------------------------------- 1 | 0:00.01 | 2:06.13 | 1 | 9463 2 | 2:06.14 | 1:36.33 | 9464 | 16696 3 | 3:42.47 | 2:18.15 | 16697 | 27061 4 | 6:00.62 | 2:44.19 | 27062 | 39380 5 | 8:45.06 | 1:32.09 | 39381 | 46289 6 | 10:17.15 | 1:23.64 | 46290 | 52578 7 | 11:41.04 | 1:56.55 | 52579 | 61333 8 | 13:37.59 | 4:31.64 | 61334 | 81722 9 | 18:09.48 | 3:26.51 | 81723 | 97223 10 | 21:36.24 | 1:06.31 | 97224 | 102204 11 | 22:42.55 | 3:30.11 | 102205 | 117965 12 | 26:12.66 | 1:56.19 | 117966 | 126684 13 | 28:09.10 | 1:51.10 | 126685 | 135019
Track 1
Filename C:\release\Chan_Kwong_Wing-Infernal_Affairs-Original_Motion_Picture_Soundtrack-3CD-2003\Disc 1\01- Entering the Inferno.wav
Pre-gap length 0:00:02.01
Peak level 100.0 % Track quality 99.9 % Test CRC 885F9B06 Copy CRC 885F9B06 Track not present in AccurateRip database Copy OK
Track 2
Filename C:\release\Chan_Kwong_Wing-Infernal_Affairs-Original_Motion_Picture_Soundtrack-3CD-2003\Disc 1\02- If I were Him.wav
Peak level 95.0 % Track quality 100.0 % Test CRC EE9F0201 Copy CRC EE9F0201 Track not present in AccurateRip database Copy OK
Track 3
Filename C:\release\Chan_Kwong_Wing-Infernal_Affairs-Original_Motion_Picture_Soundtrack-3CD-2003\Disc 1\03- Goodbye Master.wav
Peak level 100.0 % Track quality 100.0 % Test CRC 9DA7E835 Copy CRC 9DA7E835 Track not present in AccurateRip database Copy OK
Track 4
Filename C:\release\Chan_Kwong_Wing-Infernal_Affairs-Original_Motion_Picture_Soundtrack-3CD-2003\Disc 1\04- Who Are You .wav
Peak level 100.0 % Track quality 100.0 % Test CRC 0EFF6819 Copy CRC 0EFF6819 Track not present in AccurateRip database Copy OK
Track 5
Filename C:\release\Chan_Kwong_Wing-Infernal_Affairs-Original_Motion_Picture_Soundtrack-3CD-2003\Disc 1\05- Let Me Quit.wav
Peak level 91.6 % Track quality 100.0 % Test CRC EA98B25A Copy CRC EA98B25A Track not present in AccurateRip database Copy OK
Track 6
Filename C:\release\Chan_Kwong_Wing-Infernal_Affairs-Original_Motion_Picture_Soundtrack-3CD-2003\Disc 1\06- I Dreamt about You.wav
Peak level 82.0 % Track quality 100.0 % Test CRC 2E136D3D Copy CRC 2E136D3D Track not present in AccurateRip database Copy OK
Track 7
Filename C:\release\Chan_Kwong_Wing-Infernal_Affairs-Original_Motion_Picture_Soundtrack-3CD-2003\Disc 1\07- Salute.wav
Peak level 54.2 % Track quality 100.0 % Test CRC 03D11494 Copy CRC 03D11494 Track not present in AccurateRip database Copy OK
Track 8
Filename C:\release\Chan_Kwong_Wing-Infernal_Affairs-Original_Motion_Picture_Soundtrack-3CD-2003\Disc 1\08- Mission Abort.wav
Peak level 100.0 % Track quality 100.0 % Test CRC BD81EBBE Copy CRC BD81EBBE Track not present in AccurateRip database Copy OK
Track 9
Filename C:\release\Chan_Kwong_Wing-Infernal_Affairs-Original_Motion_Picture_Soundtrack-3CD-2003\Disc 1\09- I Am A Cop!.wav
Peak level 72.4 % Track quality 100.0 % Test CRC 80D235AD Copy CRC 80D235AD Track not present in AccurateRip database Copy OK
Track 10
Filename C:\release\Chan_Kwong_Wing-Infernal_Affairs-Original_Motion_Picture_Soundtrack-3CD-2003\Disc 1\10- You Are The Only One.wav
Peak level 86.5 % Track quality 99.8 % Test CRC 632B0A46 Copy CRC 632B0A46 Track not present in AccurateRip database Copy OK
Track 11
Filename C:\release\Chan_Kwong_Wing-Infernal_Affairs-Original_Motion_Picture_Soundtrack-3CD-2003\Disc 1\11- I Want To Be A Good Guy.wav
Peak level 100.0 % Track quality 100.0 % Test CRC 5C712D22 Copy CRC 5C712D22 Track not present in AccurateRip database Copy OK
Track 12
Filename C:\release\Chan_Kwong_Wing-Infernal_Affairs-Original_Motion_Picture_Soundtrack-3CD-2003\Disc 1\12- Goodbye Master, Goodbye.wav
Peak level 100.0 % Track quality 100.0 % Test CRC F1C74501 Copy CRC F1C74501 Track not present in AccurateRip database Copy OK
Track 13
Filename C:\release\Chan_Kwong_Wing-Infernal_Affairs-Original_Motion_Picture_Soundtrack-3CD-2003\Disc 1\13- The Inferno.wav
Peak level 100.0 % Track quality 100.0 % Test CRC D3A2BFE8 Copy CRC D3A2BFE8 Track not present in AccurateRip database Copy OK
None of the tracks are present in the AccurateRip database
No errors occurred
End of status report

Содержание индексной карты (.CUE)

REM GENRE SoundtrackREM DATE 2003REM DISCID A907080DREM COMMENT "ExactAudioCopy v0.99pb4"PERFORMER "Chan Kwong Wing"TITLE "Infernal Affairs"FILE "01 - Entering the Inferno.wav" WAVE TRACK 01 AUDIO TITLE "Entering the Inferno" PERFORMER "Chan Kwong Wing" FLAGS DCP PREGAP 00:00:01 INDEX 01 00:00:00FILE "02 - If I were Him.wav" WAVE TRACK 02 AUDIO TITLE "If I were Him" PERFORMER "Chan Kwong Wing" FLAGS DCP INDEX 01 00:00:00FILE "03 - Goodbye Master.wav" WAVE TRACK 03 AUDIO TITLE "Goodbye Master" PERFORMER "Chan Kwong Wing" FLAGS DCP INDEX 01 00:00:00FILE "04 - Who are You.wav" WAVE TRACK 04 AUDIO TITLE "Who are You?" PERFORMER "Chan Kwong Wing" FLAGS DCP INDEX 01 00:00:00FILE "05 - Let Me Quit.wav" WAVE TRACK 05 AUDIO TITLE "Let Me Quit" PERFORMER "Chan Kwong Wing" FLAGS DCP INDEX 01 00:00:00FILE "06 - I Dreamt about You.wav" WAVE TRACK 06 AUDIO TITLE "I Dreamt about You" PERFORMER "Chan Kwong Wing" FLAGS DCP INDEX 01 00:00:00FILE "07 - Salute.wav" WAVE TRACK 07 AUDIO TITLE "Salute" PERFORMER "Chan Kwong Wing" FLAGS DCP INDEX 01 00:00:00FILE "08 - Mission Abort.wav" WAVE TRACK 08 AUDIO TITLE "Mission Abort" PERFORMER "Chan Kwong Wing" FLAGS DCP INDEX 01 00:00:00FILE "09 - I am a Cop!.wav" WAVE TRACK 09 AUDIO TITLE "I am a Cop!" PERFORMER "Chan Kwong Wing" FLAGS DCP INDEX 01 00:00:00FILE "10 - You are the Only One.wav" WAVE TRACK 10 AUDIO TITLE "You are the Only One" PERFORMER "Chan Kwong Wing" FLAGS DCP INDEX 01 00:00:00FILE "11 - I Want to Be a Good Guy.wav" WAVE TRACK 11 AUDIO TITLE "I Want to Be a Good Guy" PERFORMER "Chan Kwong Wing" FLAGS DCP INDEX 01 00:00:00FILE "12 - Goodbye Master, Goodbye.wav" WAVE TRACK 12 AUDIO TITLE "Goodbye Master, Goodbye" PERFORMER "Chan Kwong Wing" FLAGS DCP INDEX 01 00:00:00FILE "13 - The Inferno.wav" WAVE TRACK 13 AUDIO TITLE "The Inferno" PERFORMER "Chan Kwong Wing" FLAGS DCP INDEX 01 00:00:00

Лог проверки качества

-----------------------
DON'T MODIFY THIS FILE
-----------------------
PERFORMER: auCDtect Task Manager, ver. 1.6.0 RC1 build 1.6.0.1Copyright (c) 2008-2010 y-soft. All rights reservedhttp://y-soft.org
ANALYZER: auCDtect: CD records authenticity detector, version 0.8.2Copyright (c) 2004 Oleg Berngardt. All rights reserved.Copyright (c) 2004 Alexander Djourik. All rights reserved.
FILE: 13 - The Inferno.flac Size: 11022330 Hash: 42793E6AE49AE43EA68F716BD2D7744E Accuracy: -m0 Conclusion: CDDA 100% Signature: 68CBD9155DE0BE56B1CDD9A15F82512E0BC077A9FILE: 12 - Goodbye Master, Goodbye.flac Size: 10055015 Hash: B5C521751DAA839C8E7586700E967FBB Accuracy: -m0 Conclusion: CDDA 100% Signature: 087AE8FBD5AC339006C568B59C3D03568210CD91FILE: 11 - I Want to Be a Good Guy.flac Size: 21740573 Hash: 4C849BFDE3CF5D4DCA040779D690632A Accuracy: -m0 Conclusion: CDDA 100% Signature: 8B177FAAC0E8BDF6A32E1C6687D5A465AC321BF9FILE: 10 - You are the Only One.flac Size: 5035699 Hash: A19E8A7C9E90FBC222AD1ECD1C25E495 Accuracy: -m0 Conclusion: CDDA 100% Signature: 6E54496F20444616152FAE0455EB28391A3763F1FILE: 09 - I am a Cop!.flac Size: 17935993 Hash: 2160C91C0C8A9429A01DDCC9D7013E5C Accuracy: -m0 Conclusion: CDDA 100% Signature: 4F329993EA1249F5C50956C576D48A3C81ED5DF7FILE: 08 - Mission Abort.flac Size: 24123367 Hash: 201F595E4AE290784471290DD697AA28 Accuracy: -m0 Conclusion: CDDA 100% Signature: D4487AAE146615C148B71E20F02A753E77BB3A01FILE: 07 - Salute.flac Size: 9645641 Hash: 497D49DE6B0D6BCB32D772367104DA7C Accuracy: -m0 Conclusion: CDDA 100% Signature: E56C21F3C27A732E25E9AD168BD9858D34A0778CFILE: 06 - I Dreamt about You.flac Size: 6999737 Hash: 23ED86A6F525F2BDAF87EDD2669B096E Accuracy: -m0 Conclusion: CDDA 100% Signature: 8EB20C1393F3DB93E06897B6E23707DB77741004FILE: 05 - Let Me Quit.flac Size: 11453433 Hash: ECDBC9C8C61C11BDC703BF4B23E89E5E Accuracy: -m0 Conclusion: CDDA 100% Signature: A5D1CA4C7D16CFC009078D11EACB122A29083EFCFILE: 04 - Who are You.flac Size: 11038366 Hash: 0E4C6C88DEE888B1F0F3A3EEBAB61EFC Accuracy: -m0 Conclusion: CDDA 100% Signature: 2B3296BD0D101C1EF7BD8F51A32F9C5D92337D1EFILE: 03 - Goodbye Master.flac Size: 13335854 Hash: 7D705157C38B6039903BCE7537DF31B2 Accuracy: -m0 Conclusion: CDDA 100% Signature: 6F3DC6D18A8E94EE246C169F5FD8BE799E3EA082FILE: 02 - If I were Him.flac Size: 10548889 Hash: 6BC1A096EAA4C605614F5E7A290AB4EE Accuracy: -m0 Conclusion: CDDA 100% Signature: CFF119D6485DC60295C3351F9394F7033E4DB93FFILE: 01 - Entering the Inferno.flac Size: 13235565 Hash: 21EFA54E001F4449F74B64A3AC22EC83 Accuracy: -m0 Conclusion: CDDA 100% Signature: 7C2BDC53C19A701CDF231538FDD80E8DD996AB8F

Двойная рокировка 2 / Infernal Affairs II (00:47:55)

01 - 1991
02 - Infernal Affairs II
03 - I Want to Be a Good Guy
04 - Head Up
05 - Sad
06 - Kill
07 - Cry
08 - Dead
09 - Fight
10 - I am Immoral
11 - Brothers
12 - Libation
13 - Due Day
14 - Forgive & Forget
15 - Additional
16 - Black Hawk
17 - 1997

Лог создания рипа

Exact Audio Copy V0.99 prebeta 4 from 23. January 2008
EAC extraction logfile from 13. February 2010, 6:51
Chan Kwong Wing / Infernal Affairs II
Used drive : PLEXTOR CD-R PREMIUM Adapter: 3 ID: 1
Read mode : SecureUtilize accurate stream : YesDefeat audio cache : YesMake use of C2 pointers : No
Read offset correction : 30Overread into Lead-In and Lead-Out : NoFill up missing offset samples with silence : YesDelete leading and trailing silent blocks : NoNull samples used in CRC calculations : YesUsed interface : Installed external ASPI interfaceGap handling : Appended to previous track
Used output format : User Defined EncoderSelected bitrate : 320 kBit/sQuality : HighAdd ID3 tag : NoCommand line compressor : C:\Program Files\FLAC\flac.exeAdditional command line options : -V -8 -T "artist=%a" -T "title=%t" -T "album=%g" -T "date=%y" -T "tracknumber=%n" -T "genre=%m" %s
TOC of the extracted CD
Track | Start | Length | Start sector | End sector --------------------------------------------------------- 1 | 0:00.00 | 2:23.02 | 0 | 10726 2 | 2:23.02 | 0:50.63 | 10727 | 14539 3 | 3:13.65 | 2:08.12 | 14540 | 24151 4 | 5:22.02 | 1:19.01 | 24152 | 30077 5 | 6:41.03 | 1:48.74 | 30078 | 38251 6 | 8:30.02 | 4:58.00 | 38252 | 60601 7 | 13:28.02 | 2:35.00 | 60602 | 72226 8 | 16:03.02 | 4:37.00 | 72227 | 93001 9 | 20:40.02 | 3:05.00 | 93002 | 106876 10 | 23:45.02 | 2:04.00 | 106877 | 116176 11 | 25:49.02 | 1:02.00 | 116177 | 120826 12 | 26:51.02 | 0:49.00 | 120827 | 124501 13 | 27:40.02 | 4:21.74 | 124502 | 144150 14 | 32:02.01 | 4:37.01 | 144151 | 164926 15 | 36:39.02 | 1:12.00 | 164927 | 170326 16 | 37:51.02 | 6:00.00 | 170327 | 197326 17 | 43:51.02 | 4:04.13 | 197327 | 215639
Track 1
Filename C:\release\Chan_Kwong_Wing-Infernal_Affairs-Original_Motion_Picture_Soundtrack-3CD-2003\Disc 2\01- 1991.wav
Pre-gap length 0:00:02.00
Peak level 97.0 % Track quality 100.0 % Test CRC A596543F Copy CRC A596543F Track not present in AccurateRip database Copy OK
Track 2
Filename C:\release\Chan_Kwong_Wing-Infernal_Affairs-Original_Motion_Picture_Soundtrack-3CD-2003\Disc 2\02- Infernal Affairs II.wav
Peak level 98.5 % Track quality 100.0 % Test CRC 9148B07C Copy CRC 9148B07C Track not present in AccurateRip database Copy OK
Track 3
Filename C:\release\Chan_Kwong_Wing-Infernal_Affairs-Original_Motion_Picture_Soundtrack-3CD-2003\Disc 2\03- I Want To Be Good.wav
Peak level 100.0 % Track quality 99.9 % Test CRC 5C83F2E5 Copy CRC 5C83F2E5 Track not present in AccurateRip database Copy OK
Track 4
Filename C:\release\Chan_Kwong_Wing-Infernal_Affairs-Original_Motion_Picture_Soundtrack-3CD-2003\Disc 2\04- Tilting Heads.wav
Peak level 73.3 % Track quality 99.8 % Test CRC 3C4EB63A Copy CRC 3C4EB63A Track not present in AccurateRip database Copy OK
Track 5
Filename C:\release\Chan_Kwong_Wing-Infernal_Affairs-Original_Motion_Picture_Soundtrack-3CD-2003\Disc 2\05- Sorrow.wav
Peak level 60.7 % Track quality 100.0 % Test CRC 5B70C4B4 Copy CRC 5B70C4B4 Track not present in AccurateRip database Copy OK
Track 6
Filename C:\release\Chan_Kwong_Wing-Infernal_Affairs-Original_Motion_Picture_Soundtrack-3CD-2003\Disc 2\06- 4 Kill.wav
Peak level 99.9 % Track quality 100.0 % Test CRC 382E257B Copy CRC 382E257B Track not present in AccurateRip database Copy OK
Track 7
Filename C:\release\Chan_Kwong_Wing-Infernal_Affairs-Original_Motion_Picture_Soundtrack-3CD-2003\Disc 2\07- Cry.wav
Peak level 85.4 % Track quality 100.0 % Test CRC 5A350EFA Copy CRC 5A350EFA Track not present in AccurateRip database Copy OK
Track 8
Filename C:\release\Chan_Kwong_Wing-Infernal_Affairs-Original_Motion_Picture_Soundtrack-3CD-2003\Disc 2\08- Death On Duty.wav
Peak level 96.9 % Track quality 100.0 % Test CRC 68EEFC3B Copy CRC 68EEFC3B Track not present in AccurateRip database Copy OK
Track 9
Filename C:\release\Chan_Kwong_Wing-Infernal_Affairs-Original_Motion_Picture_Soundtrack-3CD-2003\Disc 2\09- Action.wav
Peak level 100.0 % Track quality 100.0 % Test CRC CB1BFD7F Copy CRC CB1BFD7F Track not present in AccurateRip database Copy OK
Track 10
Filename C:\release\Chan_Kwong_Wing-Infernal_Affairs-Original_Motion_Picture_Soundtrack-3CD-2003\Disc 2\10- I Admit My Sins.wav
Peak level 96.6 % Track quality 100.0 % Test CRC EB049130 Copy CRC EB049130 Track not present in AccurateRip database Copy OK
Track 11
Filename C:\release\Chan_Kwong_Wing-Infernal_Affairs-Original_Motion_Picture_Soundtrack-3CD-2003\Disc 2\11- Brothers.wav
Peak level 37.3 % Track quality 100.0 % Test CRC 92424998 Copy CRC 92424998 Track not present in AccurateRip database Copy OK
Track 12
Filename C:\release\Chan_Kwong_Wing-Infernal_Affairs-Original_Motion_Picture_Soundtrack-3CD-2003\Disc 2\12- Funeral Wine.wav
Peak level 66.0 % Track quality 100.0 % Test CRC 68672C61 Copy CRC 68672C61 Track not present in AccurateRip database Copy OK
Track 13
Filename C:\release\Chan_Kwong_Wing-Infernal_Affairs-Original_Motion_Picture_Soundtrack-3CD-2003\Disc 2\13- Day To Pay Up.wav
Peak level 97.3 % Track quality 99.9 % Test CRC 7441999D Copy CRC 7441999D Track not present in AccurateRip database Copy OK
Track 14
Filename C:\release\Chan_Kwong_Wing-Infernal_Affairs-Original_Motion_Picture_Soundtrack-3CD-2003\Disc 2\14- Forgive & Forget.wav
Peak level 96.7 % Track quality 100.0 % Test CRC 4C44A57F Copy CRC 4C44A57F Track not present in AccurateRip database Copy OK
Track 15
Filename C:\release\Chan_Kwong_Wing-Infernal_Affairs-Original_Motion_Picture_Soundtrack-3CD-2003\Disc 2\15- Additional.wav
Peak level 98.3 % Track quality 100.0 % Test CRC 3F6A4AF6 Copy CRC 3F6A4AF6 Track not present in AccurateRip database Copy OK
Track 16
Filename C:\release\Chan_Kwong_Wing-Infernal_Affairs-Original_Motion_Picture_Soundtrack-3CD-2003\Disc 2\16- Black Hawk.wav
Peak level 99.9 % Track quality 100.0 % Test CRC 4F3895D1 Copy CRC 4F3895D1 Track not present in AccurateRip database Copy OK
Track 17
Filename C:\release\Chan_Kwong_Wing-Infernal_Affairs-Original_Motion_Picture_Soundtrack-3CD-2003\Disc 2\17- 1997.wav
Peak level 97.2 % Track quality 100.0 % Test CRC 3522AF2F Copy CRC 3522AF2F Track not present in AccurateRip database Copy OK
None of the tracks are present in the AccurateRip database
No errors occurred
End of status report

Содержание индексной карты (.CUE)

REM GENRE SoundtrackREM DATE 2003REM DISCID BE0B3B11REM COMMENT "ExactAudioCopy v0.99pb4"PERFORMER "Chan Kwong Wing"TITLE "Infernal Affairs II"FILE "01 - 1991.wav" WAVE TRACK 01 AUDIO TITLE "1991" PERFORMER "Chan Kwong Wing" INDEX 01 00:00:00FILE "02 - Infernal Affairs II.wav" WAVE TRACK 02 AUDIO TITLE "Infernal Affairs II" PERFORMER "Chan Kwong Wing" INDEX 01 00:00:00FILE "03 - I Want to Be Good.wav" WAVE TRACK 03 AUDIO TITLE "I Want to Be Good" PERFORMER "Chan Kwong Wing" INDEX 01 00:00:00FILE "04 - Tilting Heads.wav" WAVE TRACK 04 AUDIO TITLE "Tilting Heads" PERFORMER "Chan Kwong Wing" INDEX 01 00:00:00FILE "05 - Sorrow.wav" WAVE TRACK 05 AUDIO TITLE "Sorrow" PERFORMER "Chan Kwong Wing" INDEX 01 00:00:00FILE "06 - 4 Kill.wav" WAVE TRACK 06 AUDIO TITLE "4 Kill" PERFORMER "Chan Kwong Wing" INDEX 01 00:00:00FILE "07 - Cry.wav" WAVE TRACK 07 AUDIO TITLE "Cry" PERFORMER "Chan Kwong Wing" INDEX 01 00:00:00FILE "08 - Death on Duty.wav" WAVE TRACK 08 AUDIO TITLE "Death on Duty" PERFORMER "Chan Kwong Wing" INDEX 01 00:00:00FILE "09 - Action.wav" WAVE TRACK 09 AUDIO TITLE "Action" PERFORMER "Chan Kwong Wing" INDEX 01 00:00:00FILE "10 - I Admit My Sins.wav" WAVE TRACK 10 AUDIO TITLE "I Admit My Sins" PERFORMER "Chan Kwong Wing" INDEX 01 00:00:00FILE "11 - Brothers.wav" WAVE TRACK 11 AUDIO TITLE "Brothers" PERFORMER "Chan Kwong Wing" INDEX 01 00:00:00FILE "12 - Funeral Wine.wav" WAVE TRACK 12 AUDIO TITLE "Funeral Wine" PERFORMER "Chan Kwong Wing" INDEX 01 00:00:00FILE "13 - Day To Pay Up.wav" WAVE TRACK 13 AUDIO TITLE "Day To Pay Up" PERFORMER "Chan Kwong Wing" INDEX 01 00:00:00FILE "14 - Forgive & Forget.wav" WAVE TRACK 14 AUDIO TITLE "Forgive & Forget" PERFORMER "Chan Kwong Wing" INDEX 01 00:00:00FILE "15 - Additional.wav" WAVE TRACK 15 AUDIO TITLE "Additional" PERFORMER "Chan Kwong Wing" INDEX 01 00:00:00FILE "16 - Black Hawk.wav" WAVE TRACK 16 AUDIO TITLE "Black Hawk" PERFORMER "Chan Kwong Wing" INDEX 01 00:00:00FILE "17 - 1997.wav" WAVE TRACK 17 AUDIO TITLE "1997" PERFORMER "Chan Kwong Wing" INDEX 01 00:00:00

Лог проверки качества

-----------------------
DON'T MODIFY THIS FILE
-----------------------
PERFORMER: auCDtect Task Manager, ver. 1.6.0 RC1 build 1.6.0.1Copyright (c) 2008-2010 y-soft. All rights reservedhttp://y-soft.org
ANALYZER: auCDtect: CD records authenticity detector, version 0.8.2Copyright (c) 2004 Oleg Berngardt. All rights reserved.Copyright (c) 2004 Alexander Djourik. All rights reserved.
FILE: 17 - 1997.flac Size: 24315106 Hash: D1322AAC36BC4B24C286A84FD88DBF51 Accuracy: -m0 Conclusion: CDDA 100% Signature: 282A64EC904E84787EC94B48E465CADE5421DD4FFILE: 16 - Black Hawk.flac Size: 28931309 Hash: D79AEB60A6B57A0EFF5E2CCF5E854167 Accuracy: -m0 Conclusion: CDDA 100% Signature: 2B5D9E263A0C1C5AFE1FC539752AF9647C875A53FILE: 15 - Additional.flac Size: 6287390 Hash: 114259935E3F2B81B8C80E0A81882061 Accuracy: -m0 Conclusion: CDDA 100% Signature: 8C52D6F065029C21F6A9A8C8F5B0058CD31F8B76FILE: 14 - Forgive & Forget.flac Size: 24211470 Hash: C5892F3E2B5C10277EAC3BA60F12F922 Accuracy: -m0 Conclusion: CDDA 100% Signature: 72B5DA8EFE60ECF042E65A2F36C93CCF0314F3C6FILE: 13 - Day to Pay Up.flac Size: 21127659 Hash: 14F0EE41BA66074287BDF1D5D8068903 Accuracy: -m0 Conclusion: CDDA 100% Signature: 16EB923E953DAC23080E01E4FF54A8CCC72BAD20FILE: 12 - Funeral Wine.flac Size: 3300557 Hash: 6E338E811D09CBCD9C8D931324C8E8F7 Accuracy: -m0 Conclusion: CDDA 100% Signature: C431AD38440D1721128ACE91F14FA23B3D9F8658FILE: 11 - Brothers.flac Size: 3943793 Hash: DF511587344ABFA7971524F5552C1595 Accuracy: -m0 Conclusion: CDDA 100% Signature: 2140BE7CF377137EAC2C1BC245222A57C358540BFILE: 10 - I Admit My Sins.flac Size: 7884578 Hash: 80D63FB597BC06CFEF51D4DF37038A04 Accuracy: -m0 Conclusion: CDDA 100% Signature: 36542CEF197BE0378A7896A11F1135387E45900CFILE: 09 - Action.flac Size: 17335138 Hash: 342AA865FE02CA646EEE902E7B8296DF Accuracy: -m0 Conclusion: CDDA 100% Signature: 512A7548D461F8FCA873D66DCA4DFB8945EF83FAFILE: 08 - Death on Duty.flac Size: 22150210 Hash: A71005D61879D64DA3A19408A0B3C7C2 Accuracy: -m0 Conclusion: CDDA 100% Signature: B4747875D82AF18CBDAA302D2B02259683A64240FILE: 07 - Cry.flac Size: 13622985 Hash: 23BF72C3D594C9C8C5C600AAAA3D28F5 Accuracy: -m0 Conclusion: CDDA 100% Signature: 30C78A9788F2D48FA01766A94CF454659011249AFILE: 06 - 4 Kill.flac Size: 26250933 Hash: A45F865D8E840CB53BB63E8B53FB2385 Accuracy: -m0 Conclusion: CDDA 100% Signature: AAFBD869ED9AAE558A4AEABBF2DD99B9A80B0EE9FILE: 05 - Sorrow.flac Size: 7277973 Hash: 08FF89E97D36C29F0CB374C39E8CD2ED Accuracy: -m0 Conclusion: CDDA 100% Signature: C1EC33DFD4A2CA8CA48532C8BADA6EF610A63BFCFILE: 04 - Tilting Heads.flac Size: 6226893 Hash: 30518FD9C55AB917BAD4BC7FB7A48D88 Accuracy: -m0 Conclusion: CDDA 100% Signature: 731C72418C44613A81DFF82AFD6696E059AC3523FILE: 03 - I Want to Be Good.flac Size: 14900704 Hash: 30330CE09792BE8B9A79B0927089302B Accuracy: -m0 Conclusion: CDDA 100% Signature: D4E6842203A3605D9E2D84E60941CCAB7C8F12D7FILE: 02 - Infernal Affairs II.flac Size: 4279088 Hash: B012616A889091C08743128E49C20450 Accuracy: -m0 Conclusion: CDDA 100% Signature: 212DE191029831E789D4FDE8589A3FBE0495B21BFILE: 01 - 1991.flac Size: 13208601 Hash: 0AF620297320504CE13F63A2871E5175 Accuracy: -m0 Conclusion: CDDA 100% Signature: AD6962BEA842CFFCF4505B8BD7C47679862F8D82

Двойная рокировка 3 / Infernal Affairs III (00:38:41)

01 - End Inferno
02 - Entering the Paths
03 - The Forgotten Times
04 - Farewell
05 - Middle Man
06 - The Setup
07 - Goodbye
08 - The Plan
09 - The Chase
10 - I Want to Cure You
11 - Morse Code
12 - The Same Path
13 - Hypnosis
14 - Give me a Chance
15 - Shatter
16 - Ending
17 - Infernal Hell

Лог создания рипа

Exact Audio Copy V0.99 prebeta 4 from 23. January 2008
EAC extraction logfile from 13. February 2010, 6:51
Chan Kwong Wing / Infernal Affairs II
Used drive : PLEXTOR CD-R PREMIUM Adapter: 3 ID: 1
Read mode : SecureUtilize accurate stream : YesDefeat audio cache : YesMake use of C2 pointers : No
Read offset correction : 30Overread into Lead-In and Lead-Out : NoFill up missing offset samples with silence : YesDelete leading and trailing silent blocks : NoNull samples used in CRC calculations : YesUsed interface : Installed external ASPI interfaceGap handling : Appended to previous track
Used output format : User Defined EncoderSelected bitrate : 320 kBit/sQuality : HighAdd ID3 tag : NoCommand line compressor : C:\Program Files\FLAC\flac.exeAdditional command line options : -V -8 -T "artist=%a" -T "title=%t" -T "album=%g" -T "date=%y" -T "tracknumber=%n" -T "genre=%m" %s
TOC of the extracted CD
Track | Start | Length | Start sector | End sector --------------------------------------------------------- 1 | 0:00.00 | 2:23.02 | 0 | 10726 2 | 2:23.02 | 0:50.63 | 10727 | 14539 3 | 3:13.65 | 2:08.12 | 14540 | 24151 4 | 5:22.02 | 1:19.01 | 24152 | 30077 5 | 6:41.03 | 1:48.74 | 30078 | 38251 6 | 8:30.02 | 4:58.00 | 38252 | 60601 7 | 13:28.02 | 2:35.00 | 60602 | 72226 8 | 16:03.02 | 4:37.00 | 72227 | 93001 9 | 20:40.02 | 3:05.00 | 93002 | 106876 10 | 23:45.02 | 2:04.00 | 106877 | 116176 11 | 25:49.02 | 1:02.00 | 116177 | 120826 12 | 26:51.02 | 0:49.00 | 120827 | 124501 13 | 27:40.02 | 4:21.74 | 124502 | 144150 14 | 32:02.01 | 4:37.01 | 144151 | 164926 15 | 36:39.02 | 1:12.00 | 164927 | 170326 16 | 37:51.02 | 6:00.00 | 170327 | 197326 17 | 43:51.02 | 4:04.13 | 197327 | 215639
Track 1
Filename C:\release\Chan_Kwong_Wing-Infernal_Affairs-Original_Motion_Picture_Soundtrack-3CD-2003\Disc 2\01- 1991.wav
Pre-gap length 0:00:02.00
Peak level 97.0 % Track quality 100.0 % Test CRC A596543F Copy CRC A596543F Track not present in AccurateRip database Copy OK
Track 2
Filename C:\release\Chan_Kwong_Wing-Infernal_Affairs-Original_Motion_Picture_Soundtrack-3CD-2003\Disc 2\02- Infernal Affairs II.wav
Peak level 98.5 % Track quality 100.0 % Test CRC 9148B07C Copy CRC 9148B07C Track not present in AccurateRip database Copy OK
Track 3
Filename C:\release\Chan_Kwong_Wing-Infernal_Affairs-Original_Motion_Picture_Soundtrack-3CD-2003\Disc 2\03- I Want To Be Good.wav
Peak level 100.0 % Track quality 99.9 % Test CRC 5C83F2E5 Copy CRC 5C83F2E5 Track not present in AccurateRip database Copy OK
Track 4
Filename C:\release\Chan_Kwong_Wing-Infernal_Affairs-Original_Motion_Picture_Soundtrack-3CD-2003\Disc 2\04- Tilting Heads.wav
Peak level 73.3 % Track quality 99.8 % Test CRC 3C4EB63A Copy CRC 3C4EB63A Track not present in AccurateRip database Copy OK
Track 5
Filename C:\release\Chan_Kwong_Wing-Infernal_Affairs-Original_Motion_Picture_Soundtrack-3CD-2003\Disc 2\05- Sorrow.wav
Peak level 60.7 % Track quality 100.0 % Test CRC 5B70C4B4 Copy CRC 5B70C4B4 Track not present in AccurateRip database Copy OK
Track 6
Filename C:\release\Chan_Kwong_Wing-Infernal_Affairs-Original_Motion_Picture_Soundtrack-3CD-2003\Disc 2\06- 4 Kill.wav
Peak level 99.9 % Track quality 100.0 % Test CRC 382E257B Copy CRC 382E257B Track not present in AccurateRip database Copy OK
Track 7
Filename C:\release\Chan_Kwong_Wing-Infernal_Affairs-Original_Motion_Picture_Soundtrack-3CD-2003\Disc 2\07- Cry.wav
Peak level 85.4 % Track quality 100.0 % Test CRC 5A350EFA Copy CRC 5A350EFA Track not present in AccurateRip database Copy OK
Track 8
Filename C:\release\Chan_Kwong_Wing-Infernal_Affairs-Original_Motion_Picture_Soundtrack-3CD-2003\Disc 2\08- Death On Duty.wav
Peak level 96.9 % Track quality 100.0 % Test CRC 68EEFC3B Copy CRC 68EEFC3B Track not present in AccurateRip database Copy OK
Track 9
Filename C:\release\Chan_Kwong_Wing-Infernal_Affairs-Original_Motion_Picture_Soundtrack-3CD-2003\Disc 2\09- Action.wav
Peak level 100.0 % Track quality 100.0 % Test CRC CB1BFD7F Copy CRC CB1BFD7F Track not present in AccurateRip database Copy OK
Track 10
Filename C:\release\Chan_Kwong_Wing-Infernal_Affairs-Original_Motion_Picture_Soundtrack-3CD-2003\Disc 2\10- I Admit My Sins.wav
Peak level 96.6 % Track quality 100.0 % Test CRC EB049130 Copy CRC EB049130 Track not present in AccurateRip database Copy OK
Track 11
Filename C:\release\Chan_Kwong_Wing-Infernal_Affairs-Original_Motion_Picture_Soundtrack-3CD-2003\Disc 2\11- Brothers.wav
Peak level 37.3 % Track quality 100.0 % Test CRC 92424998 Copy CRC 92424998 Track not present in AccurateRip database Copy OK
Track 12
Filename C:\release\Chan_Kwong_Wing-Infernal_Affairs-Original_Motion_Picture_Soundtrack-3CD-2003\Disc 2\12- Funeral Wine.wav
Peak level 66.0 % Track quality 100.0 % Test CRC 68672C61 Copy CRC 68672C61 Track not present in AccurateRip database Copy OK
Track 13
Filename C:\release\Chan_Kwong_Wing-Infernal_Affairs-Original_Motion_Picture_Soundtrack-3CD-2003\Disc 2\13- Day To Pay Up.wav
Peak level 97.3 % Track quality 99.9 % Test CRC 7441999D Copy CRC 7441999D Track not present in AccurateRip database Copy OK
Track 14
Filename C:\release\Chan_Kwong_Wing-Infernal_Affairs-Original_Motion_Picture_Soundtrack-3CD-2003\Disc 2\14- Forgive & Forget.wav
Peak level 96.7 % Track quality 100.0 % Test CRC 4C44A57F Copy CRC 4C44A57F Track not present in AccurateRip database Copy OK
Track 15
Filename C:\release\Chan_Kwong_Wing-Infernal_Affairs-Original_Motion_Picture_Soundtrack-3CD-2003\Disc 2\15- Additional.wav
Peak level 98.3 % Track quality 100.0 % Test CRC 3F6A4AF6 Copy CRC 3F6A4AF6 Track not present in AccurateRip database Copy OK
Track 16
Filename C:\release\Chan_Kwong_Wing-Infernal_Affairs-Original_Motion_Picture_Soundtrack-3CD-2003\Disc 2\16- Black Hawk.wav
Peak level 99.9 % Track quality 100.0 % Test CRC 4F3895D1 Copy CRC 4F3895D1 Track not present in AccurateRip database Copy OK
Track 17
Filename C:\release\Chan_Kwong_Wing-Infernal_Affairs-Original_Motion_Picture_Soundtrack-3CD-2003\Disc 2\17- 1997.wav
Peak level 97.2 % Track quality 100.0 % Test CRC 3522AF2F Copy CRC 3522AF2F Track not present in AccurateRip database Copy OK
None of the tracks are present in the AccurateRip database
No errors occurred
End of status report

Содержание индексной карты (.CUE)

REM GENRE SoundtrackREM DATE 2003REM DISCID BE0B3B11REM COMMENT "ExactAudioCopy v0.99pb4"PERFORMER "Chan Kwong Wing"TITLE "Infernal Affairs II"FILE "01 - 1991.wav" WAVE TRACK 01 AUDIO TITLE "1991" PERFORMER "Chan Kwong Wing" INDEX 01 00:00:00FILE "02 - Infernal Affairs II.wav" WAVE TRACK 02 AUDIO TITLE "Infernal Affairs II" PERFORMER "Chan Kwong Wing" INDEX 01 00:00:00FILE "03 - I Want to Be Good.wav" WAVE TRACK 03 AUDIO TITLE "I Want to Be Good" PERFORMER "Chan Kwong Wing" INDEX 01 00:00:00FILE "04 - Tilting Heads.wav" WAVE TRACK 04 AUDIO TITLE "Tilting Heads" PERFORMER "Chan Kwong Wing" INDEX 01 00:00:00FILE "05 - Sorrow.wav" WAVE TRACK 05 AUDIO TITLE "Sorrow" PERFORMER "Chan Kwong Wing" INDEX 01 00:00:00FILE "06 - 4 Kill.wav" WAVE TRACK 06 AUDIO TITLE "4 Kill" PERFORMER "Chan Kwong Wing" INDEX 01 00:00:00FILE "07 - Cry.wav" WAVE TRACK 07 AUDIO TITLE "Cry" PERFORMER "Chan Kwong Wing" INDEX 01 00:00:00FILE "08 - Death on Duty.wav" WAVE TRACK 08 AUDIO TITLE "Death on Duty" PERFORMER "Chan Kwong Wing" INDEX 01 00:00:00FILE "09 - Action.wav" WAVE TRACK 09 AUDIO TITLE "Action" PERFORMER "Chan Kwong Wing" INDEX 01 00:00:00FILE "10 - I Admit My Sins.wav" WAVE TRACK 10 AUDIO TITLE "I Admit My Sins" PERFORMER "Chan Kwong Wing" INDEX 01 00:00:00FILE "11 - Brothers.wav" WAVE TRACK 11 AUDIO TITLE "Brothers" PERFORMER "Chan Kwong Wing" INDEX 01 00:00:00FILE "12 - Funeral Wine.wav" WAVE TRACK 12 AUDIO TITLE "Funeral Wine" PERFORMER "Chan Kwong Wing" INDEX 01 00:00:00FILE "13 - Day To Pay Up.wav" WAVE TRACK 13 AUDIO TITLE "Day To Pay Up" PERFORMER "Chan Kwong Wing" INDEX 01 00:00:00FILE "14 - Forgive & Forget.wav" WAVE TRACK 14 AUDIO TITLE "Forgive & Forget" PERFORMER "Chan Kwong Wing" INDEX 01 00:00:00FILE "15 - Additional.wav" WAVE TRACK 15 AUDIO TITLE "Additional" PERFORMER "Chan Kwong Wing" INDEX 01 00:00:00FILE "16 - Black Hawk.wav" WAVE TRACK 16 AUDIO TITLE "Black Hawk" PERFORMER "Chan Kwong Wing" INDEX 01 00:00:00FILE "17 - 1997.wav" WAVE TRACK 17 AUDIO TITLE "1997" PERFORMER "Chan Kwong Wing" INDEX 01 00:00:00

Лог проверки качества

-----------------------
DON'T MODIFY THIS FILE
-----------------------
PERFORMER: auCDtect Task Manager, ver. 1.6.0 RC1 build 1.6.0.1Copyright (c) 2008-2010 y-soft. All rights reservedhttp://y-soft.org
ANALYZER: auCDtect: CD records authenticity detector, version 0.8.2Copyright (c) 2004 Oleg Berngardt. All rights reserved.Copyright (c) 2004 Alexander Djourik. All rights reserved.
FILE: 17 - 1997.flac Size: 24315106 Hash: D1322AAC36BC4B24C286A84FD88DBF51 Accuracy: -m0 Conclusion: CDDA 100% Signature: 282A64EC904E84787EC94B48E465CADE5421DD4FFILE: 16 - Black Hawk.flac Size: 28931309 Hash: D79AEB60A6B57A0EFF5E2CCF5E854167 Accuracy: -m0 Conclusion: CDDA 100% Signature: 2B5D9E263A0C1C5AFE1FC539752AF9647C875A53FILE: 15 - Additional.flac Size: 6287390 Hash: 114259935E3F2B81B8C80E0A81882061 Accuracy: -m0 Conclusion: CDDA 100% Signature: 8C52D6F065029C21F6A9A8C8F5B0058CD31F8B76FILE: 14 - Forgive & Forget.flac Size: 24211470 Hash: C5892F3E2B5C10277EAC3BA60F12F922 Accuracy: -m0 Conclusion: CDDA 100% Signature: 72B5DA8EFE60ECF042E65A2F36C93CCF0314F3C6FILE: 13 - Day to Pay Up.flac Size: 21127659 Hash: 14F0EE41BA66074287BDF1D5D8068903 Accuracy: -m0 Conclusion: CDDA 100% Signature: 16EB923E953DAC23080E01E4FF54A8CCC72BAD20FILE: 12 - Funeral Wine.flac Size: 3300557 Hash: 6E338E811D09CBCD9C8D931324C8E8F7 Accuracy: -m0 Conclusion: CDDA 100% Signature: C431AD38440D1721128ACE91F14FA23B3D9F8658FILE: 11 - Brothers.flac Size: 3943793 Hash: DF511587344ABFA7971524F5552C1595 Accuracy: -m0 Conclusion: CDDA 100% Signature: 2140BE7CF377137EAC2C1BC245222A57C358540BFILE: 10 - I Admit My Sins.flac Size: 7884578 Hash: 80D63FB597BC06CFEF51D4DF37038A04 Accuracy: -m0 Conclusion: CDDA 100% Signature: 36542CEF197BE0378A7896A11F1135387E45900CFILE: 09 - Action.flac Size: 17335138 Hash: 342AA865FE02CA646EEE902E7B8296DF Accuracy: -m0 Conclusion: CDDA 100% Signature: 512A7548D461F8FCA873D66DCA4DFB8945EF83FAFILE: 08 - Death on Duty.flac Size: 22150210 Hash: A71005D61879D64DA3A19408A0B3C7C2 Accuracy: -m0 Conclusion: CDDA 100% Signature: B4747875D82AF18CBDAA302D2B02259683A64240FILE: 07 - Cry.flac Size: 13622985 Hash: 23BF72C3D594C9C8C5C600AAAA3D28F5 Accuracy: -m0 Conclusion: CDDA 100% Signature: 30C78A9788F2D48FA01766A94CF454659011249AFILE: 06 - 4 Kill.flac Size: 26250933 Hash: A45F865D8E840CB53BB63E8B53FB2385 Accuracy: -m0 Conclusion: CDDA 100% Signature: AAFBD869ED9AAE558A4AEABBF2DD99B9A80B0EE9FILE: 05 - Sorrow.flac Size: 7277973 Hash: 08FF89E97D36C29F0CB374C39E8CD2ED Accuracy: -m0 Conclusion: CDDA 100% Signature: C1EC33DFD4A2CA8CA48532C8BADA6EF610A63BFCFILE: 04 - Tilting Heads.flac Size: 6226893 Hash: 30518FD9C55AB917BAD4BC7FB7A48D88 Accuracy: -m0 Conclusion: CDDA 100% Signature: 731C72418C44613A81DFF82AFD6696E059AC3523FILE: 03 - I Want to Be Good.flac Size: 14900704 Hash: 30330CE09792BE8B9A79B0927089302B Accuracy: -m0 Conclusion: CDDA 100% Signature: D4E6842203A3605D9E2D84E60941CCAB7C8F12D7FILE: 02 - Infernal Affairs II.flac Size: 4279088 Hash: B012616A889091C08743128E49C20450 Accuracy: -m0 Conclusion: CDDA 100% Signature: 212DE191029831E789D4FDE8589A3FBE0495B21BFILE: 01 - 1991.flac Size: 13208601 Hash: 0AF620297320504CE13F63A2871E5175 Accuracy: -m0 Conclusion: CDDA 100% Signature: AD6962BEA842CFFCF4505B8BD7C47679862F8D82

-

Скриншот спектра частот


-

Доп. информация

названия файлов, теги и .cue были отредактированы
[teatrix.ru].t10279.torrent 
Торрент: Зарегистрирован [ 2015-11-01 20:51 ] · B28FB34C282306EEA43F50233F9E8B7DE4554A0A

Скачать .torrent

Скачать

15 KB

Статус: проверено
Скачан: 0 раз
Размер: 567 MB
terms.php



Быстрый ответ

Имя:

      
Для отправки сообщений необходимо включить JavaScript
Показать сообщения:    

Текущее время: 07-Дек 19:26

Часовой пояс: UTC + 3


Вы можете начинать темы
Вы можете отвечать на сообщения
Вы не можете редактировать свои сообщения
Вы не можете удалять свои сообщения
Вы не можете голосовать в опросах
Вы не можете прикреплять файлы к сообщениям
Вы можете скачивать файлы