(Score) Toon Tunes: Action-packed Anthems - 2001, FLAC (tracks+.cue), lossless


Статистика раздачи [Обновить пиров]
Размер:  304 MB   |    Зарегистрирован:  1 год 1 месяц   |    Скачан:  0 раз

Полного источника не было: Никогда

Личеров:  2  [  0 KB/s  ]   Подробная статистика пиров
 
   
 
 
 

[Цитировать]

Toon Tunes - Action-packed anthems
Название альбома: Toon Tunes - Action-packed anthems
Жанр: Score, Title tracks, Заглавные темы
Год выпуска диска: 2001
Страна-производитель диска: US
Издатель (лейбл): Rhino Entertainment Company
Номер по каталогу: R2 74337
Аудио кодек: FLAC (*.flac)
Тип рипа: tracks+.cue
Битрейт аудио: lossless
Продолжительность: 50:08
Источник: собственный рип
Наличие сканов в содержимом раздачи: да
Треклист:
1. Hanna, Barbera, Curtin - Superfriends (2:28)
2. Mook, Raleigh - Scooby-Doo, Where Are You? (1:03)
3. Koshibe, Fernandez - Speedracer (1:08)
4. Elfman - Batman: The Animated Series (1:02)
5. Katsaros - The Tick (1:01)
6. Chase, Rucker, Venable - The Powerpuff Girls (1:05)
7. Hanna, Barbera, Curtin - Jonny Quest (1:52)
8. Hanna, Barbera - Space Ghost (0:57)
9. Komoro, Oda, Heyward - Sailor Moon (1:34)
10. Harris, Webster - Spiderman (1:00)
11. Bass, Laws - King Kong (2:36)
12. Mark Mueller - Ducktales (2:53)
13. Biggers - Underdog (0:38)
14. Saban, Levy - X-Men (1:02)
15. Lerner - Popeye The Sailor (2:28)
16. Barer, Scheib - Mighty Mouse (1:36)
17. Sharples, Singleton - The Mighty Hercules (0:44)
18. Worth, Allman - Super Chicken (0:31)
19. Mark Mueller - Chip'n Dale Rescue Rangers (3:39)
20. Hanna, Barbera, Curtin - The New Scooby-Doo Movies (1:04)
21. Gart - The New Adventures Of Superman (0:56)
22. Takai, Rockwell - Astro Boy (1:12)
23. Brown, Lorre - Teenage Mutant Ninja Turtles (1:01)
24. Hanna, Barbera, Curtin - Hong Kong Phooey (1:01)
25. Steve Nelson, Thom Sharp - Darkwing Duck (1:02)
26. Fournier, Sheldon - The Hardy Boys (2:32)
27. Raskin, Singer - Gigantor (0:54)
28. Patty Silversher, Michael Silversher - Tale Spin (2:20)
29. traditional - Crusader Rabbit (0:34)
30. Hanna, Barbera, Curtin - The Amazing Chan And The Chan Clan (2:25)
31. Hanna, Barbera, Curtin - The Atom Ant Show (0:45)
32. Hanna, Barbera, Curtin - Touche Turtle (0:40)
33. Altman, Yazbek - Where On Earth Is Carmen Sandiego? (1:35)
34. Boxer, Mcfadden, Michaels, Mulholland - Captain Planet And The Planeteers (1:04)
35. Hanna, Barbera - The Secret Squirrel Show (0:45)
36. Hanna, Barbera, Curtin, Leonelli - The Real Adventures Of Johnny Quest (1:01)

Лог создания рипа

Exact Audio Copy V0.99 prebeta 5 from 4. May 2009
EAC extraction logfile from 15. May 2011, 17:41
Various / Toon Tunes - Action-Packed Anthems
Used drive : PLEXTOR DVDR PX-820A Adapter: 0 ID: 0
Read mode : SecureUtilize accurate stream : YesDefeat audio cache : YesMake use of C2 pointers : No
Read offset correction : 48Overread into Lead-In and Lead-Out : NoFill up missing offset samples with silence : YesDelete leading and trailing silent blocks : NoNull samples used in CRC calculations : YesUsed interface : Native Win32 interface for Win NT & 2000Gap handling : Appended to previous track
Used output format : User Defined EncoderSelected bitrate : 128 kBit/sQuality : HighAdd ID3 tag : NoCommand line compressor : C:\Program Files (x86)\Exact Audio Copy\Flac\flac.exeAdditional command line options : -8 -V -T "ARTIST=%a" -T "TITLE=%t" -T "ALBUM=%g" -T "DATE=%y" -T "TRACKNUMBER=%n" -T "GENRE=%m" -T "COMMENT=EAC FLAC -8" %s
TOC of the extracted CD
Track | Start | Length | Start sector | End sector --------------------------------------------------------- 1 | 0:00.32 | 2:28.13 | 32 | 11144 2 | 2:28.45 | 1:03.05 | 11145 | 15874 3 | 3:31.50 | 1:08.55 | 15875 | 21029 4 | 4:40.30 | 1:02.57 | 21030 | 25736 5 | 5:43.12 | 1:01.43 | 25737 | 30354 6 | 6:44.55 | 1:05.60 | 30355 | 35289 7 | 7:50.40 | 1:52.65 | 35290 | 43754 8 | 9:43.30 | 0:57.47 | 43755 | 48076 9 | 10:41.02 | 1:34.55 | 48077 | 55181 10 | 12:15.57 | 1:00.63 | 55182 | 59744 11 | 13:16.45 | 2:36.15 | 59745 | 71459 12 | 15:52.60 | 2:53.50 | 71460 | 84484 13 | 18:46.35 | 0:38.65 | 84485 | 87399 14 | 19:25.25 | 1:02.00 | 87400 | 92049 15 | 20:27.25 | 2:28.00 | 92050 | 103149 16 | 22:55.25 | 1:36.32 | 103150 | 110381 17 | 24:31.57 | 0:44.68 | 110382 | 113749 18 | 25:16.50 | 0:31.42 | 113750 | 116116 19 | 25:48.17 | 3:39.00 | 116117 | 132541 20 | 29:27.17 | 1:04.50 | 132542 | 137391 21 | 30:31.67 | 0:56.05 | 137392 | 141596 22 | 31:27.72 | 1:12.13 | 141597 | 147009 23 | 32:40.10 | 1:01.00 | 147010 | 151584 24 | 33:41.10 | 1:01.32 | 151585 | 156191 25 | 34:42.42 | 1:02.18 | 156192 | 160859 26 | 35:44.60 | 2:32.52 | 160860 | 172311 27 | 38:17.37 | 0:54.50 | 172312 | 176411 28 | 39:12.12 | 2:20.20 | 176412 | 186931 29 | 41:32.32 | 0:34.43 | 186932 | 189524 30 | 42:07.00 | 2:25.15 | 189525 | 200414 31 | 44:32.15 | 0:45.67 | 200415 | 203856 32 | 45:18.07 | 0:40.38 | 203857 | 206894 33 | 45:58.45 | 1:35.40 | 206895 | 214059 34 | 47:34.10 | 1:04.25 | 214060 | 218884 35 | 48:38.35 | 0:45.55 | 218885 | 222314 36 | 49:24.15 | 1:01.47 | 222315 | 226936
Track 1
Filename C:\_extract\01 - Superfriends.wav
Pre-gap length 0:00:02.32
Peak level 100.0 % Track quality 100.0 % Test CRC 369C641F Copy CRC 369C641F Accurately ripped (confidence 5) [73ECC233] Copy OK
Track 2
Filename C:\_extract\02 - Scooby-Doo, Where Are You .wav
Pre-gap length 0:00:01.65
Peak level 99.9 % Track quality 100.0 % Test CRC 72E281D5 Copy CRC 72E281D5 Accurately ripped (confidence 5) [F9EF8FBF] Copy OK
Track 3
Filename C:\_extract\03 - Speedracer.wav
Pre-gap length 0:00:01.60
Peak level 89.1 % Track quality 99.8 % Test CRC D0267E44 Copy CRC D0267E44 Accurately ripped (confidence 5) [C99AB780] Copy OK
Track 4
Filename C:\_extract\04 - Batman- The Animated Series.wav
Pre-gap length 0:00:01.58
Peak level 99.9 % Track quality 99.8 % Test CRC 77415D79 Copy CRC 77415D79 Accurately ripped (confidence 5) [43A035A7] Copy OK
Track 5
Filename C:\_extract\05 - The Tick.wav
Pre-gap length 0:00:01.67
Peak level 99.9 % Track quality 100.0 % Test CRC D44DB2CD Copy CRC D44DB2CD Accurately ripped (confidence 5) [F5F52970] Copy OK
Track 6
Filename C:\_extract\06 - The Powerpuff Girls.wav
Pre-gap length 0:00:02.03
Peak level 99.9 % Track quality 100.0 % Test CRC 1CF5E209 Copy CRC 1CF5E209 Accurately ripped (confidence 5) [FAC28321] Copy OK
Track 7
Filename C:\_extract\07 - Jonny Quest.wav
Pre-gap length 0:00:01.50
Peak level 99.9 % Track quality 99.8 % Test CRC 536ACC10 Copy CRC 536ACC10 Accurately ripped (confidence 5) [4B7442FD] Copy OK
Track 8
Filename C:\_extract\08 - Space Ghost.wav
Pre-gap length 0:00:01.53
Peak level 99.9 % Track quality 100.0 % Test CRC 17EE1846 Copy CRC 17EE1846 Accurately ripped (confidence 5) [1AF65C9D] Copy OK
Track 9
Filename C:\_extract\09 - Sailor Moon.wav
Pre-gap length 0:00:01.67
Peak level 99.9 % Track quality 100.0 % Test CRC A7D8BA5B Copy CRC A7D8BA5B Accurately ripped (confidence 5) [6F598CD9] Copy OK
Track 10
Filename C:\_extract\10 - Spiderman.wav
Pre-gap length 0:00:02.07
Peak level 99.9 % Track quality 99.8 % Test CRC 71C6D6D9 Copy CRC 71C6D6D9 Accurately ripped (confidence 5) [6BD365D5] Copy OK
Track 11
Filename C:\_extract\11 - King Kong.wav
Pre-gap length 0:00:01.40
Peak level 99.9 % Track quality 100.0 % Test CRC F6E8BF35 Copy CRC F6E8BF35 Accurately ripped (confidence 5) [25F24435] Copy OK
Track 12
Filename C:\_extract\12 - Ducktales.wav
Pre-gap length 0:00:01.58
Peak level 99.9 % Track quality 99.9 % Test CRC 753D39C6 Copy CRC 753D39C6 Accurately ripped (confidence 5) [181D0431] Copy OK
Track 13
Filename C:\_extract\13 - Underdog.wav
Pre-gap length 0:00:01.40
Peak level 99.9 % Track quality 99.7 % Test CRC 89659353 Copy CRC 89659353 Accurately ripped (confidence 5) [1E892FC6] Copy OK
Track 14
Filename C:\_extract\14 - X-Men.wav
Pre-gap length 0:00:01.68
Peak level 99.9 % Track quality 100.0 % Test CRC 83081FBE Copy CRC 83081FBE Accurately ripped (confidence 5) [60FD2D77] Copy OK
Track 15
Filename C:\_extract\15 - Popeye The Sailor.wav
Pre-gap length 0:00:01.60
Peak level 99.9 % Track quality 100.0 % Test CRC 5547447C Copy CRC 5547447C Accurately ripped (confidence 5) [174E9C22] Copy OK
Track 16
Filename C:\_extract\16 - Mighty Mouse.wav
Pre-gap length 0:00:01.55
Peak level 99.9 % Track quality 100.0 % Test CRC 1D34FB48 Copy CRC 1D34FB48 Accurately ripped (confidence 5) [5BD628CC] Copy OK
Track 17
Filename C:\_extract\17 - The Mighty Hercules.wav
Pre-gap length 0:00:01.62
Peak level 99.9 % Track quality 100.0 % Test CRC ABA5C136 Copy CRC ABA5C136 Accurately ripped (confidence 5) [311C14E5] Copy OK
Track 18
Filename C:\_extract\18 - Super Chicken.wav
Pre-gap length 0:00:01.73
Peak level 99.9 % Track quality 99.6 % Test CRC F92F3A00 Copy CRC F92F3A00 Accurately ripped (confidence 5) [9E92CABC] Copy OK
Track 19
Filename C:\_extract\19 - Chip'n Dale Rescue Rangers.wav
Pre-gap length 0:00:01.65
Peak level 99.9 % Track quality 100.0 % Test CRC 7F010A79 Copy CRC 7F010A79 Accurately ripped (confidence 5) [AD080D23] Copy OK
Track 20
Filename C:\_extract\20 - The New Scooby-Doo Movies.wav
Pre-gap length 0:00:01.60
Peak level 99.9 % Track quality 100.0 % Test CRC B4251CD7 Copy CRC B4251CD7 Accurately ripped (confidence 5) [22BBDCE8] Copy OK
Track 21
Filename C:\_extract\21 - The New Adventures Of Superman.wav
Pre-gap length 0:00:01.67
Peak level 99.9 % Track quality 100.0 % Test CRC 6B1348D8 Copy CRC 6B1348D8 Accurately ripped (confidence 5) [05367982] Copy OK
Track 22
Filename C:\_extract\22 - Astro Boy.wav
Pre-gap length 0:00:02.05
Peak level 99.9 % Track quality 100.0 % Test CRC C7BA9D39 Copy CRC C7BA9D39 Accurately ripped (confidence 5) [1FDED78D] Copy OK
Track 23
Filename C:\_extract\23 - Teenage Mutant Ninja Turtles.wav
Pre-gap length 0:00:01.55
Peak level 99.9 % Track quality 100.0 % Test CRC F85E418A Copy CRC F85E418A Accurately ripped (confidence 5) [76C364D5] Copy OK
Track 24
Filename C:\_extract\24 - Hong Kong Phooey.wav
Pre-gap length 0:00:01.68
Peak level 100.0 % Track quality 99.8 % Test CRC 8ACB497D Copy CRC 8ACB497D Accurately ripped (confidence 5) [9F9A7DAF] Copy OK
Track 25
Filename C:\_extract\25 - Darkwing Duck.wav
Pre-gap length 0:00:01.62
Peak level 99.9 % Track quality 100.0 % Test CRC 2C8AEE87 Copy CRC 2C8AEE87 Accurately ripped (confidence 5) [FAE3F23A] Copy OK
Track 26
Filename C:\_extract\26 - The Hardy Boys.wav
Pre-gap length 0:00:01.70
Peak level 99.8 % Track quality 100.0 % Test CRC 9CAD296E Copy CRC 9CAD296E Accurately ripped (confidence 5) [2DF7F0F0] Copy OK
Track 27
Filename C:\_extract\27 - Gigantor.wav
Pre-gap length 0:00:01.45
Peak level 99.9 % Track quality 100.0 % Test CRC 11E6A970 Copy CRC 11E6A970 Accurately ripped (confidence 5) [84C268F3] Copy OK
Track 28
Filename C:\_extract\28 - Tale Spin.wav
Pre-gap length 0:00:01.60
Peak level 99.9 % Track quality 100.0 % Test CRC 124985C2 Copy CRC 124985C2 Accurately ripped (confidence 5) [7A4A0F4C] Copy OK
Track 29
Filename C:\_extract\29 - Crusader Rabbit.wav
Pre-gap length 0:00:01.60
Peak level 89.0 % Track quality 100.0 % Test CRC 35799609 Copy CRC 35799609 Accurately ripped (confidence 5) [F176EC26] Copy OK
Track 30
Filename C:\_extract\30 - The Amazing Chan And The Chan Clan.wav
Pre-gap length 0:00:01.65
Peak level 100.0 % Track quality 100.0 % Test CRC 38FC8F60 Copy CRC 38FC8F60 Accurately ripped (confidence 5) [CC9831FA] Copy OK
Track 31
Filename C:\_extract\31 - The Atom Ant Show.wav
Pre-gap length 0:00:01.53
Peak level 99.9 % Track quality 100.0 % Test CRC DE1BAE0C Copy CRC DE1BAE0C Accurately ripped (confidence 5) [D9FE4F54] Copy OK
Track 32
Filename C:\_extract\32 - Touche Turtle.wav
Pre-gap length 0:00:01.70
Peak level 99.9 % Track quality 99.7 % Test CRC 54E22858 Copy CRC 54E22858 Accurately ripped (confidence 5) [60032444] Copy OK
Track 33
Filename C:\_extract\33 - Where On Earth Is Carmen Sandiego .wav
Pre-gap length 0:00:02.13
Peak level 99.9 % Track quality 100.0 % Test CRC 0706ADCD Copy CRC 0706ADCD Accurately ripped (confidence 5) [C7B7204F] Copy OK
Track 34
Filename C:\_extract\34 - Captain Planet And The Planeteers.wav
Pre-gap length 0:00:02.03
Peak level 94.1 % Track quality 100.0 % Test CRC 36F3ED88 Copy CRC 36F3ED88 Accurately ripped (confidence 5) [5E72B2FB] Copy OK
Track 35
Filename C:\_extract\35 - The Secret Squirrel Show.wav
Pre-gap length 0:00:01.68
Peak level 93.8 % Track quality 100.0 % Test CRC E503C49D Copy CRC E503C49D Accurately ripped (confidence 5) [8390A778] Copy OK
Track 36
Filename C:\_extract\36 - The Real Adventures Of Johnny Quest.wav
Pre-gap length 0:00:01.68
Peak level 99.9 % Track quality 100.0 % Test CRC 453345AC Copy CRC 453345AC Accurately ripped (confidence 5) [29F900C0] Copy OK
All tracks accurately ripped
No errors occurred
End of status report

Содержание индексной карты (.CUE)

REM DATE 2001REM DISCID 200BD124REM COMMENT "ExactAudioCopy v0.99pb5"PERFORMER "Various"TITLE "Toon Tunes - Action-Packed Anthems"FILE "01 - Superfriends.wav" WAVE TRACK 01 AUDIO TITLE "Superfriends" PERFORMER "Hanna, Barbera, Curtin" PREGAP 00:00:32 INDEX 01 00:00:00 TRACK 02 AUDIO TITLE "Scooby-Doo, Where Are You?" PERFORMER "Mook, Raleigh" INDEX 00 02:26:23FILE "02 - Scooby-Doo, Where Are You.wav" WAVE INDEX 01 00:00:00 TRACK 03 AUDIO TITLE "Speedracer" PERFORMER "Koshibe, Fernandez" INDEX 00 01:01:20FILE "03 - Speedracer.wav" WAVE INDEX 01 00:00:00 TRACK 04 AUDIO TITLE "Batman: The Animated Series" PERFORMER "Elfman" INDEX 00 01:06:72FILE "04 - Batman- The Animated Series.wav" WAVE INDEX 01 00:00:00 TRACK 05 AUDIO TITLE "The Tick" PERFORMER "Katsaros" INDEX 00 01:00:65FILE "05 - The Tick.wav" WAVE INDEX 01 00:00:00 TRACK 06 AUDIO TITLE "The Powerpuff Girls" PERFORMER "Chase, Rucker, Venable" INDEX 00 00:59:40FILE "06 - The Powerpuff Girls.wav" WAVE INDEX 01 00:00:00 TRACK 07 AUDIO TITLE "Jonny Quest" PERFORMER "Hanna, Barbera, Curtin" INDEX 00 01:04:10FILE "07 - Jonny Quest.wav" WAVE INDEX 01 00:00:00 TRACK 08 AUDIO TITLE "Space Ghost" PERFORMER "Hanna, Barbera" INDEX 00 01:51:12FILE "08 - Space Ghost.wav" WAVE INDEX 01 00:00:00 TRACK 09 AUDIO TITLE "Sailor Moon" PERFORMER "Komoro, Oda, Heyward" INDEX 00 00:55:55FILE "09 - Sailor Moon.wav" WAVE INDEX 01 00:00:00 TRACK 10 AUDIO TITLE "Spiderman" PERFORMER "Harris, Webster" INDEX 00 01:32:48FILE "10 - Spiderman.wav" WAVE INDEX 01 00:00:00 TRACK 11 AUDIO TITLE "King Kong" PERFORMER "Bass, Laws" INDEX 00 00:59:23FILE "11 - King Kong.wav" WAVE INDEX 01 00:00:00 TRACK 12 AUDIO TITLE "Ducktales" PERFORMER "Mark Mueller" INDEX 00 02:34:32FILE "12 - Ducktales.wav" WAVE INDEX 01 00:00:00 TRACK 13 AUDIO TITLE "Underdog" PERFORMER "Biggers" INDEX 00 02:52:10FILE "13 - Underdog.wav" WAVE INDEX 01 00:00:00 TRACK 14 AUDIO TITLE "X-Men" PERFORMER "Saban, Levy" INDEX 00 00:36:72FILE "14 - X-Men.wav" WAVE INDEX 01 00:00:00 TRACK 15 AUDIO TITLE "Popeye The Sailor" PERFORMER "Lerner" INDEX 00 01:00:15FILE "15 - Popeye The Sailor.wav" WAVE INDEX 01 00:00:00 TRACK 16 AUDIO TITLE "Mighty Mouse" PERFORMER "Barer, Scheib" INDEX 00 02:26:20FILE "16 - Mighty Mouse.wav" WAVE INDEX 01 00:00:00 TRACK 17 AUDIO TITLE "The Mighty Hercules" PERFORMER "Sharples, Singleton" INDEX 00 01:34:45FILE "17 - The Mighty Hercules.wav" WAVE INDEX 01 00:00:00 TRACK 18 AUDIO TITLE "Super Chicken" PERFORMER "Worth, Allman" INDEX 00 00:42:70FILE "18 - Super Chicken.wav" WAVE INDEX 01 00:00:00 TRACK 19 AUDIO TITLE "Chip'n Dale Rescue Rangers" PERFORMER "Mark Mueller" INDEX 00 00:29:52FILE "19 - Chip'n Dale Rescue Rangers.wav" WAVE INDEX 01 00:00:00 TRACK 20 AUDIO TITLE "The New Scooby-Doo Movies" PERFORMER "Hanna, Barbera, Curtin" INDEX 00 03:37:15FILE "20 - The New Scooby-Doo Movies.wav" WAVE INDEX 01 00:00:00 TRACK 21 AUDIO TITLE "The New Adventures Of Superman" PERFORMER "Gart" INDEX 00 01:02:58FILE "21 - The New Adventures Of Superman.wav" WAVE INDEX 01 00:00:00 TRACK 22 AUDIO TITLE "Astro Boy" PERFORMER "Takai, Rockwell" INDEX 00 00:54:00FILE "22 - Astro Boy.wav" WAVE INDEX 01 00:00:00 TRACK 23 AUDIO TITLE "Teenage Mutant Ninja Turtles" PERFORMER "Brown, Lorre" INDEX 00 01:10:33FILE "23 - Teenage Mutant Ninja Turtles.wav" WAVE INDEX 01 00:00:00 TRACK 24 AUDIO TITLE "Hong Kong Phooey" PERFORMER "Hanna, Barbera, Curtin" INDEX 00 00:59:07FILE "24 - Hong Kong Phooey.wav" WAVE INDEX 01 00:00:00 TRACK 25 AUDIO TITLE "Darkwing Duck" PERFORMER "Steve Nelson, Thom Sharp" INDEX 00 00:59:45FILE "25 - Darkwing Duck.wav" WAVE INDEX 01 00:00:00 TRACK 26 AUDIO TITLE "The Hardy Boys" PERFORMER "Fournier, Sheldon" INDEX 00 01:00:23FILE "26 - The Hardy Boys.wav" WAVE INDEX 01 00:00:00 TRACK 27 AUDIO TITLE "Gigantor" PERFORMER "Raskin, Singer" INDEX 00 02:31:07FILE "27 - Gigantor.wav" WAVE INDEX 01 00:00:00 TRACK 28 AUDIO TITLE "Tale Spin" PERFORMER "Patty Silversher, Michael Silversher" INDEX 00 00:52:65FILE "28 - Tale Spin.wav" WAVE INDEX 01 00:00:00 TRACK 29 AUDIO TITLE "Crusader Rabbit" PERFORMER "traditional" INDEX 00 02:18:35FILE "29 - Crusader Rabbit.wav" WAVE INDEX 01 00:00:00 TRACK 30 AUDIO TITLE "The Amazing Chan And The Chan Clan" PERFORMER "Hanna, Barbera, Curtin" INDEX 00 00:32:53FILE "30 - The Amazing Chan And The Chan Clan.wav" WAVE INDEX 01 00:00:00 TRACK 31 AUDIO TITLE "The Atom Ant Show" PERFORMER "Hanna, Barbera, Curtin" INDEX 00 02:23:37FILE "31 - The Atom Ant Show.wav" WAVE INDEX 01 00:00:00 TRACK 32 AUDIO TITLE "Touche Turtle" PERFORMER "Hanna, Barbera, Curtin" INDEX 00 00:43:72FILE "32 - Touche Turtle.wav" WAVE INDEX 01 00:00:00 TRACK 33 AUDIO TITLE "Where On Earth Is Carmen Sandiego?" PERFORMER "Altman, Yazbek" INDEX 00 00:38:25FILE "33 - Where On Earth Is Carmen Sandiego.wav" WAVE INDEX 01 00:00:00 TRACK 34 AUDIO TITLE "Captain Planet And The Planeteers" PERFORMER "Boxer, Mcfadden, Michaels, Mulholland" INDEX 00 01:33:37FILE "34 - Captain Planet And The Planeteers.wav" WAVE INDEX 01 00:00:00 TRACK 35 AUDIO TITLE "The Secret Squirrel Show" PERFORMER "Hanna, Barbera" INDEX 00 01:02:32FILE "35 - The Secret Squirrel Show.wav" WAVE INDEX 01 00:00:00 TRACK 36 AUDIO TITLE "The Real Adventures Of Johnny Quest" PERFORMER "Hanna, Barbera, Curtin, Leonelli" INDEX 00 00:43:62FILE "36 - The Real Adventures Of Johnny Quest.wav" WAVE INDEX 01 00:00:00

Лог проверки качества

AUDIOCHECKER v2.0 beta (build 457) - by Dester - opdester@freemail.hu~~~~~~~~~~~~~~~~~~~~~~~~~~~~~~~~~~
Started at: понедельник, 16. 05. 2011. - 3:05.2536 files found
01 -===- C:\_extract\01 - Superfriends.flac Extracted successfully Conclusion: this track is CDDA with probability 100% Tempfile successfully deleted.
02 -===- C:\_extract\02 - Scooby-Doo, Where Are You.flac Extracted successfully Conclusion: this track is CDDA with probability 100% Tempfile successfully deleted.
03 -===- C:\_extract\03 - Speedracer.flac Extracted successfully Conclusion: this track is CDDA with probability 100% Tempfile successfully deleted.
04 -===- C:\_extract\04 - Batman- The Animated Series.flac Extracted successfully Conclusion: this track is CDDA with probability 100% Tempfile successfully deleted.
05 -===- C:\_extract\05 - The Tick.flac Extracted successfully Conclusion: this track is CDDA with probability 100% Tempfile successfully deleted.
06 -===- C:\_extract\06 - The Powerpuff Girls.flac Extracted successfully Conclusion: this track is CDDA with probability 100% Tempfile successfully deleted.
07 -===- C:\_extract\07 - Jonny Quest.flac Extracted successfully Conclusion: this track is CDDA with probability 100% Tempfile successfully deleted.
08 -===- C:\_extract\08 - Space Ghost.flac Extracted successfully Conclusion: this track is CDDA with probability 100% Tempfile successfully deleted.
09 -===- C:\_extract\09 - Sailor Moon.flac Extracted successfully Conclusion: this track is CDDA with probability 100% Tempfile successfully deleted.
10 -===- C:\_extract\10 - Spiderman.flac Extracted successfully Conclusion: this track is CDDA with probability 100% Tempfile successfully deleted.
11 -===- C:\_extract\11 - King Kong.flac Extracted successfully Conclusion: this track is CDDA with probability 99% Tempfile successfully deleted.
12 -===- C:\_extract\12 - Ducktales.flac Extracted successfully Conclusion: this track is CDDA with probability 100% Tempfile successfully deleted.
13 -===- C:\_extract\13 - Underdog.flac Extracted successfully Conclusion: this track is CDDA with probability 100% Tempfile successfully deleted.
14 -===- C:\_extract\14 - X-Men.flac Extracted successfully Conclusion: this track is CDDA with probability 100% Tempfile successfully deleted.
15 -===- C:\_extract\15 - Popeye The Sailor.flac Extracted successfully Conclusion: this track is CDDA with probability 100% Tempfile successfully deleted.
16 -===- C:\_extract\16 - Mighty Mouse.flac Extracted successfully Conclusion: this track is CDDA with probability 99% Tempfile successfully deleted.
17 -===- C:\_extract\17 - The Mighty Hercules.flac Extracted successfully Conclusion: this track is CDDA with probability 100% Tempfile successfully deleted.
18 -===- C:\_extract\18 - Super Chicken.flac Extracted successfully Conclusion: this track is CDDA with probability 100% Tempfile successfully deleted.
19 -===- C:\_extract\19 - Chip'n Dale Rescue Rangers.flac Extracted successfully Conclusion: this track is CDDA with probability 100% Tempfile successfully deleted.
20 -===- C:\_extract\20 - The New Scooby-Doo Movies.flac Extracted successfully Conclusion: this track is CDDA with probability 99% Tempfile successfully deleted.
21 -===- C:\_extract\21 - The New Adventures Of Superman.flac Extracted successfully Conclusion: this track is CDDA with probability 100% Tempfile successfully deleted.
22 -===- C:\_extract\22 - Astro Boy.flac Extracted successfully Conclusion: this track is CDDA with probability 100% Tempfile successfully deleted.
23 -===- C:\_extract\23 - Teenage Mutant Ninja Turtles.flac Extracted successfully Conclusion: this track is CDDA with probability 99% Tempfile successfully deleted.
24 -===- C:\_extract\24 - Hong Kong Phooey.flac Extracted successfully Conclusion: this track is CDDA with probability 100% Tempfile successfully deleted.
25 -===- C:\_extract\25 - Darkwing Duck.flac Extracted successfully Conclusion: this track is CDDA with probability 100% Tempfile successfully deleted.
26 -===- C:\_extract\26 - The Hardy Boys.flac Extracted successfully Conclusion: this track is CDDA with probability 100% Tempfile successfully deleted.
27 -===- C:\_extract\27 - Gigantor.flac Extracted successfully Conclusion: this track is CDDA with probability 100% Tempfile successfully deleted.
28 -===- C:\_extract\28 - Tale Spin.flac Extracted successfully Conclusion: this track is CDDA with probability 100% Tempfile successfully deleted.
29 -===- C:\_extract\29 - Crusader Rabbit.flac Extracted successfully Conclusion: this track is CDDA with probability 100% Tempfile successfully deleted.
30 -===- C:\_extract\30 - The Amazing Chan And The Chan Clan.flac Extracted successfully Conclusion: this track is CDDA with probability 99% Tempfile successfully deleted.
31 -===- C:\_extract\31 - The Atom Ant Show.flac Extracted successfully Conclusion: this track is CDDA with probability 100% Tempfile successfully deleted.
32 -===- C:\_extract\32 - Touche Turtle.flac Extracted successfully Conclusion: this track is CDDA with probability 100% Tempfile successfully deleted.
33 -===- C:\_extract\33 - Where On Earth Is Carmen Sandiego.flac Extracted successfully Conclusion: this track is CDDA with probability 100% Tempfile successfully deleted.
34 -===- C:\_extract\34 - Captain Planet And The Planeteers.flac Extracted successfully Conclusion: this track is CDDA with probability 100% Tempfile successfully deleted.
35 -===- C:\_extract\35 - The Secret Squirrel Show.flac Extracted successfully Conclusion: this track is CDDA with probability 99% Tempfile successfully deleted.
36 -===- C:\_extract\36 - The Real Adventures Of Johnny Quest.flac Extracted successfully Conclusion: this track is CDDA with probability 100% Tempfile successfully deleted.
Finished at: понедельник, 16. 05. 2011. - 3:08.36 (operation time: 0:03.10)

Скриншот спектра частот

Об альбоме (сборнике)

Лейбл Rhino Entertainment Company, принадлежащая Warner Music Group, специализируется на издании различной музыки, однако, в 2001 году выпустил на свет компиляцию из заглавных тем множества популярных во второй половине 20 столетия мультфильмов. Так как музыка была записана за разный период, качество звучания соответственно различается. Больше мне об альбоме сказать нечего. Купил много лет назад из-за наличия там трека к Чёрному Плащу в хорошем качестве (до этого в интернете его просто не было!).
[teatrix.ru].t10280.torrent 
Торрент: Зарегистрирован [ 2015-11-01 20:51 ] · BC4D0F9EF58B226A8B5F5F69BB4B1D4ACACAC986

Скачать .torrent

Скачать

15 KB

Статус: проверено
Скачан: 0 раз
Размер: 304 MB
terms.php



Быстрый ответ

Имя:

      
Для отправки сообщений необходимо включить JavaScript
Показать сообщения:    

Текущее время: 05-Дек 03:29

Часовой пояс: UTC + 3


Вы можете начинать темы
Вы можете отвечать на сообщения
Вы не можете редактировать свои сообщения
Вы не можете удалять свои сообщения
Вы не можете голосовать в опросах
Вы не можете прикреплять файлы к сообщениям
Вы можете скачивать файлы