(Score) Восстание планеты обезьян / Rise Of The Planet Of The Apes (by Patrick Doyle) - 2011, FLAC (tracks+.cue), lossless


Статистика раздачи [Обновить пиров]
Размер:  371 MB   |    Зарегистрирован:  1 год 1 месяц   |    Скачан:  1 раз

Полного источника не было: 11 часов

Личеров:  2  [  0 KB/s  ]   Подробная статистика пиров
 
   
 
 
 

[Цитировать]

Восстание планеты обезьян / Rise Of The Planet Of The Apes-Жанр: Score
Композитор: Patrick Doyle
Год выпуска диска: 2011
Производитель диска: USA
Издатель (лейбл): Varèse Sarabande
Номер по каталогу: 302 067 106 2-Аудиокодек: FLAC (*.flac)
Тип рипа: tracks+.cue
Битрейт аудио: lossless
Продолжительность: 01:01:18
Источник: собственный рип
Наличие сканов в содержимом раздачи: да, 600 dpi-Ссылки: Кинопоиск | IMDB | Wikipedia | SoundtrackCollector

Треклист

01. The Beginning [0:02:48.33]
02. Bright Eyes Escapes [0:03:37.69]
03. Lofty Swing [0:01:36.22]
04. Stealing The 112 [0:01:51.62]
05. Muir Woods [0:01:20.25]
06. Off You Go [0:02:16.74]
07. Who Am I? [0:02:20.70]
08. Caesar Protects Charles [0:03:57.67]
09. The Primate Facility [0:02:44.54]
10. Dodge Hoses Caesar [0:01:39.43]
11. Rocket Attacks Caesar [0:01:24.00]
12. Visiting Time [0:02:16.46]
13. 'Caesing' The Knife [0:02:04.15]
14. Buck Is Released [0:01:51.38]
15. Charles Slips Away [0:01:16.29]
16. Cookies [0:01:15.25]
17. Inhaling The Virus [0:02:45.21]
18. Caesar Says No [0:04:23.28]
19. Gen-Sys Freedom [0:04:56.60]
20. Zoo Breakout [0:02:40.59]
21. Golden Gate Bridge [0:05:21.03]
22. The Apes Attack [0:02:09.56]
23. Caesar And Buck [0:01:57.54]
24. Caesar's Home [0:02:40.01]

Лог создания рипа

Exact Audio Copy V1.1 from 23. June 2015
EAC extraction logfile from 3. October 2015, 20:13
Patrick Doyle / Rise Of The Planet Of The Apes
Used drive : PLEXTOR CD-R PX-230A Adapter: 1 ID: 2
Read mode : SecureUtilize accurate stream : YesDefeat audio cache : YesMake use of C2 pointers : No
Read offset correction : 738Overread into Lead-In and Lead-Out : NoFill up missing offset samples with silence : YesDelete leading and trailing silent blocks : NoNull samples used in CRC calculations : YesUsed interface : Native Win32 interface for Win NT & 2000Gap handling : Appended to previous track
Used output format : User Defined EncoderSelected bitrate : 1024 kBit/sQuality : HighAdd ID3 tag : NoCommand line compressor : C:\Program Files (x86)\Exact Audio Copy\FLAC\FLAC.EXEAdditional command line options : -6 -V -T "ARTIST=%artist%" -T "TITLE=%title%" -T "ALBUM=%albumtitle%" -T "DATE=%year%"-T "TRACKNUMBER=%tracknr%" -T "GENRE=%genre%" -T "COMMENT=%comment%" -T "ALBUMARTIST=%albuminterpret%" -T "COMPOSER=%composer%"-T "DISCNUMBER=%cdnumber%" -T "TOTALDISCS=%totalcds%" -T "TOTALTRACKS=%numtracks%" %source% -o %dest%
TOC of the extracted CD
Track | Start | Length | Start sector | End sector --------------------------------------------------------- 1 | 0:00.00 | 2:48.33 | 0 | 12632 2 | 2:48.33 | 3:37.69 | 12633 | 28976 3 | 6:26.27 | 1:36.22 | 28977 | 36198 4 | 8:02.49 | 1:51.62 | 36199 | 44585 5 | 9:54.36 | 1:20.25 | 44586 | 50610 6 | 11:14.61 | 2:16.74 | 50611 | 60884 7 | 13:31.60 | 2:20.70 | 60885 | 71454 8 | 15:52.55 | 3:57.67 | 71455 | 89296 9 | 19:50.47 | 2:44.54 | 89297 | 101650 10 | 22:35.26 | 1:39.43 | 101651 | 109118 11 | 24:14.69 | 1:24.00 | 109119 | 115418 12 | 25:38.69 | 2:16.46 | 115419 | 125664 13 | 27:55.40 | 2:04.15 | 125665 | 134979 14 | 29:59.55 | 1:51.38 | 134980 | 143342 15 | 31:51.18 | 1:16.29 | 143343 | 149071 16 | 33:07.47 | 1:15.25 | 149072 | 154721 17 | 34:22.72 | 2:45.21 | 154722 | 167117 18 | 37:08.18 | 4:23.28 | 167118 | 186870 19 | 41:31.46 | 4:56.60 | 186871 | 209130 20 | 46:28.31 | 2:40.59 | 209131 | 221189 21 | 49:09.15 | 5:21.03 | 221190 | 245267 22 | 54:30.18 | 2:09.56 | 245268 | 254998 23 | 56:39.74 | 1:57.54 | 254999 | 263827 24 | 58:37.53 | 2:40.01 | 263828 | 275828
Track 1
Filename C:\Music\01 - Patrick Doyle - The Beginning.wav
Pre-gap length 0:00:02.00
Peak level 94.8 % Extraction speed 4.8 X Track quality 100.0 % Test CRC 61108D16 Copy CRC 61108D16 Accurately ripped (confidence 16) [A2364372] (AR v2) Copy OK
Track 2
Filename C:\Music\02 - Patrick Doyle - Bright Eyes Escapes.wav
Pre-gap length 0:00:03.24
Peak level 94.7 % Extraction speed 5.3 X Track quality 100.0 % Test CRC 06AFCCF3 Copy CRC 06AFCCF3 Accurately ripped (confidence 16) [407F1B41] (AR v2) Copy OK
Track 3
Filename C:\Music\03 - Patrick Doyle - Lofty Swing.wav
Pre-gap length 0:00:02.61
Peak level 61.9 % Extraction speed 3.5 X Track quality 99.8 % Test CRC 1D85A61B Copy CRC 1D85A61B Accurately ripped (confidence 16) [5E52A003] (AR v2) Copy OK
Track 4
Filename C:\Music\04 - Patrick Doyle - Stealing The 112.wav
Pre-gap length 0:00:03.37
Peak level 61.9 % Extraction speed 4.6 X Track quality 100.0 % Test CRC 95963FA8 Copy CRC 95963FA8 Accurately ripped (confidence 16) [4F6E53CF] (AR v2) Copy OK
Track 5
Filename C:\Music\05 - Patrick Doyle - Muir Woods.wav
Pre-gap length 0:00:04.33
Peak level 94.6 % Extraction speed 3.3 X Track quality 99.8 % Test CRC 17BFC06A Copy CRC 17BFC06A Accurately ripped (confidence 16) [C71D9B9A] (AR v2) Copy OK
Track 6
Filename C:\Music\06 - Patrick Doyle - Off You Go.wav
Pre-gap length 0:00:03.50
Peak level 94.8 % Extraction speed 4.9 X Track quality 100.0 % Test CRC 3D9888C0 Copy CRC 3D9888C0 Accurately ripped (confidence 16) [4ECB31C7] (AR v2) Copy OK
Track 7
Filename C:\Music\07 - Patrick Doyle - Who Am I.wav
Pre-gap length 0:00:04.49
Peak level 55.0 % Extraction speed 4.9 X Track quality 100.0 % Test CRC 4C33429D Copy CRC 4C33429D Accurately ripped (confidence 16) [EC85535D] (AR v2) Copy OK
Track 8
Filename C:\Music\08 - Patrick Doyle - Caesar Protects Charles.wav
Pre-gap length 0:00:03.73
Peak level 94.7 % Extraction speed 5.4 X Track quality 100.0 % Test CRC E9CC135C Copy CRC E9CC135C Accurately ripped (confidence 16) [15864644] (AR v2) Copy OK
Track 9
Filename C:\Music\09 - Patrick Doyle - The Primate Facility.wav
Pre-gap length 0:00:03.18
Peak level 94.7 % Extraction speed 4.8 X Track quality 100.0 % Test CRC 7B971FB1 Copy CRC 7B971FB1 Accurately ripped (confidence 16) [B2AD7896] (AR v2) Copy OK
Track 10
Filename C:\Music\10 - Patrick Doyle - Dodge Hoses Caesar.wav
Pre-gap length 0:00:02.39
Peak level 94.8 % Extraction speed 3.2 X Track quality 99.8 % Test CRC 1DEA5475 Copy CRC 1DEA5475 Accurately ripped (confidence 16) [EFB54DE9] (AR v2) Copy OK
Track 11
Filename C:\Music\11 - Patrick Doyle - Rocket Attacks Caesar.wav
Pre-gap length 0:00:03.58
Peak level 94.9 % Extraction speed 2.4 X Track quality 99.8 % Test CRC A22E68D3 Copy CRC A22E68D3 Accurately ripped (confidence 16) [8446FBB8] (AR v2) Copy OK
Track 12
Filename C:\Music\12 - Patrick Doyle - Visiting Time.wav
Pre-gap length 0:00:02.31
Peak level 94.6 % Extraction speed 4.8 X Track quality 100.0 % Test CRC EFA864EE Copy CRC EFA864EE Accurately ripped (confidence 16) [E5FE3DF4] (AR v2) Copy OK
Track 13
Filename C:\Music\13 - Patrick Doyle - 'Caesing' The Knife.wav
Pre-gap length 0:00:04.30
Peak level 75.2 % Extraction speed 4.5 X Track quality 100.0 % Test CRC 64B3C871 Copy CRC 64B3C871 Accurately ripped (confidence 16) [40946FAE] (AR v2) Copy OK
Track 14
Filename C:\Music\14 - Patrick Doyle - Buck Is Released.wav
Pre-gap length 0:00:02.26
Peak level 98.5 % Extraction speed 4.6 X Track quality 100.0 % Test CRC 9B1B8FD6 Copy CRC 9B1B8FD6 Accurately ripped (confidence 16) [854FCB2F] (AR v2) Copy OK
Track 15
Filename C:\Music\15 - Patrick Doyle - Charles Slips Away.wav
Pre-gap length 0:00:03.17
Peak level 19.7 % Extraction speed 3.9 X Track quality 100.0 % Test CRC 33A9AA9B Copy CRC 33A9AA9B Accurately ripped (confidence 16) [9F6C71AD] (AR v2) Copy OK
Track 16
Filename C:\Music\16 - Patrick Doyle - Cookies.wav
Pre-gap length 0:00:02.34
Peak level 94.7 % Extraction speed 3.0 X Track quality 99.8 % Test CRC 6665C56B Copy CRC 6665C56B Accurately ripped (confidence 16) [E850F182] (AR v2) Copy OK
Track 17
Filename C:\Music\17 - Patrick Doyle - Inhaling The Virus.wav
Pre-gap length 0:00:02.60
Peak level 98.6 % Extraction speed 5.0 X Track quality 100.0 % Test CRC 94E0DC11 Copy CRC 94E0DC11 Accurately ripped (confidence 16) [237BB572] (AR v2) Copy OK
Track 18
Filename C:\Music\18 - Patrick Doyle - Caesar Says No.wav
Pre-gap length 0:00:03.43
Peak level 94.8 % Extraction speed 5.3 X Track quality 100.0 % Test CRC 949EC6DE Copy CRC 949EC6DE Accurately ripped (confidence 16) [224D28EE] (AR v2) Copy OK
Track 19
Filename C:\Music\19 - Patrick Doyle - Gen-Sys Freedom.wav
Pre-gap length 0:00:04.26
Peak level 94.8 % Extraction speed 4.9 X Track quality 99.9 % Test CRC ED1C7229 Copy CRC ED1C7229 Accurately ripped (confidence 16) [DB65F7CB] (AR v2) Copy OK
Track 20
Filename C:\Music\20 - Patrick Doyle - Zoo Breakout.wav
Pre-gap length 0:00:03.03
Peak level 98.6 % Extraction speed 4.9 X Track quality 100.0 % Test CRC 2BE4894C Copy CRC 2BE4894C Accurately ripped (confidence 16) [856D368F] (AR v2) Copy OK
Track 21
Filename C:\Music\21 - Patrick Doyle - Golden Gate Bridge.wav
Pre-gap length 0:00:03.16
Peak level 84.5 % Extraction speed 4.5 X Track quality 99.9 % Test CRC 9C933BD3 Copy CRC 9C933BD3 Accurately ripped (confidence 16) [277E0686] (AR v2) Copy OK
Track 22
Filename C:\Music\22 - Patrick Doyle - The Apes Attack.wav
Pre-gap length 0:00:02.59
Peak level 98.5 % Extraction speed 4.7 X Track quality 100.0 % Test CRC 9F4B6E9B Copy CRC 9F4B6E9B Accurately ripped (confidence 16) [678B0880] (AR v2) Copy OK
Track 23
Filename C:\Music\23 - Patrick Doyle - Caesar And Buck.wav
Pre-gap length 0:00:02.40
Peak level 94.7 % Extraction speed 4.6 X Track quality 100.0 % Test CRC 604255E4 Copy CRC 604255E4 Accurately ripped (confidence 16) [45ABAC69] (AR v2) Copy OK
Track 24
Filename C:\Music\24 - Patrick Doyle - Caesar's Home.wav
Pre-gap length 0:00:01.15
Peak level 84.5 % Extraction speed 4.0 X Track quality 99.9 % Test CRC DB67E98D Copy CRC DB67E98D Accurately ripped (confidence 16) [6DB8CC7D] (AR v2) Copy OK
All tracks accurately ripped
No errors occurred
End of status report
---- CUETools DB Plugin V2.1.6
[CTDB TOCID: r_eoEj4bAfPCPZNzjY9_AecsAQA-] foundSubmit result: r_eoEj4bAfPCPZNzjY9_AecsAQA- has been confirmedTrack | CTDB Status 1 | (13/13) Accurately ripped 2 | (13/13) Accurately ripped 3 | (13/13) Accurately ripped 4 | (13/13) Accurately ripped 5 | (13/13) Accurately ripped 6 | (13/13) Accurately ripped 7 | (13/13) Accurately ripped 8 | (13/13) Accurately ripped 9 | (13/13) Accurately ripped 10 | (13/13) Accurately ripped 11 | (13/13) Accurately ripped 12 | (13/13) Accurately ripped 13 | (13/13) Accurately ripped 14 | (13/13) Accurately ripped 15 | (13/13) Accurately ripped 16 | (13/13) Accurately ripped 17 | (13/13) Accurately ripped 18 | (13/13) Accurately ripped 19 | (13/13) Accurately ripped 20 | (13/13) Accurately ripped 21 | (13/13) Accurately ripped 22 | (13/13) Accurately ripped 23 | (13/13) Accurately ripped 24 | (13/13) Accurately ripped
==== Log checksum D44D7368F96661F308D079583CCEF763C6FFE967A86FCDB25DC5504F3D74583F ====

Содержание индексной карты (.CUE)

REM GENRE SoundtrackREM DATE 2011REM DISCID 620E5D18REM COMMENT "ExactAudioCopy v1.1"PERFORMER "Patrick Doyle"TITLE "Rise Of The Planet Of The Apes"FILE "01 - Patrick Doyle - The Beginning.wav" WAVE TRACK 01 AUDIO TITLE "The Beginning" PERFORMER "Patrick Doyle" INDEX 01 00:00:00 TRACK 02 AUDIO TITLE "Bright Eyes Escapes" PERFORMER "Patrick Doyle" INDEX 00 02:45:09FILE "02 - Patrick Doyle - Bright Eyes Escapes.wav" WAVE INDEX 01 00:00:00 TRACK 03 AUDIO TITLE "Lofty Swing" PERFORMER "Patrick Doyle" INDEX 00 03:35:08FILE "03 - Patrick Doyle - Lofty Swing.wav" WAVE INDEX 01 00:00:00 TRACK 04 AUDIO TITLE "Stealing The 112" PERFORMER "Patrick Doyle" INDEX 00 01:32:60FILE "04 - Patrick Doyle - Stealing The 112.wav" WAVE INDEX 01 00:00:00 TRACK 05 AUDIO TITLE "Muir Woods" PERFORMER "Patrick Doyle" INDEX 00 01:47:29FILE "05 - Patrick Doyle - Muir Woods.wav" WAVE INDEX 01 00:00:00 TRACK 06 AUDIO TITLE "Off You Go" PERFORMER "Patrick Doyle" INDEX 00 01:16:50FILE "06 - Patrick Doyle - Off You Go.wav" WAVE INDEX 01 00:00:00 TRACK 07 AUDIO TITLE "Who Am I?" PERFORMER "Patrick Doyle" INDEX 00 02:12:25FILE "07 - Patrick Doyle - Who Am I.wav" WAVE INDEX 01 00:00:00 TRACK 08 AUDIO TITLE "Caesar Protects Charles" PERFORMER "Patrick Doyle" INDEX 00 02:16:72FILE "08 - Patrick Doyle - Caesar Protects Charles.wav" WAVE INDEX 01 00:00:00 TRACK 09 AUDIO TITLE "The Primate Facility" PERFORMER "Patrick Doyle" INDEX 00 03:54:49FILE "09 - Patrick Doyle - The Primate Facility.wav" WAVE INDEX 01 00:00:00 TRACK 10 AUDIO TITLE "Dodge Hoses Caesar" PERFORMER "Patrick Doyle" INDEX 00 02:42:15FILE "10 - Patrick Doyle - Dodge Hoses Caesar.wav" WAVE INDEX 01 00:00:00 TRACK 11 AUDIO TITLE "Rocket Attacks Caesar" PERFORMER "Patrick Doyle" INDEX 00 01:35:60FILE "11 - Patrick Doyle - Rocket Attacks Caesar.wav" WAVE INDEX 01 00:00:00 TRACK 12 AUDIO TITLE "Visiting Time" PERFORMER "Patrick Doyle" INDEX 00 01:21:44FILE "12 - Patrick Doyle - Visiting Time.wav" WAVE INDEX 01 00:00:00 TRACK 13 AUDIO TITLE "'Caesing' The Knife" PERFORMER "Patrick Doyle" INDEX 00 02:12:16FILE "13 - Patrick Doyle - 'Caesing' The Knife.wav" WAVE INDEX 01 00:00:00 TRACK 14 AUDIO TITLE "Buck Is Released" PERFORMER "Patrick Doyle" INDEX 00 02:01:64FILE "14 - Patrick Doyle - Buck Is Released.wav" WAVE INDEX 01 00:00:00 TRACK 15 AUDIO TITLE "Charles Slips Away" PERFORMER "Patrick Doyle" INDEX 00 01:48:21FILE "15 - Patrick Doyle - Charles Slips Away.wav" WAVE INDEX 01 00:00:00 TRACK 16 AUDIO TITLE "Cookies" PERFORMER "Patrick Doyle" INDEX 00 01:13:70FILE "16 - Patrick Doyle - Cookies.wav" WAVE INDEX 01 00:00:00 TRACK 17 AUDIO TITLE "Inhaling The Virus" PERFORMER "Patrick Doyle" INDEX 00 01:12:40FILE "17 - Patrick Doyle - Inhaling The Virus.wav" WAVE INDEX 01 00:00:00 TRACK 18 AUDIO TITLE "Caesar Says No" PERFORMER "Patrick Doyle" INDEX 00 02:41:53FILE "18 - Patrick Doyle - Caesar Says No.wav" WAVE INDEX 01 00:00:00 TRACK 19 AUDIO TITLE "Gen-Sys Freedom" PERFORMER "Patrick Doyle" INDEX 00 04:19:02FILE "19 - Patrick Doyle - Gen-Sys Freedom.wav" WAVE INDEX 01 00:00:00 TRACK 20 AUDIO TITLE "Zoo Breakout" PERFORMER "Patrick Doyle" INDEX 00 04:53:57FILE "20 - Patrick Doyle - Zoo Breakout.wav" WAVE INDEX 01 00:00:00 TRACK 21 AUDIO TITLE "Golden Gate Bridge" PERFORMER "Patrick Doyle" INDEX 00 02:37:43FILE "21 - Patrick Doyle - Golden Gate Bridge.wav" WAVE INDEX 01 00:00:00 TRACK 22 AUDIO TITLE "The Apes Attack" PERFORMER "Patrick Doyle" INDEX 00 05:18:19FILE "22 - Patrick Doyle - The Apes Attack.wav" WAVE INDEX 01 00:00:00 TRACK 23 AUDIO TITLE "Caesar And Buck" PERFORMER "Patrick Doyle" INDEX 00 02:07:16FILE "23 - Patrick Doyle - Caesar And Buck.wav" WAVE INDEX 01 00:00:00 TRACK 24 AUDIO TITLE "Caesar's Home" PERFORMER "Patrick Doyle" INDEX 00 01:56:39FILE "24 - Patrick Doyle - Caesar's Home.wav" WAVE INDEX 01 00:00:00
[teatrix.ru].t10281.torrent 
Торрент: Зарегистрирован [ 2015-11-01 20:51 ] · 235801E2609A4A08D13F28A5C7DEA2960D5AA61C

Скачать .torrent

Скачать

32 KB

Статус: проверено
Скачан: 1 раз
Размер: 371 MB
terms.php



Быстрый ответ

Имя:

      
Для отправки сообщений необходимо включить JavaScript
Показать сообщения:    

Текущее время: 05-Дек 03:25

Часовой пояс: UTC + 3


Вы можете начинать темы
Вы можете отвечать на сообщения
Вы не можете редактировать свои сообщения
Вы не можете удалять свои сообщения
Вы не можете голосовать в опросах
Вы не можете прикреплять файлы к сообщениям
Вы можете скачивать файлы