(Score / Soundtrack) Конец тура / The End Of The Tour (by Danny Elfman) - 2015, FLAC (tracks+.cue), lossless


Статистика раздачи [Обновить пиров]
Размер:  273 MB   |    Зарегистрирован:  1 год 1 месяц   |    Скачан:  0 раз
Сидов:  4  [  0 KB/s  ]   Личеров:  2  [  0 KB/s  ]   Подробная статистика пиров
 
   
 
 

[Цитировать]

Конец тура / The End Of The Tour-Жанр: Score / Soundtrack
Композитор: Danny Elfman
Год выпуска диска: 2015
Производитель диска: OEM, USA
Издатель (лейбл): Lakeshore Records
Номер по каталогу: LKS 345022-Аудиокодек: FLAC (*.flac)
Тип рипа: tracks+.cue
Битрейт аудио: lossless
Продолжительность: 00:42:50
Источник: собственный рип
Наличие сканов в содержимом раздачи: да, 600 dpi-Ссылки: Кинопоиск | IMDB | Wikipedia | SoundtrackCollector
UPD: Раздача обновлена, добавлены сканы.

Треклист

01. Intro [0:01:06.12]
02. Talk to Jan [0:01:28.71]
03. Felt / Sunlight Bathed the Golden Glow [0:02:57.08]
04. R.E.M. / Perfect Circle [0:03:25.44]
05. Room of Books [0:01:30.44]
06. Minneapolis [0:01:06.57]
07. Reprise 1 [0:00:40.38]
08. Tracey Ullman / They Don't Know [0:02:59.32]
09. Fun Boy Three / Our Lips Are Sealed [0:03:34.03]
10. Going Sour [0:01:36.40]
11. The Tour’s Over [0:03:11.12]
12. Mall Of America [0:00:48.19]
13. Walking the Dog [0:02:25.21]
14. Invasion [0:03:35.13]
15. The Shoe [0:02:02.65]
16. Brian Eno / The Big Ship [0:02:56.22]
17. Tindersticks / Here [0:04:22.60]
18. Reprise 2 [0:03:02.35]

Лог создания рипа

Exact Audio Copy V1.1 from 23. June 2015
EAC extraction logfile from 10. September 2015, 14:32
Danny Elfman / The End Of The Tour
Used drive : PLEXTOR CD-R PX-230A Adapter: 1 ID: 0
Read mode : SecureUtilize accurate stream : YesDefeat audio cache : YesMake use of C2 pointers : No
Read offset correction : 738Overread into Lead-In and Lead-Out : NoFill up missing offset samples with silence : YesDelete leading and trailing silent blocks : NoNull samples used in CRC calculations : YesUsed interface : Native Win32 interface for Win NT & 2000Gap handling : Appended to previous track
Used output format : User Defined EncoderSelected bitrate : 1024 kBit/sQuality : HighAdd ID3 tag : NoCommand line compressor : C:\Program Files\Exact Audio Copy\Flac\flac.exeAdditional command line options : -6 -V -T "ARTIST=%artist%" -T "TITLE=%title%" -T "ALBUM=%albumtitle%" -T "DATE=%year%"-T "TRACKNUMBER=%tracknr%" -T "GENRE=%genre%" -T "COMMENT=%comment%" -T "ALBUMARTIST=%albuminterpret%" -T "COMPOSER=%composer%"-T "DISCNUMBER=%cdnumber%" -T "TOTALDISCS=%totalcds%" -T "TOTALTRACKS=%numtracks%" %source% -o %dest%
TOC of the extracted CD
Track | Start | Length | Start sector | End sector --------------------------------------------------------- 1 | 0:00.00 | 1:06.12 | 0 | 4961 2 | 1:06.12 | 1:28.71 | 4962 | 11632 3 | 2:35.08 | 2:57.08 | 11633 | 24915 4 | 5:32.16 | 3:25.44 | 24916 | 40334 5 | 8:57.60 | 1:30.44 | 40335 | 47128 6 | 10:28.29 | 1:06.57 | 47129 | 52135 7 | 11:35.11 | 0:40.38 | 52136 | 55173 8 | 12:15.49 | 2:59.32 | 55174 | 68630 9 | 15:15.06 | 3:34.03 | 68631 | 84683 10 | 18:49.09 | 1:36.40 | 84684 | 91923 11 | 20:25.49 | 3:11.12 | 91924 | 106260 12 | 23:36.61 | 0:48.19 | 106261 | 109879 13 | 24:25.05 | 2:25.21 | 109880 | 120775 14 | 26:50.26 | 3:35.13 | 120776 | 136913 15 | 30:25.39 | 2:02.65 | 136914 | 146128 16 | 32:28.29 | 2:56.22 | 146129 | 159350 17 | 35:24.51 | 4:22.60 | 159351 | 179060 18 | 39:47.36 | 3:02.35 | 179061 | 192745
Track 1
Filename C:\Music\01 - Danny Elfman - Intro.wav
Pre-gap length 0:00:02.00
Peak level 62.9 % Extraction speed 4.3 X Track quality 100.0 % Test CRC 9B2000B6 Copy CRC 9B2000B6 Track not present in AccurateRip database Copy OK
Track 2
Filename C:\Music\02 - Danny Elfman - Talk to Jan.wav
Peak level 94.3 % Extraction speed 3.8 X Track quality 99.8 % Test CRC 109B0FFE Copy CRC 109B0FFE Track not present in AccurateRip database Copy OK
Track 3
Filename C:\Music\03 - Felt - Sunlight Bathed the Golden Glow.wav
Peak level 93.9 % Extraction speed 5.2 X Track quality 100.0 % Test CRC 49570BB6 Copy CRC 49570BB6 Track not present in AccurateRip database Copy OK
Track 4
Filename C:\Music\04 - R.E.M. - Perfect Circle.wav
Peak level 89.5 % Extraction speed 5.6 X Track quality 100.0 % Test CRC 29BF381B Copy CRC 29BF381B Track not present in AccurateRip database Copy OK
Track 5
Filename C:\Music\05 - Danny Elfman - Room of Books.wav
Peak level 89.2 % Extraction speed 5.4 X Track quality 100.0 % Test CRC 864218F4 Copy CRC 864218F4 Track not present in AccurateRip database Copy OK
Track 6
Filename C:\Music\06 - Danny Elfman - Minneapolis.wav
Peak level 92.7 % Extraction speed 3.8 X Track quality 99.8 % Test CRC 29BD2C2F Copy CRC 29BD2C2F Track not present in AccurateRip database Copy OK
Track 7
Filename C:\Music\07 - Danny Elfman - Reprise 1.wav
Peak level 92.5 % Extraction speed 2.9 X Track quality 99.7 % Test CRC D96AECAA Copy CRC D96AECAA Track not present in AccurateRip database Copy OK
Track 8
Filename C:\Music\08 - Tracey Ullman - They Don't Know.wav
Peak level 58.5 % Extraction speed 6.2 X Track quality 100.0 % Test CRC FED2269E Copy CRC FED2269E Track not present in AccurateRip database Copy OK
Track 9
Filename C:\Music\09 - Fun Boy Three - Our Lips Are Sealed.wav
Peak level 98.8 % Extraction speed 6.7 X Track quality 100.0 % Test CRC 6521CEBF Copy CRC 6521CEBF Track not present in AccurateRip database Copy OK
Track 10
Filename C:\Music\10 - Danny Elfman - Going Sour.wav
Peak level 96.0 % Extraction speed 6.3 X Track quality 100.0 % Test CRC 3943CBA2 Copy CRC 3943CBA2 Track not present in AccurateRip database Copy OK
Track 11
Filename C:\Music\11 - Danny Elfman - The Tour’s Over.wav
Peak level 86.4 % Extraction speed 7.1 X Track quality 100.0 % Test CRC 706FF4CF Copy CRC 706FF4CF Track not present in AccurateRip database Copy OK
Track 12
Filename C:\Music\12 - Danny Elfman - Mall Of America.wav
Peak level 84.3 % Extraction speed 5.7 X Track quality 100.0 % Test CRC 6BE7C1E2 Copy CRC 6BE7C1E2 Track not present in AccurateRip database Copy OK
Track 13
Filename C:\Music\13 - Danny Elfman - Walking the Dog.wav
Peak level 94.3 % Extraction speed 7.1 X Track quality 100.0 % Test CRC FA8FF8A4 Copy CRC FA8FF8A4 Track not present in AccurateRip database Copy OK
Track 14
Filename C:\Music\14 - Danny Elfman - Invasion.wav
Peak level 88.3 % Extraction speed 7.6 X Track quality 100.0 % Test CRC 2DF313BB Copy CRC 2DF313BB Track not present in AccurateRip database Copy OK
Track 15
Filename C:\Music\15 - Danny Elfman - The Shoe.wav
Peak level 94.3 % Extraction speed 7.3 X Track quality 100.0 % Test CRC 03911EBE Copy CRC 03911EBE Track not present in AccurateRip database Copy OK
Track 16
Filename C:\Music\16 - Brian Eno - The Big Ship.wav
Peak level 91.5 % Extraction speed 6.8 X Track quality 99.9 % Test CRC CB426D5A Copy CRC CB426D5A Track not present in AccurateRip database Copy OK
Track 17
Filename C:\Music\17 - Tindersticks - Here.wav
Peak level 68.7 % Extraction speed 8.4 X Track quality 100.0 % Test CRC 4B666FF2 Copy CRC 4B666FF2 Track not present in AccurateRip database Copy OK
Track 18
Filename C:\Music\18 - Danny Elfman - Reprise 2.wav
Peak level 94.4 % Extraction speed 8.2 X Track quality 100.0 % Test CRC CFAE6EB4 Copy CRC CFAE6EB4 Track not present in AccurateRip database Copy OK
None of the tracks are present in the AccurateRip database
No errors occurred
End of status report
---- CUETools DB Plugin V2.1.6
[CTDB TOCID: LjmIhYiQmGGwxoV1Bhtr7Kr6aUA-] disk not present in databaseSubmit result: LjmIhYiQmGGwxoV1Bhtr7Kr6aUA- has been uploaded
==== Log checksum E8DA316C53644327417354964027F62C312CB73960197B60B889F6EFB14B9F5C ====

Содержание индексной карты (.CUE)

REM GENRE SoundtrackREM DATE 2015REM DISCID F70A0912REM COMMENT "ExactAudioCopy v1.1"PERFORMER "Danny Elfman"TITLE "The End Of The Tour"FILE "01 - Danny Elfman - Intro.wav" WAVE TRACK 01 AUDIO TITLE "Intro" PERFORMER "Danny Elfman" INDEX 01 00:00:00FILE "02 - Danny Elfman - Talk to Jan.wav" WAVE TRACK 02 AUDIO TITLE "Talk to Jan" PERFORMER "Danny Elfman" INDEX 01 00:00:00FILE "03 - Felt - Sunlight Bathed the Golden Glow.wav" WAVE TRACK 03 AUDIO TITLE "Sunlight Bathed the Golden Glow" PERFORMER "Felt" INDEX 01 00:00:00FILE "04 - R.E.M. - Perfect Circle.wav" WAVE TRACK 04 AUDIO TITLE "Perfect Circle" PERFORMER "R.E.M." INDEX 01 00:00:00FILE "05 - Danny Elfman - Room of Books.wav" WAVE TRACK 05 AUDIO TITLE "Room of Books" PERFORMER "Danny Elfman" INDEX 01 00:00:00FILE "06 - Danny Elfman - Minneapolis.wav" WAVE TRACK 06 AUDIO TITLE "Minneapolis" PERFORMER "Danny Elfman" INDEX 01 00:00:00FILE "07 - Danny Elfman - Reprise 1.wav" WAVE TRACK 07 AUDIO TITLE "Reprise 1" PERFORMER "Danny Elfman" INDEX 01 00:00:00FILE "08 - Tracey Ullman - They Don't Know.wav" WAVE TRACK 08 AUDIO TITLE "They Don't Know" PERFORMER "Tracey Ullman" INDEX 01 00:00:00FILE "09 - Fun Boy Three - Our Lips Are Sealed.wav" WAVE TRACK 09 AUDIO TITLE "Our Lips Are Sealed" PERFORMER "Fun Boy Three" INDEX 01 00:00:00FILE "10 - Danny Elfman - Going Sour.wav" WAVE TRACK 10 AUDIO TITLE "Going Sour" PERFORMER "Danny Elfman" INDEX 01 00:00:00FILE "11 - Danny Elfman - The Tour’s Over.wav" WAVE TRACK 11 AUDIO TITLE "The Tour’s Over" PERFORMER "Danny Elfman" INDEX 01 00:00:00FILE "12 - Danny Elfman - Mall Of America.wav" WAVE TRACK 12 AUDIO TITLE "Mall Of America" PERFORMER "Danny Elfman" INDEX 01 00:00:00FILE "13 - Danny Elfman - Walking the Dog.wav" WAVE TRACK 13 AUDIO TITLE "Walking the Dog" PERFORMER "Danny Elfman" INDEX 01 00:00:00FILE "14 - Danny Elfman - Invasion.wav" WAVE TRACK 14 AUDIO TITLE "Invasion" PERFORMER "Danny Elfman" INDEX 01 00:00:00FILE "15 - Danny Elfman - The Shoe.wav" WAVE TRACK 15 AUDIO TITLE "The Shoe" PERFORMER "Danny Elfman" INDEX 01 00:00:00FILE "16 - Brian Eno - The Big Ship.wav" WAVE TRACK 16 AUDIO TITLE "The Big Ship" PERFORMER "Brian Eno" INDEX 01 00:00:00FILE "17 - Tindersticks - Here.wav" WAVE TRACK 17 AUDIO TITLE "Here" PERFORMER "Tindersticks" INDEX 01 00:00:00FILE "18 - Danny Elfman - Reprise 2.wav" WAVE TRACK 18 AUDIO TITLE "Reprise 2" PERFORMER "Danny Elfman" INDEX 01 00:00:00
[teatrix.ru].t10282.torrent 
Торрент: Зарегистрирован [ 2015-11-01 20:51 ] · 1392B01EE4340A423E68B4A459B52FB7DE69BD6B

Скачать .torrent

Скачать

13 KB

Статус: проверено
Скачан: 0 раз
Размер: 273 MB
terms.php



Быстрый ответ

Имя:

      
Для отправки сообщений необходимо включить JavaScript
Показать сообщения:    

Текущее время: 10-Дек 09:59

Часовой пояс: UTC + 3


Вы можете начинать темы
Вы можете отвечать на сообщения
Вы не можете редактировать свои сообщения
Вы не можете удалять свои сообщения
Вы не можете голосовать в опросах
Вы не можете прикреплять файлы к сообщениям
Вы можете скачивать файлы