(Score) Век Адалин / The Age of Adaline (by Rob Simonsen) - 2015, FLAC (tracks+.cue), lossless


Статистика раздачи [Обновить пиров]
Размер:  301 MB   |    Зарегистрирован:  1 год 1 месяц   |    Скачан:  0 раз
Сидов:  5  [  0 KB/s  ]   Личеров:  7  [  0 KB/s  ]   Подробная статистика пиров
 
   
 
 

[Цитировать]

Век Адалин / The Age of Adaline-Жанр: Score
Композитор: Rob Simonsen
Год выпуска диска: 2015
Производитель диска: OEM, USA
Издатель (лейбл): Lakeshore Records
Номер по каталогу: LKS 344722-Аудиокодек: FLAC (*.flac)
Тип рипа: tracks+.cue
Битрейт аудио: lossless
Продолжительность: 00:58:20
Источник: собственный рип
Наличие сканов в содержимом раздачи: да, 600 dpi-Ссылки: Кинопоиск | IMDB | Wikipedia | SoundtrackCollector
Songtrack: (Soundtrack) Век Адалин / The Age of Adaline - 2015, FLAC (tracks+.cue), lossless
UPD: Раздача обновлена, добавлены сканы.

Треклист

01. Adaline Bowman [0:01:51.33]
02. At Home [0:01:58.09]
03. January 1st, 1908 [0:03:56.01]
04. First Resurrection [0:02:24.58]
05. No Scientific Explanation [0:01:10.43]
06. Never Speak a Word of Her Fate [0:03:00.47]
07. Ellis Brings Flowers [0:02:45.47]
08. Sunken Ship [0:02:11.51]
09. Another Death in the Life [0:02:27.50]
10. Tired of Running [0:01:55.27]
11. Adaline Apologizes [0:00:56.37]
12. Constellations [0:02:09.43]
13. William Recognizes Adaline [0:02:48.00]
14. He Named the Comet Della [0:01:50.01]
15. A Near Miss [0:02:54.62]
16. The Scar [0:02:52.41]
17. Twisted Around the Truth [0:03:28.29]
18. No More Running [0:02:01.44]
19. Second Resurrection [0:03:40.26]
20. Coming Back to Life [0:01:30.47]
21. Hospital Confessions [0:05:15.04]
22. To a Future with an End [0:01:41.05]
23. Rob Simonsen and Faux Fix, Feat. Elena Tonra / Start Again [0:03:27.39]

Лог создания рипа

Exact Audio Copy V1.1 from 23. June 2015
EAC extraction logfile from 18. September 2015, 15:51
Rob Simonsen / The Age of Adaline
Used drive : PLEXTOR CD-R PX-230A Adapter: 1 ID: 0
Read mode : SecureUtilize accurate stream : YesDefeat audio cache : YesMake use of C2 pointers : No
Read offset correction : 738Overread into Lead-In and Lead-Out : NoFill up missing offset samples with silence : YesDelete leading and trailing silent blocks : NoNull samples used in CRC calculations : YesUsed interface : Native Win32 interface for Win NT & 2000Gap handling : Appended to previous track
Used output format : User Defined EncoderSelected bitrate : 1024 kBit/sQuality : HighAdd ID3 tag : NoCommand line compressor : C:\Program Files\Exact Audio Copy\Flac\flac.exeAdditional command line options : -6 -V -T "ARTIST=%artist%" -T "TITLE=%title%" -T "ALBUM=%albumtitle%" -T "DATE=%year%"-T "TRACKNUMBER=%tracknr%" -T "GENRE=%genre%" -T "COMMENT=%comment%" -T "ALBUMARTIST=%albuminterpret%" -T "COMPOSER=%composer%"-T "DISCNUMBER=%cdnumber%" -T "TOTALDISCS=%totalcds%" -T "TOTALTRACKS=%numtracks%" %source% -o %dest%
TOC of the extracted CD
Track | Start | Length | Start sector | End sector --------------------------------------------------------- 1 | 0:00.00 | 1:51.33 | 0 | 8357 2 | 1:51.33 | 1:58.09 | 8358 | 17216 3 | 3:49.42 | 3:56.01 | 17217 | 34917 4 | 7:45.43 | 2:24.58 | 34918 | 45775 5 | 10:10.26 | 1:10.43 | 45776 | 51068 6 | 11:20.69 | 3:00.47 | 51069 | 64615 7 | 14:21.41 | 2:45.47 | 64616 | 77037 8 | 17:07.13 | 2:11.51 | 77038 | 86913 9 | 19:18.64 | 2:27.50 | 86914 | 97988 10 | 21:46.39 | 1:55.27 | 97989 | 106640 11 | 23:41.66 | 0:56.37 | 106641 | 110877 12 | 24:38.28 | 2:09.43 | 110878 | 120595 13 | 26:47.71 | 2:48.00 | 120596 | 133195 14 | 29:35.71 | 1:50.01 | 133196 | 141446 15 | 31:25.72 | 2:54.62 | 141447 | 154558 16 | 34:20.59 | 2:52.41 | 154559 | 167499 17 | 37:13.25 | 3:28.29 | 167500 | 183128 18 | 40:41.54 | 2:01.44 | 183129 | 192247 19 | 42:43.23 | 3:40.26 | 192248 | 208773 20 | 46:23.49 | 1:30.47 | 208774 | 215570 21 | 47:54.21 | 5:15.04 | 215571 | 239199 22 | 53:09.25 | 1:41.05 | 239200 | 246779 23 | 54:50.30 | 3:27.39 | 246780 | 262343
Track 1
Filename C:\Music\01 - Rob Simonsen - Adaline Bowman.wav
Pre-gap length 0:00:02.00
Peak level 98.7 % Extraction speed 3.7 X Track quality 100.0 % Test CRC D691872C Copy CRC D691872C Accurately ripped (confidence 2) [F32AECF1] (AR v2) Copy OK
Track 2
Filename C:\Music\02 - Rob Simonsen - At Home.wav
Pre-gap length 0:00:00.39
Peak level 98.8 % Extraction speed 4.0 X Track quality 100.0 % Test CRC 57D0A8D8 Copy CRC 57D0A8D8 Accurately ripped (confidence 2) [CA0391FF] (AR v2) Copy OK
Track 3
Filename C:\Music\03 - Rob Simonsen - January 1st, 1908.wav
Pre-gap length 0:00:00.37
Peak level 98.8 % Extraction speed 3.7 X Track quality 99.9 % Test CRC DA2B9D51 Copy CRC DA2B9D51 Accurately ripped (confidence 2) [9C9B7D9F] (AR v2) Copy OK
Track 4
Filename C:\Music\04 - Rob Simonsen - First Resurrection.wav
Pre-gap length 0:00:00.37
Peak level 98.8 % Extraction speed 3.3 X Track quality 99.9 % Test CRC AFD4F184 Copy CRC AFD4F184 Accurately ripped (confidence 2) [8034F2CD] (AR v2) Copy OK
Track 5
Filename C:\Music\05 - Rob Simonsen - No Scientific Explanation.wav
Pre-gap length 0:00:00.37
Peak level 98.8 % Extraction speed 3.9 X Track quality 100.0 % Test CRC 2035918F Copy CRC 2035918F Accurately ripped (confidence 2) [A7F99A97] (AR v2) Copy OK
Track 6
Filename C:\Music\06 - Rob Simonsen - Never Speak a Word of Her Fate.wav
Pre-gap length 0:00:00.38
Peak level 98.8 % Extraction speed 4.2 X Track quality 100.0 % Test CRC F60DA121 Copy CRC F60DA121 Accurately ripped (confidence 2) [89A8A7AF] (AR v2) Copy OK
Track 7
Filename C:\Music\07 - Rob Simonsen - Ellis Brings Flowers.wav
Pre-gap length 0:00:00.53
Peak level 93.4 % Extraction speed 3.8 X Track quality 100.0 % Test CRC 3B6A46C9 Copy CRC 3B6A46C9 Accurately ripped (confidence 2) [CF82CF56] (AR v2) Copy OK
Track 8
Filename C:\Music\08 - Rob Simonsen - Sunken Ship.wav
Pre-gap length 0:00:00.36
Peak level 47.7 % Extraction speed 4.0 X Track quality 100.0 % Test CRC FCC806D4 Copy CRC FCC806D4 Accurately ripped (confidence 2) [E0A72D08] (AR v2) Copy OK
Track 9
Filename C:\Music\09 - Rob Simonsen - Another Death in the Life.wav
Pre-gap length 0:00:00.41
Peak level 49.8 % Extraction speed 4.2 X Track quality 100.0 % Test CRC 97FFD1CA Copy CRC 97FFD1CA Accurately ripped (confidence 2) [59ABD56B] (AR v2) Copy OK
Track 10
Filename C:\Music\10 - Rob Simonsen - Tired of Running.wav
Pre-gap length 0:00:00.39
Peak level 68.7 % Extraction speed 3.4 X Track quality 100.0 % Test CRC 2665D810 Copy CRC 2665D810 Accurately ripped (confidence 2) [5F22C26C] (AR v2) Copy OK
Track 11
Filename C:\Music\11 - Rob Simonsen - Adaline Apologizes.wav
Pre-gap length 0:00:00.41
Peak level 50.3 % Extraction speed 3.0 X Track quality 100.0 % Test CRC 89028742 Copy CRC 89028742 Accurately ripped (confidence 2) [BD7BE214] (AR v2) Copy OK
Track 12
Filename C:\Music\12 - Rob Simonsen - Constellations.wav
Pre-gap length 0:00:00.37
Peak level 89.3 % Extraction speed 3.7 X Track quality 100.0 % Test CRC C9F4D1EB Copy CRC C9F4D1EB Accurately ripped (confidence 2) [0A1BDC53] (AR v2) Copy OK
Track 13
Filename C:\Music\13 - Rob Simonsen - William Recognizes Adaline.wav
Pre-gap length 0:00:00.37
Peak level 98.8 % Extraction speed 3.3 X Track quality 99.9 % Test CRC CDF27CD0 Copy CRC CDF27CD0 Accurately ripped (confidence 2) [419A94ED] (AR v2) Copy OK
Track 14
Filename C:\Music\14 - Rob Simonsen - He Named the Comet Della.wav
Pre-gap length 0:00:00.37
Peak level 51.8 % Extraction speed 4.2 X Track quality 100.0 % Test CRC EA4C2C20 Copy CRC EA4C2C20 Accurately ripped (confidence 2) [34DD739A] (AR v2) Copy OK
Track 15
Filename C:\Music\15 - Rob Simonsen - A Near Miss.wav
Pre-gap length 0:00:00.37
Peak level 39.3 % Extraction speed 3.6 X Track quality 100.0 % Test CRC DF69A8A2 Copy CRC DF69A8A2 Accurately ripped (confidence 2) [FD3C3D91] (AR v2) Copy OK
Track 16
Filename C:\Music\16 - Rob Simonsen - The Scar.wav
Pre-gap length 0:00:00.37
Peak level 98.8 % Extraction speed 4.2 X Track quality 100.0 % Test CRC E89D439F Copy CRC E89D439F Accurately ripped (confidence 2) [72B424B6] (AR v2) Copy OK
Track 17
Filename C:\Music\17 - Rob Simonsen - Twisted Around the Truth.wav
Pre-gap length 0:00:00.37
Peak level 98.8 % Extraction speed 4.0 X Track quality 100.0 % Test CRC B78556DC Copy CRC B78556DC Accurately ripped (confidence 2) [328B7BB3] (AR v2) Copy OK
Track 18
Filename C:\Music\18 - Rob Simonsen - No More Running.wav
Pre-gap length 0:00:00.37
Peak level 98.8 % Extraction speed 3.3 X Track quality 100.0 % Test CRC 69652DBF Copy CRC 69652DBF Accurately ripped (confidence 2) [EC1BBB2F] (AR v2) Copy OK
Track 19
Filename C:\Music\19 - Rob Simonsen - Second Resurrection.wav
Pre-gap length 0:00:00.37
Peak level 98.8 % Extraction speed 3.8 X Track quality 100.0 % Test CRC 6EE80586 Copy CRC 6EE80586 Accurately ripped (confidence 2) [8961C05F] (AR v2) Copy OK
Track 20
Filename C:\Music\20 - Rob Simonsen - Coming Back to Life.wav
Pre-gap length 0:00:00.37
Peak level 98.8 % Extraction speed 2.5 X Track quality 99.8 % Test CRC 17D64D6B Copy CRC 17D64D6B Accurately ripped (confidence 2) [9D6992ED] (AR v2) Copy OK
Track 21
Filename C:\Music\21 - Rob Simonsen - Hospital Confessions.wav
Pre-gap length 0:00:00.37
Peak level 71.7 % Extraction speed 3.9 X Track quality 99.9 % Test CRC 3C518621 Copy CRC 3C518621 Accurately ripped (confidence 2) [DDFAB366] (AR v2) Copy OK
Track 22
Filename C:\Music\22 - Rob Simonsen - To a Future with an End.wav
Pre-gap length 0:00:00.37
Peak level 98.8 % Extraction speed 3.4 X Track quality 100.0 % Test CRC 2CB005CE Copy CRC 2CB005CE Accurately ripped (confidence 2) [8DE80625] (AR v2) Copy OK
Track 23
Filename C:\Music\23 - Rob Simonsen and Faux Fix, Feat. Elena Tonra - Start Again.wav
Pre-gap length 0:00:01.37
Peak level 98.8 % Extraction speed 3.4 X Track quality 99.9 % Test CRC 8E4D6A3D Copy CRC 8E4D6A3D Accurately ripped (confidence 2) [AF5D0639] (AR v2) Copy OK
All tracks accurately ripped
No errors occurred
End of status report
---- CUETools DB Plugin V2.1.6
[CTDB TOCID: I9mGnCTnIrnZuuNKBsv_m5g4hug-] foundSubmit result: I9mGnCTnIrnZuuNKBsv_m5g4hug- has been confirmedTrack | CTDB Status 1 | (1/1) Accurately ripped 2 | (1/1) Accurately ripped 3 | (1/1) Accurately ripped 4 | (1/1) Accurately ripped 5 | (1/1) Accurately ripped 6 | (1/1) Accurately ripped 7 | (1/1) Accurately ripped 8 | (1/1) Accurately ripped 9 | (1/1) Accurately ripped 10 | (1/1) Accurately ripped 11 | (1/1) Accurately ripped 12 | (1/1) Accurately ripped 13 | (1/1) Accurately ripped 14 | (1/1) Accurately ripped 15 | (1/1) Accurately ripped 16 | (1/1) Accurately ripped 17 | (1/1) Accurately ripped 18 | (1/1) Accurately ripped 19 | (1/1) Accurately ripped 20 | (1/1) Accurately ripped 21 | (1/1) Accurately ripped 22 | (1/1) Accurately ripped 23 | (1/1) Accurately ripped
==== Log checksum 01BDDED7DE19CF52DF7638544DAF098CED1E2A477F34DFA54A32BAEB5289D45A ====

Содержание индексной карты (.CUE)

REM GENRE SoundtrackREM DATE 2015REM DISCID 3E0DA917REM COMMENT "ExactAudioCopy v1.1"PERFORMER "Rob Simonsen"TITLE "The Age of Adaline"FILE "01 - Rob Simonsen - Adaline Bowman.wav" WAVE TRACK 01 AUDIO TITLE "Adaline Bowman" PERFORMER "Rob Simonsen" INDEX 01 00:00:00 TRACK 02 AUDIO TITLE "At Home" PERFORMER "Rob Simonsen" INDEX 00 01:50:69FILE "02 - Rob Simonsen - At Home.wav" WAVE INDEX 01 00:00:00 TRACK 03 AUDIO TITLE "January 1st, 1908" PERFORMER "Rob Simonsen" INDEX 00 01:57:47FILE "03 - Rob Simonsen - January 1st, 1908.wav" WAVE INDEX 01 00:00:00 TRACK 04 AUDIO TITLE "First Resurrection" PERFORMER "Rob Simonsen" INDEX 00 03:55:39FILE "04 - Rob Simonsen - First Resurrection.wav" WAVE INDEX 01 00:00:00 TRACK 05 AUDIO TITLE "No Scientific Explanation" PERFORMER "Rob Simonsen" INDEX 00 02:24:21FILE "05 - Rob Simonsen - No Scientific Explanation.wav" WAVE INDEX 01 00:00:00 TRACK 06 AUDIO TITLE "Never Speak a Word of Her Fate" PERFORMER "Rob Simonsen" INDEX 00 01:10:05FILE "06 - Rob Simonsen - Never Speak a Word of Her Fate.wav" WAVE INDEX 01 00:00:00 TRACK 07 AUDIO TITLE "Ellis Brings Flowers" PERFORMER "Rob Simonsen" INDEX 00 02:59:69FILE "07 - Rob Simonsen - Ellis Brings Flowers.wav" WAVE INDEX 01 00:00:00 TRACK 08 AUDIO TITLE "Sunken Ship" PERFORMER "Rob Simonsen" INDEX 00 02:45:11FILE "08 - Rob Simonsen - Sunken Ship.wav" WAVE INDEX 01 00:00:00 TRACK 09 AUDIO TITLE "Another Death in the Life" PERFORMER "Rob Simonsen" INDEX 00 02:11:10FILE "09 - Rob Simonsen - Another Death in the Life.wav" WAVE INDEX 01 00:00:00 TRACK 10 AUDIO TITLE "Tired of Running" PERFORMER "Rob Simonsen" INDEX 00 02:27:11FILE "10 - Rob Simonsen - Tired of Running.wav" WAVE INDEX 01 00:00:00 TRACK 11 AUDIO TITLE "Adaline Apologizes" PERFORMER "Rob Simonsen" INDEX 00 01:54:61FILE "11 - Rob Simonsen - Adaline Apologizes.wav" WAVE INDEX 01 00:00:00 TRACK 12 AUDIO TITLE "Constellations" PERFORMER "Rob Simonsen" INDEX 00 00:56:00FILE "12 - Rob Simonsen - Constellations.wav" WAVE INDEX 01 00:00:00 TRACK 13 AUDIO TITLE "William Recognizes Adaline" PERFORMER "Rob Simonsen" INDEX 00 02:09:06FILE "13 - Rob Simonsen - William Recognizes Adaline.wav" WAVE INDEX 01 00:00:00 TRACK 14 AUDIO TITLE "He Named the Comet Della" PERFORMER "Rob Simonsen" INDEX 00 02:47:38FILE "14 - Rob Simonsen - He Named the Comet Della.wav" WAVE INDEX 01 00:00:00 TRACK 15 AUDIO TITLE "A Near Miss" PERFORMER "Rob Simonsen" INDEX 00 01:49:39FILE "15 - Rob Simonsen - A Near Miss.wav" WAVE INDEX 01 00:00:00 TRACK 16 AUDIO TITLE "The Scar" PERFORMER "Rob Simonsen" INDEX 00 02:54:25FILE "16 - Rob Simonsen - The Scar.wav" WAVE INDEX 01 00:00:00 TRACK 17 AUDIO TITLE "Twisted Around the Truth" PERFORMER "Rob Simonsen" INDEX 00 02:52:04FILE "17 - Rob Simonsen - Twisted Around the Truth.wav" WAVE INDEX 01 00:00:00 TRACK 18 AUDIO TITLE "No More Running" PERFORMER "Rob Simonsen" INDEX 00 03:27:67FILE "18 - Rob Simonsen - No More Running.wav" WAVE INDEX 01 00:00:00 TRACK 19 AUDIO TITLE "Second Resurrection" PERFORMER "Rob Simonsen" INDEX 00 02:01:07FILE "19 - Rob Simonsen - Second Resurrection.wav" WAVE INDEX 01 00:00:00 TRACK 20 AUDIO TITLE "Coming Back to Life" PERFORMER "Rob Simonsen" INDEX 00 03:39:64FILE "20 - Rob Simonsen - Coming Back to Life.wav" WAVE INDEX 01 00:00:00 TRACK 21 AUDIO TITLE "Hospital Confessions" PERFORMER "Rob Simonsen" INDEX 00 01:30:10FILE "21 - Rob Simonsen - Hospital Confessions.wav" WAVE INDEX 01 00:00:00 TRACK 22 AUDIO TITLE "To a Future with an End" PERFORMER "Rob Simonsen" INDEX 00 05:14:42FILE "22 - Rob Simonsen - To a Future with an End.wav" WAVE INDEX 01 00:00:00 TRACK 23 AUDIO TITLE "Start Again" PERFORMER "Rob Simonsen and Faux Fix, Feat. Elena Tonra" INDEX 00 01:39:43FILE "23 - Rob Simonsen and Faux Fix, Feat. Elena Tonra - Start Again.wav" WAVE INDEX 01 00:00:00
[teatrix.ru].t10283.torrent 
Торрент: Зарегистрирован [ 2015-11-01 20:51 ] · 09C4C289816CDC00A591EFF5F5C929CD582056BA

Скачать .torrent

Скачать

14 KB

Статус: проверено
Скачан: 0 раз
Размер: 301 MB
terms.php



Быстрый ответ

Имя:

      
Для отправки сообщений необходимо включить JavaScript
Показать сообщения:    

Текущее время: 04-Дек 15:13

Часовой пояс: UTC + 3


Вы можете начинать темы
Вы можете отвечать на сообщения
Вы не можете редактировать свои сообщения
Вы не можете удалять свои сообщения
Вы не можете голосовать в опросах
Вы не можете прикреплять файлы к сообщениям
Вы можете скачивать файлы