(Soundtrack) Век Адалин / The Age of Adaline - 2015, FLAC (tracks+.cue), lossless


Статистика раздачи [Обновить пиров]
Размер:  314 MB   |    Зарегистрирован:  1 год 1 месяц   |    Скачан:  0 раз

Полного источника не было: Никогда

Личеров:  7  [  0 KB/s  ]   Подробная статистика пиров
 
   
 
 
 

[Цитировать]

Век Адалин / The Age of Adaline-Жанр: Soundtrack
Год выпуска диска: 2015
Производитель диска: OEM, USA
Издатель (лейбл): Lakeshore Records
Номер по каталогу: LKS 344782-Аудиокодек: FLAC (*.flac)
Тип рипа: tracks+.cue
Битрейт аудио: lossless
Продолжительность: 00:49:10
Источник: собственный рип
Наличие сканов в содержимом раздачи: да, 600 dpi-Ссылки: Кинопоиск | IMDB | Wikipedia | SoundtrackCollector
Score: (Score) Век Адалин / The Age of Adaline (by Rob Simonsen) - 2015, FLAC (tracks+.cue), lossless

Треклист

01. Bob Dylan / Simple Twist Of Fate [0:04:18.03]
02. Little Joy / Don't Watch Me Dancing [0:03:34.53]
03. The Skyliners / Since I Don't Have You [0:02:37.30]
04. The Antlers / Drift Dive [0:04:48.06]
05. Jefferson Airplane / Comin' Back To Me [0:05:23.01]
06. Dexter Gordon / The Rainbow People [0:08:49.11]
07. Sam & Dave / Gimme Some Lovin' [0:02:58.39]
08. Ella Fitzgerald, Chick Webb And His Orchestra / I'm Just A Jitterbug [0:03:16.11]
09. Martin Gibson & Jeromy Allinger / Tear For You My Dear [0:03:27.45]
10. Nancy McCallion / Brighter In The Night [0:03:41.10]
11. Stephen Lu / Goodnight [0:03:19.51]
12. Stephen Lu / Auld Lange Syne [0:02:56.16]

Лог создания рипа

Exact Audio Copy V1.1 from 23. June 2015
EAC extraction logfile from 8. September 2015, 14:02
Various Artists / The Age of Adaline
Used drive : PLEXTOR CD-R PX-230A Adapter: 1 ID: 0
Read mode : SecureUtilize accurate stream : YesDefeat audio cache : YesMake use of C2 pointers : No
Read offset correction : 738Overread into Lead-In and Lead-Out : NoFill up missing offset samples with silence : YesDelete leading and trailing silent blocks : NoNull samples used in CRC calculations : YesUsed interface : Native Win32 interface for Win NT & 2000Gap handling : Appended to previous track
Used output format : User Defined EncoderSelected bitrate : 1024 kBit/sQuality : HighAdd ID3 tag : NoCommand line compressor : C:\Program Files\Exact Audio Copy\Flac\flac.exeAdditional command line options : -6 -V -T "ARTIST=%artist%" -T "TITLE=%title%" -T "ALBUM=%albumtitle%" -T "DATE=%year%"-T "TRACKNUMBER=%tracknr%" -T "GENRE=%genre%" -T "COMMENT=%comment%" -T "ALBUMARTIST=%albuminterpret%" -T "COMPOSER=%composer%"-T "DISCNUMBER=%cdnumber%" -T "TOTALDISCS=%totalcds%" -T "TOTALTRACKS=%numtracks%" %source% -o %dest%
TOC of the extracted CD
Track | Start | Length | Start sector | End sector --------------------------------------------------------- 1 | 0:00.00 | 4:18.03 | 0 | 19352 2 | 4:18.03 | 3:34.53 | 19353 | 35455 3 | 7:52.56 | 2:37.30 | 35456 | 47260 4 | 10:30.11 | 4:48.06 | 47261 | 68866 5 | 15:18.17 | 5:23.01 | 68867 | 93092 6 | 20:41.18 | 8:49.11 | 93093 | 132778 7 | 29:30.29 | 2:58.39 | 132779 | 146167 8 | 32:28.68 | 3:16.11 | 146168 | 160878 9 | 35:45.04 | 3:27.45 | 160879 | 176448 10 | 39:12.49 | 3:41.10 | 176449 | 193033 11 | 42:53.59 | 3:19.51 | 193034 | 208009 12 | 46:13.35 | 2:56.16 | 208010 | 221225
Track 1
Filename C:\Music\01 - Bob Dylan - Simple Twist Of Fate.wav
Pre-gap length 0:00:02.00
Peak level 87.4 % Extraction speed 4.2 X Track quality 100.0 % Test CRC FA5E1FB4 Copy CRC FA5E1FB4 Track not present in AccurateRip database Copy OK
Track 2
Filename C:\Music\02 - Little Joy - Don't Watch Me Dancing.wav
Pre-gap length 0:00:01.52
Peak level 97.7 % Extraction speed 3.9 X Track quality 100.0 % Test CRC 768112E4 Copy CRC 768112E4 Track not present in AccurateRip database Copy OK
Track 3
Filename C:\Music\03 - The Skyliners - Since I Don't Have You.wav
Pre-gap length 0:00:01.28
Peak level 97.7 % Extraction speed 3.4 X Track quality 100.0 % Test CRC 88940A76 Copy CRC 88940A76 Track not present in AccurateRip database Copy OK
Track 4
Filename C:\Music\04 - The Antlers - Drift Dive.wav
Pre-gap length 0:00:01.51
Peak level 92.3 % Extraction speed 4.6 X Track quality 100.0 % Test CRC BD9F123C Copy CRC BD9F123C Track not present in AccurateRip database Copy OK
Track 5
Filename C:\Music\05 - Jefferson Airplane - Comin' Back To Me.wav
Pre-gap length 0:00:01.36
Peak level 97.7 % Extraction speed 4.0 X Track quality 99.9 % Test CRC A8244D74 Copy CRC A8244D74 Track not present in AccurateRip database Copy OK
Track 6
Filename C:\Music\06 - Dexter Gordon - The Rainbow People.wav
Pre-gap length 0:00:02.39
Peak level 90.0 % Extraction speed 4.4 X Track quality 100.0 % Test CRC 989D317B Copy CRC 989D317B Track not present in AccurateRip database Copy OK
Track 7
Filename C:\Music\07 - Sam & Dave - Gimme Some Lovin'.wav
Pre-gap length 0:00:01.44
Peak level 97.7 % Extraction speed 4.0 X Track quality 100.0 % Test CRC 71E70975 Copy CRC 71E70975 Track not present in AccurateRip database Copy OK
Track 8
Filename C:\Music\08 - Ella Fitzgerald, Chick Webb And His Orchestra - I'm Just A Jitterbug.wav
Pre-gap length 0:00:01.70
Peak level 97.7 % Extraction speed 3.9 X Track quality 100.0 % Test CRC 1CB55E91 Copy CRC 1CB55E91 Track not present in AccurateRip database Copy OK
Track 9
Filename C:\Music\09 - Martin Gibson & Jeromy Allinger - Tear For You My Dear.wav
Pre-gap length 0:00:02.44
Peak level 97.7 % Extraction speed 4.9 X Track quality 100.0 % Test CRC 0764BC6B Copy CRC 0764BC6B Track not present in AccurateRip database Copy OK
Track 10
Filename C:\Music\10 - Nancy McCallion - Brighter In The Night.wav
Pre-gap length 0:00:02.47
Peak level 97.7 % Extraction speed 4.6 X Track quality 100.0 % Test CRC 52DBF0F3 Copy CRC 52DBF0F3 Track not present in AccurateRip database Copy OK
Track 11
Filename C:\Music\11 - Stephen Lu - Goodnight.wav
Pre-gap length 0:00:02.08
Peak level 97.7 % Extraction speed 4.6 X Track quality 100.0 % Test CRC E66F6C68 Copy CRC E66F6C68 Track not present in AccurateRip database Copy OK
Track 12
Filename C:\Music\12 - Stephen Lu - Auld Lange Syne.wav
Pre-gap length 0:00:01.62
Peak level 97.7 % Extraction speed 4.4 X Track quality 100.0 % Test CRC 7050651D Copy CRC 7050651D Track not present in AccurateRip database Copy OK
None of the tracks are present in the AccurateRip database
No errors occurred
End of status report
---- CUETools DB Plugin V2.1.6
[CTDB TOCID: pH8XYf443EAyhrvIJ4hWBdg_ZS0-] foundSubmit result: pH8XYf443EAyhrvIJ4hWBdg_ZS0- has been confirmedTrack | CTDB Status 1 | (2/2) Accurately ripped 2 | (2/2) Accurately ripped 3 | (2/2) Accurately ripped 4 | (2/2) Accurately ripped 5 | (2/2) Accurately ripped 6 | (2/2) Accurately ripped 7 | (2/2) Accurately ripped 8 | (2/2) Accurately ripped 9 | (2/2) Accurately ripped 10 | (2/2) Accurately ripped 11 | (2/2) Accurately ripped 12 | (2/2) Accurately ripped
==== Log checksum 3CC6611ED4ABCB072EB0F5A94B570CC18DB08F8B3546B7B96301711EFD06BE86 ====

Содержание индексной карты (.CUE)

REM GENRE SoundtrackREM DATE 2015REM DISCID 9D0B850CREM COMMENT "ExactAudioCopy v1.1"PERFORMER "Various Artists"TITLE "The Age of Adaline"FILE "01 - Bob Dylan - Simple Twist Of Fate.wav" WAVE TRACK 01 AUDIO TITLE "Simple Twist Of Fate" PERFORMER "Bob Dylan" INDEX 01 00:00:00 TRACK 02 AUDIO TITLE "Don't Watch Me Dancing" PERFORMER "Little Joy" INDEX 00 04:16:26FILE "02 - Little Joy - Don't Watch Me Dancing.wav" WAVE INDEX 01 00:00:00 TRACK 03 AUDIO TITLE "Since I Don't Have You" PERFORMER "The Skyliners" INDEX 00 03:33:25FILE "03 - The Skyliners - Since I Don't Have You.wav" WAVE INDEX 01 00:00:00 TRACK 04 AUDIO TITLE "Drift Dive" PERFORMER "The Antlers" INDEX 00 02:35:54FILE "04 - The Antlers - Drift Dive.wav" WAVE INDEX 01 00:00:00 TRACK 05 AUDIO TITLE "Comin' Back To Me" PERFORMER "Jefferson Airplane" INDEX 00 04:46:45FILE "05 - Jefferson Airplane - Comin' Back To Me.wav" WAVE INDEX 01 00:00:00 TRACK 06 AUDIO TITLE "The Rainbow People" PERFORMER "Dexter Gordon" INDEX 00 05:20:37FILE "06 - Dexter Gordon - The Rainbow People.wav" WAVE INDEX 01 00:00:00 TRACK 07 AUDIO TITLE "Gimme Some Lovin'" PERFORMER "Sam & Dave" INDEX 00 08:47:42FILE "07 - Sam & Dave - Gimme Some Lovin'.wav" WAVE INDEX 01 00:00:00 TRACK 08 AUDIO TITLE "I'm Just A Jitterbug" PERFORMER "Ella Fitzgerald, Chick Webb And His Orchestra" INDEX 00 02:56:44FILE "08 - Ella Fitzgerald, Chick Webb And His Orchestra - I'm Just A Jitterbug.wav" WAVE INDEX 01 00:00:00 TRACK 09 AUDIO TITLE "Tear For You My Dear" PERFORMER "Martin Gibson & Jeromy Allinger" INDEX 00 03:13:42FILE "09 - Martin Gibson & Jeromy Allinger - Tear For You My Dear.wav" WAVE INDEX 01 00:00:00 TRACK 10 AUDIO TITLE "Brighter In The Night" PERFORMER "Nancy McCallion" INDEX 00 03:24:73FILE "10 - Nancy McCallion - Brighter In The Night.wav" WAVE INDEX 01 00:00:00 TRACK 11 AUDIO TITLE "Goodnight" PERFORMER "Stephen Lu" INDEX 00 03:39:02FILE "11 - Stephen Lu - Goodnight.wav" WAVE INDEX 01 00:00:00 TRACK 12 AUDIO TITLE "Auld Lange Syne" PERFORMER "Stephen Lu" INDEX 00 03:17:64FILE "12 - Stephen Lu - Auld Lange Syne.wav" WAVE INDEX 01 00:00:00
[teatrix.ru].t10284.torrent 
Торрент: Зарегистрирован [ 2015-11-01 20:51 ] · 4E805B9C6AEF4E2C07121AEE787E8C2B09625CFE

Скачать .torrent

Скачать

14 KB

Статус: проверено
Скачан: 0 раз
Размер: 314 MB
terms.php



Быстрый ответ

Имя:

      
Для отправки сообщений необходимо включить JavaScript
Показать сообщения:    

Текущее время: 08-Дек 17:24

Часовой пояс: UTC + 3


Вы можете начинать темы
Вы можете отвечать на сообщения
Вы не можете редактировать свои сообщения
Вы не можете удалять свои сообщения
Вы не можете голосовать в опросах
Вы не можете прикреплять файлы к сообщениям
Вы можете скачивать файлы