(Score) История Золушки / A Cinderella Story :: Original Soundtrack - 2004, FLAC (image+.cue), lossless


Статистика раздачи [Обновить пиров]
Размер:  476 MB   |    Зарегистрирован:  1 год 1 месяц   |    Скачан:  0 раз

Полного источника не было: Никогда

Личеров:  6  [  0 KB/s  ]   Подробная статистика пиров
 
   
 
 
 

[Цитировать]

История Золушки - A Cinderella Story Название альбома: A Cinderella Story :: Original Soundtrack
Жанр: Score
Год выпуска диска: 2004
Страна-производитель диска: Japan
Издатель (лейбл): Avex Trax
Номер по каталогу: AVCW-12391
Аудиокодек: FLAC (*.flac)
Тип рипа: image+.cue
Битрейт аудио: lossless
Продолжительность: 48:31
Rip by Rehabilly
Наличие сканов в содержимом раздачи: да
Треклист:
01. Our Lips Are Sealed (Hilary & Haylie Duff) (2:41)
02. Anywhere But Here (Hilary Duff) (3:31)
03. The Best Day Of My Life (Jesse McCartney) (3:13)
04. Girl Can Rock (Hilary Duff) (3:11)
05. Now You Know (Hilary Duff) (3:39)
06. One In This World (Haylie Duff) (4:12)
07. Crash World (Hilary Duff) (3:01)
08. To Make You Feel My Love (Josh Kelly) (3:33)
09. Sympathy (Goo Goo Dolls) (2:48)
10. Friend (Kaitlyn) (3:49)
11. Beautiful Soul (Jesse McCartney) (3:59)
12. I'll Be (Edwin McCain) (4:28)
13. Fallen (Mya) (3:25)
14. First Day Of The Rest Of Our Lives (MXPX) (3:01)
 

Лог создания рипа

Exact Audio Copy V1.0 beta 1 from 15. November 2010
EAC extraction logfile from 28. January 2011, 11:05
Various / A Cinderella Story (Original Soundtrack)
Used drive : PIONEER DVD-RW DVR-116D Adapter: 1 ID: 0
Read mode : SecureUtilize accurate stream : YesDefeat audio cache : YesMake use of C2 pointers : No
Read offset correction : 96Overread into Lead-In and Lead-Out : NoFill up missing offset samples with silence : YesDelete leading and trailing silent blocks : NoNull samples used in CRC calculations : YesUsed interface : Installed external ASPI interface
Used output format : Internal WAV RoutinesSample format : 44.100 Hz; 16 Bit; Stereo
TOC of the extracted CD
Track | Start | Length | Start sector | End sector --------------------------------------------------------- 1 | 0:00.00 | 2:40.67 | 0 | 12066 2 | 2:40.67 | 3:31.35 | 12067 | 27926 3 | 6:12.27 | 3:12.73 | 27927 | 42399 4 | 9:25.25 | 3:10.52 | 42400 | 56701 5 | 12:36.02 | 3:39.35 | 56702 | 73161 6 | 16:15.37 | 4:11.38 | 73162 | 92024 7 | 20:27.00 | 3:00.52 | 92025 | 105576 8 | 23:27.52 | 3:32.45 | 105577 | 121521 9 | 27:00.22 | 2:48.10 | 121522 | 134131 10 | 29:48.32 | 3:49.05 | 134132 | 151311 11 | 33:37.37 | 3:58.73 | 151312 | 169234 12 | 37:36.35 | 4:28.05 | 169235 | 189339 13 | 42:04.40 | 3:24.72 | 189340 | 204711 14 | 45:29.37 | 3:01.08 | 204712 | 218294 15 | 51:02.45 | 22:55.30 | 229695 | 332849
Range status and errors
Selected range
Filename C:\AvaxHome.ru\A Cinderella Story - Original Soundtrack (2004) [Japan]\VA - A Cinderella Story (OST) [AVCW-12391].wav
Peak level 99.8 % Extraction speed 3.5 X Range quality 100.0 % Test CRC 92F75D73 Copy CRC 92F75D73 Copy OK
No errors occurred
AccurateRip summary
Track 1 not present in databaseTrack 2 not present in databaseTrack 3 not present in databaseTrack 4 not present in databaseTrack 5 not present in databaseTrack 6 not present in databaseTrack 7 not present in databaseTrack 8 not present in databaseTrack 9 not present in databaseTrack 10 not present in databaseTrack 11 not present in databaseTrack 12 not present in databaseTrack 13 not present in databaseTrack 14 not present in database
None of the tracks are present in the AccurateRip database
End of status report
==== Log checksum EF7FC67CE4C4C33F58372E6D42D26DC99E20CBA309E2163A454B7D2BA15BDABB ====
[teatrix.ru].t10285.torrent 
Торрент: Зарегистрирован [ 2015-11-01 20:51 ] · 9D39CD300E4476E506987D18F9BE6DF7815CF3FE

Скачать .torrent

Скачать

11 KB

Статус: проверено
Скачан: 0 раз
Размер: 476 MB
terms.php



Быстрый ответ

Имя:

      
Для отправки сообщений необходимо включить JavaScript
Показать сообщения:    

Текущее время: 07-Дек 21:18

Часовой пояс: UTC + 3


Вы можете начинать темы
Вы можете отвечать на сообщения
Вы не можете редактировать свои сообщения
Вы не можете удалять свои сообщения
Вы не можете голосовать в опросах
Вы не можете прикреплять файлы к сообщениям
Вы можете скачивать файлы