(Soundtrack) Ритмы любви / Taal (A. R. Rahman & Anand Bakshi performed by Various Artists) - 2006 (1999), FLAC (tracks+.cue), lossless


Статистика раздачи [Обновить пиров]
Размер:  415 MB   |    Зарегистрирован:  1 год 1 месяц   |    Скачан:  0 раз

Полного источника не было: Никогда

Личеров:  6  [  0 KB/s  ]   Подробная статистика пиров
 
   
 
 
 

[Цитировать]

Ритмы любви / Taal
Жанр: Soundtrack
Композитор: A. R. Rahman & Anand Bakshi
Год выпуска диска: 2006
Год выпуска фильма: 1999
Страна-производитель диска: India
Издатель (лейбл): Tips
Номер по каталогу: TCCD 6165
Аудиокодек: FLAC (*.flac)
Тип рипа: tracks+.cue
Битрейт аудио: lossless
Продолжительность: 01:04:29
Источник: what.cd; релизер: Mоgаmbо;
Наличие сканов в содержимом раздачи: да
Треклист:
01. Anuradha Sriram, Sujatha, Sonu Nigam & A.R. Rahman - Ishq Bina (7:45)02. Alka Yagnik & Udit Narayan - Taal Se Taal Mila (6:18)03. Hariharan & Sukhvinder Singh - Nahin Samne Tu (6:04)04. Sukhvinder Singh & Alka Yagnik - Ramta Jogi (6:17)05. A.R.Rahman - Beat of Passion (2:51)06. Sukhvinder Singh & Alka Yagnik - Kariye Na (7:15)07. Richa Sharma & Sukhvinder Singh - Ni Main Samajh Gayee (4:33)08. A.R.Rahman - Raga Dance (2:53)09. Asha Bhosle, Aditya Narayan & Richa Sharma - Kahin Aag Lage (7:15)10. Kavita Krishnamurthy & Sukhvinder Singh - Ishq Bina - Ishq Bina (8:13)11. Madhu Vaishali & Shoma - Kya Dekh Rahe Ho Tum (2:31)12. Sukhvinder Singh - Taal Se Taal (Western) (2:34)

Лог создания рипа

Exact Audio Copy V1.0 beta 3 from 29. August 2011
EAC extraction logfile from 5. November 2012, 9:29
A.R.Rahman / Taal
Used drive : HL-DT-STDVD-RAM GSA-H55N Adapter: 0 ID: 1
Read mode : SecureUtilize accurate stream : YesDefeat audio cache : YesMake use of C2 pointers : No
Read offset correction : 102Overread into Lead-In and Lead-Out : NoFill up missing offset samples with silence : YesDelete leading and trailing silent blocks : NoNull samples used in CRC calculations : YesUsed interface : Native Win32 interface for Win NT & 2000Gap handling : Appended to previous track
Used output format : User Defined EncoderSelected bitrate : 192 kBit/sQuality : HighAdd ID3 tag : NoCommand line compressor : C:\Program Files\Exact Audio Copy\Flac\flac.exeAdditional command line options : -8 -V -T "ARTIST=%artist%" -T "TITLE=%title%" -T "ALBUM=%albumtitle%" -T "DATE=%year%" -T "TRACKNUMBER=%tracknr%" -T "GENRE=%genre%" -T "PERFORMER=%albuminterpret%" -T "COMPOSER=%composer%" %haslyrics%--tag-from-file=LYRICS="%lyricsfile%"%haslyrics% -T "ALBUMARTIST=%albumartist%" -T "DISCNUMBER=%cdnumber%" -T "TOTALDISCS=%totalcds%" -T "TOTALTRACKS=%numtracks%" -T "COMMENT=%comment%" %source% -o %dest%
TOC of the extracted CD
Track | Start | Length | Start sector | End sector --------------------------------------------------------- 1 | 0:00.00 | 7:45.10 | 0 | 34884 2 | 7:45.10 | 6:18.02 | 34885 | 63236 3 | 14:03.12 | 6:03.73 | 63237 | 90534 4 | 20:07.10 | 6:17.00 | 90535 | 118809 5 | 26:24.10 | 2:51.00 | 118810 | 131634 6 | 29:15.10 | 7:15.00 | 131635 | 164259 7 | 36:30.10 | 4:33.00 | 164260 | 184734 8 | 41:03.10 | 2:53.00 | 184735 | 197709 9 | 43:56.10 | 7:15.00 | 197710 | 230334 10 | 51:11.10 | 8:13.00 | 230335 | 267309 11 | 59:24.10 | 2:31.00 | 267310 | 278634 12 | 61:55.10 | 2:34.15 | 278635 | 290199
Track 1
Filename D:\Downloads\01 - Anuradha Sriram, Sujatha, Sonu Nigam & A.R. Rahman - Ishq Bina.wav
Pre-gap length 0:00:02.00
Peak level 100.0 % Extraction speed 1.3 X Track quality 99.8 % Test CRC 15A7244A Copy CRC 15A7244A Accurately ripped (confidence 5) [3055A48E] (AR v1) Copy OK
Track 2
Filename D:\Downloads\02 - Alka Yagnik & Udit Narayan - Taal Se Taal Mila.wav
Peak level 100.0 % Extraction speed 2.2 X Track quality 100.0 % Test CRC 760A155A Copy CRC 760A155A Accurately ripped (confidence 5) [A4B54355] (AR v1) Copy OK
Track 3
Filename D:\Downloads\03 - Hariharan & Sukhwindara Singh - Nahin Samne Tu.wav
Peak level 100.0 % Extraction speed 2.3 X Track quality 100.0 % Test CRC 763D0A4C Copy CRC 763D0A4C Accurately ripped (confidence 6) [F1AEC417] (AR v1) Copy OK
Track 4
Filename D:\Downloads\04 - Sukhwindara Singh & Alka Yagnik - Ramta Jogi.wav
Peak level 97.3 % Extraction speed 2.6 X Track quality 100.0 % Test CRC E20056C1 Copy CRC E20056C1 Accurately ripped (confidence 5) [53F16A67] (AR v1) Copy OK
Track 5
Filename D:\Downloads\05 - A.R.Rahman - Beat of Passion.wav
Peak level 100.0 % Extraction speed 2.1 X Track quality 99.9 % Test CRC 4B79426A Copy CRC 4B79426A Accurately ripped (confidence 6) [48285C07] (AR v1) Copy OK
Track 6
Filename D:\Downloads\06 - Sukhwindara Singh & Alka Yagnik - Kariye Na.wav
Peak level 100.0 % Extraction speed 2.9 X Track quality 100.0 % Test CRC 754DF634 Copy CRC 754DF634 Accurately ripped (confidence 6) [E1B6EB6C] (AR v1) Copy OK
Track 7
Filename D:\Downloads\07 - Richa Sharma & Sukhwindara Singh - Ni Main Samajh Gayee.wav
Peak level 100.0 % Extraction speed 3.0 X Track quality 100.0 % Test CRC 32886FEE Copy CRC 32886FEE Accurately ripped (confidence 7) [1D62A21F] (AR v1) Copy OK
Track 8
Filename D:\Downloads\08 - A.R.Rahman - Raga Dance.wav
Peak level 100.0 % Extraction speed 2.4 X Track quality 99.9 % Test CRC 3670202A Copy CRC 3670202A Accurately ripped (confidence 7) [0B798F4D] (AR v1) Copy OK
Track 9
Filename D:\Downloads\09 - Asha Bhosle, Aditya Narayan & Richa Sharma - Kahin Aag Lage.wav
Peak level 100.0 % Extraction speed 3.4 X Track quality 100.0 % Test CRC 553300E7 Copy CRC 553300E7 Accurately ripped (confidence 5) [9D1188D1] (AR v1) Copy OK
Track 10
Filename D:\Downloads\10 - Kavita Krishnamurthy & Sukhwindara Singh - Ishq Bina - Ishq Bina.wav
Peak level 100.0 % Extraction speed 3.3 X Track quality 99.9 % Test CRC 8B98B862 Copy CRC 8B98B862 Cannot be verified as accurate (confidence 6) [13911491], AccurateRip returned [96AC33E1] (AR v2) Copy OK
Track 11
Filename D:\Downloads\11 - Madhu, Vaishali & Shorma - Kya Dekh Rahe Ho Tum.wav
Peak level 87.9 % Extraction speed 3.2 X Track quality 100.0 % Test CRC BA0B1CE3 Copy CRC BA0B1CE3 Accurately ripped (confidence 5) [A5F6F5E2] (AR v1) Copy OK
Track 12
Filename D:\Downloads\12 - Sukhwindara Singh - Taal Se Taal (Western).wav
Peak level 100.0 % Extraction speed 3.2 X Track quality 100.0 % Test CRC CC34B706 Copy CRC CC34B706 Accurately ripped (confidence 4) [FB6C2B5D] (AR v1) Copy OK
11 track(s) accurately ripped 1 track(s) could not be verified as accurate
Some tracks could not be verified as accurate
No errors occurred
End of status report
==== Log checksum 8BC2613CBFC6D02BA4F41BAB29A0B14CB79DA40DEE0FD9C31BF066BAA98D2C08 ====

Содержание индексной карты (.CUE)

REM GENRE SoundtrackREM DATE 1999REM DISCID BD0F1D0CREM COMMENT "ExactAudioCopy v1.0b3"FILE "01 - Anuradha Sriram, Sujatha, Sonu Nigam & A.R. Rahman - Ishq Bina.wav" WAVE TRACK 01 AUDIO INDEX 01 00:00:00FILE "02 - Alka Yagnik & Udit Narayan - Taal Se Taal Mila.wav" WAVE TRACK 02 AUDIO INDEX 01 00:00:00FILE "03 - Hariharan & Sukhwindara Singh - Nahin Samne Tu.wav" WAVE TRACK 03 AUDIO INDEX 01 00:00:00FILE "04 - Sukhwindara Singh & Alka Yagnik - Ramta Jogi.wav" WAVE TRACK 04 AUDIO INDEX 01 00:00:00FILE "05 - A.R.Rahman - Beat of Passion.wav" WAVE TRACK 05 AUDIO INDEX 01 00:00:00FILE "06 - Sukhwindara Singh & Alka Yagnik - Kariye Na.wav" WAVE TRACK 06 AUDIO INDEX 01 00:00:00FILE "07 - Richa Sharma & Sukhwindara Singh - Ni Main Samajh Gayee.wav" WAVE TRACK 07 AUDIO INDEX 01 00:00:00FILE "08 - A.R.Rahman - Raga Dance.wav" WAVE TRACK 08 AUDIO INDEX 01 00:00:00FILE "09 - Asha Bhosle, Aditya Narayan & Richa Sharma - Kahin Aag Lage.wav" WAVE TRACK 09 AUDIO INDEX 01 00:00:00FILE "10 - Kavita Krishnamurthy & Sukhwindara Singh - Ishq Bina - Ishq Bina.wav" WAVE TRACK 10 AUDIO INDEX 01 00:00:00FILE "11 - Madhu, Vaishali & Shorma - Kya Dekh Rahe Ho Tum.wav" WAVE TRACK 11 AUDIO INDEX 01 00:00:00FILE "12 - Sukhwindara Singh - Taal Se Taal (Western).wav" WAVE TRACK 12 AUDIO INDEX 01 00:00:00

Скриншот спектра частот

12. Sukhwindara Singh - Taal Se Taal (Western):
[teatrix.ru].t10287.torrent 
Торрент: Зарегистрирован [ 2015-11-01 20:51 ] · 51A73F9FDC2BDAD19BA630A84C8DCE7E03025D9B

Скачать .torrent

Скачать

18 KB

Статус: проверено
Скачан: 0 раз
Размер: 415 MB
terms.php



Быстрый ответ

Имя:

      
Для отправки сообщений необходимо включить JavaScript
Показать сообщения:    

Текущее время: 04-Дек 15:13

Часовой пояс: UTC + 3


Вы можете начинать темы
Вы можете отвечать на сообщения
Вы не можете редактировать свои сообщения
Вы не можете удалять свои сообщения
Вы не можете голосовать в опросах
Вы не можете прикреплять файлы к сообщениям
Вы можете скачивать файлы