(Score) Рапсодия стали / Rhapsody Of Steel (by Dimitri Tiomkin) - 2009 (1959), FLAC (image+.cue), lossless


Статистика раздачи [Обновить пиров]
Размер:  224 MB   |    Зарегистрирован:  1 год 1 месяц   |    Скачан:  0 раз

Полного источника не было: Никогда

Личеров:  5  [  0 KB/s  ]   Подробная статистика пиров
 
   
 
 
 

[Цитировать]

Рапсодия стали / Rhapsody Of Steel
Жанр: Score
Композитор: Dimitri Tiomkin
Год выпуска диска: 2009
Год выпуска фильма: 1959
Производитель диска: USA
Издатель (лейбл): Kritzerland
Номер по каталогу: KR 20014-6
Аудиокодек: FLAC (*.flac)
Тип рипа: image+.cue
Битрейт аудио: lossless
Продолжительность: 45.15
Источник: собственный рип
Наличие сканов в содержимом раздачи: да (600 dpi)
Треклист
Score Only
01. Part One [05:24.62]
02. Part Two [04:43.69]
03. Part Three [07:37.09]
04. Part Four [04:56.65]
Score With Narration (Dimitri Tiomkin & Gary Merrill)
05. Part One [05:24.41]
06. Part Two [04:44.07]
07. Part Three [07:35.72]
08. Part Four [04:47.06]

Отчёт EAC

Exact Audio Copy V1.0 beta 3 from 29. August 2011
EAC extraction logfile from 25. July 2015, 18:48
Dimitri Tiomkin / Rhapsody Of Steel
Used drive : TSSTcorpCDDVDW SH-S202H Adapter: 0 ID: 0
Read mode : SecureUtilize accurate stream : YesDefeat audio cache : YesMake use of C2 pointers : No
Read offset correction : 6Overread into Lead-In and Lead-Out : NoFill up missing offset samples with silence : YesDelete leading and trailing silent blocks : NoNull samples used in CRC calculations : YesUsed interface : Native Win32 interface for Win NT & 2000
Used output format : Internal WAV RoutinesSample format : 44.100 Hz; 16 Bit; Stereo
TOC of the extracted CD
Track | Start | Length | Start sector | End sector --------------------------------------------------------- 1 | 0:00.00 | 5:24.62 | 0 | 24361 2 | 5:24.62 | 4:43.69 | 24362 | 45655 3 | 10:08.56 | 7:37.09 | 45656 | 79939 4 | 17:45.65 | 4:56.65 | 79940 | 102204 5 | 22:42.55 | 5:24.41 | 102205 | 126545 6 | 28:07.21 | 4:44.07 | 126546 | 147852 7 | 32:51.28 | 7:35.72 | 147853 | 182049 8 | 40:27.25 | 4:47.06 | 182050 | 203580
Range status and errors
Selected range
Filename D:\Dimitri Tiomkin - Rhapsody Of Steel\Dimitri Tiomkin - Rhapsody Of Steel.wav
Peak level 98.9 % Extraction speed 5.3 X Range quality 99.9 % Test CRC AFAB49D8 Copy CRC AFAB49D8 Copy OK
No errors occurred
AccurateRip summary
Track 1 accurately ripped (confidence 3) [F56A0B3A] (AR v2)Track 2 accurately ripped (confidence 3) [322D48DB] (AR v2)Track 3 accurately ripped (confidence 3) [3C9D37D0] (AR v2)Track 4 accurately ripped (confidence 3) [00E4FC05] (AR v2)Track 5 accurately ripped (confidence 3) [41207F77] (AR v2)Track 6 accurately ripped (confidence 3) [210C9994] (AR v2)Track 7 accurately ripped (confidence 3) [0AB44968] (AR v2)Track 8 accurately ripped (confidence 3) [471DB3C1] (AR v2)
All tracks accurately ripped
End of status report
==== Log checksum 0DEB6DD33B3944E19429C10E0371F76BF4D234343CC75DCC77E01A9B67F4B840 ====
Информация об альбоме от Composer's fanВниманию почтенной публики предлагается очередной альбом из серии "А теперь и в lossless!".
На сей раз - альбом легендарного Дмитрия Тёмкина Рапсодия стали. Этот короткий мультфильм был снят по заказу United States Steel с целью показать молодому поколению эволюцию науки и техники, а также важность стали во всех этих процессах. На мультфильм не пожалели средств, и в работу были включены хорошо зарекомендовавшие себя аниматоры (многие работали на Диснея, а это о чем-то да говорит!), а также один из самых популярных композиторов того времени - Дмитрий Тёмкин. Музыку исполнил Питтсбургский филармонический оркестр, получивший второе рождение после того, как United States Steel перенесли свою штаб-квартиру в Питтсбург.
Альбом выпускался ограниченным тиражом для сотрудников и партнеров United States Steel (с шикарным полноцветным буклетом, с иллюстрациями из фильма и короткими аннотациями), так что практически сразу же стал редкостью. Несколько раз его полулегально выпускали в различных компиляциях, но это были рипы с винила.
На первой стороне была только музыка, на второй - она же, но с авторским текстом в исполнении Гари Меррила.
Ранее у нас у же была представлена mp3-версия альбома. Данная раздача - полностью идентична старой в плане музыки (за исключением того, что здесь все-таки flac, а не mp3 ). Но кроме того, в раздачу добавлены дополнительные сканы - того самого буклета 1959 года.
Для удобства слушателя единый (изначально) трек был разбит издателем на 4 части.-
[teatrix.ru].t10289.torrent 
Торрент: Зарегистрирован [ 2015-11-01 20:51 ] · F5457CF7871DD2B9BA6920C9AA94C49033762CE2

Скачать .torrent

Скачать

19 KB

Статус: проверено
Скачан: 0 раз
Размер: 224 MB
terms.php



Быстрый ответ

Имя:

      
Для отправки сообщений необходимо включить JavaScript
Показать сообщения:    

Текущее время: 09-Дек 14:38

Часовой пояс: UTC + 3


Вы можете начинать темы
Вы можете отвечать на сообщения
Вы не можете редактировать свои сообщения
Вы не можете удалять свои сообщения
Вы не можете голосовать в опросах
Вы не можете прикреплять файлы к сообщениям
Вы можете скачивать файлы