(Soundtrack) Падшие ангелы - Duo luo tian shi (Fallen Angels) (Roel A. Garcia & Frankie Chan) - 1996, FLAC (tracks+.cue), lossless


Статистика раздачи [Обновить пиров]
Размер:  205 MB   |    Зарегистрирован:  1 год 1 месяц   |    Скачан:  3 раза

Полного источника не было: 2 месяца 21 день

Личеров:  7  [  0 KB/s  ]   Подробная статистика пиров
 
   
 
 
 

[Цитировать]

Падшие ангелы - Duo luo tian shi
Название альбома: Fallen Angels
Жанр: OST
Композитор: Roel A. Garcia & Frankie Chan
Год выпуска диска: 1996
Год выпуска фильма: 1995
Страна-производитель диска: Japan
Издатель (лейбл): Prenom H.
Номер по каталогу: PHCB-1515
Продолжительность: 00:36:12
Аудиокодек: FLAC (*.flac)
Тип рипа: tracks+.cue
Битрейт аудио: lossless
Источник: интернет
Наличие сканов в содержимом раздачи: нет
Треклист:
01. First Killing (Voc. Robinson Randriaharimalala) (2:15)
02. Mission Completed (1:30)
03. Bar Scene #1 (0:51)
04. God (Cov. Laurie Anderson - Speak My Language) (3:47)
05. Second Killing (Voc. Robinson Randriaharimalala) (2:03)
06. A Summer Night (0:40)
07. The Killer #1 (1:51)
08. Bar Scene #2 (1:24)
09. Icecream Dream (2:58)
10. Crash (1:00)
11. Thinking About You (by Chyi Chin) (4:27)
12. First Love (2:17)
13. Running (0:36)
14. Broken Heart (1:20)
15. A Rainy Night (0:59)
16. The Final Mission (2:01)
17. The Killer's Death (Voc. Robinson Randriaharimalala) (3:42)
18. The Killer #2 (3:34)
19. Only You (by The Flying Pickets) (3:24)

Лог создания рипа

Exact Audio Copy V0.99 prebeta 5 from 4. May 2009
EAC extraction logfile from 9. December 2010, 21:14
Various Artists / Fallen Angels (OST)
Used drive : PLEXTOR DVDR PX-880SA Adapter: 5 ID: 0
Read mode : SecureUtilize accurate stream : YesDefeat audio cache : YesMake use of C2 pointers : No
Read offset correction : 6Overread into Lead-In and Lead-Out : NoFill up missing offset samples with silence : YesDelete leading and trailing silent blocks : NoNull samples used in CRC calculations : YesUsed interface : Native Win32 interface for Win NT & 2000Gap handling : Appended to previous track
Used output format : User Defined EncoderSelected bitrate : 1024 kBit/sQuality : HighAdd ID3 tag : NoCommand line compressor : J:\Program Files\Exact Audio Copy\FLAC\FLAC.EXEAdditional command line options : -V -8 -T "artist=%a" -T "title=%t" -T "album=%g" -T "date=%y" -T "tracknumber=%n" -T "genre=%m" %s
TOC of the extracted CD
Track | Start | Length | Start sector | End sector --------------------------------------------------------- 1 | 0:00.00 | 2:14.62 | 0 | 10111 2 | 2:14.62 | 1:29.50 | 10112 | 16836 3 | 3:44.37 | 0:51.33 | 16837 | 20694 4 | 4:35.70 | 3:47.30 | 20695 | 37749 5 | 8:23.25 | 2:03.02 | 37750 | 46976 6 | 10:26.27 | 0:40.15 | 46977 | 49991 7 | 11:06.42 | 1:51.30 | 49992 | 58346 8 | 12:57.72 | 1:23.45 | 58347 | 64616 9 | 14:21.42 | 2:58.03 | 64617 | 77969 10 | 17:19.45 | 1:00.00 | 77970 | 82469 11 | 18:19.45 | 4:27.07 | 82470 | 102501 12 | 22:46.52 | 2:16.40 | 102502 | 112741 13 | 25:03.17 | 0:36.28 | 112742 | 115469 14 | 25:39.45 | 1:19.50 | 115470 | 121444 15 | 26:59.20 | 0:58.50 | 121445 | 125844 16 | 27:57.70 | 2:01.05 | 125845 | 134924 17 | 29:59.00 | 3:42.05 | 134925 | 151579 18 | 33:41.05 | 3:34.25 | 151580 | 167654 19 | 37:15.30 | 3:23.57 | 167655 | 182936
Track 1
Filename G:\upload\Frankie Chan Fan-Kei & Roel A. Garcia - Fallen Angels (OST) - 01. First Killing (Voc. Robinson Randriaharimalala).wav
Pre-gap length 0:00:02.00
Peak level 100.0 % Track quality 99.9 % Test CRC 44411A5B Copy CRC 44411A5B Copy OK
Track 2
Filename G:\upload\Frankie Chan Fan-Kei & Roel A. Garcia - Fallen Angels (OST) - 02. Mission Completed.wav
Pre-gap length 0:00:02.00
Peak level 100.0 % Track quality 99.8 % Test CRC 3E86502D Copy CRC 3E86502D Copy OK
Track 3
Filename G:\upload\Frankie Chan Fan-Kei & Roel A. Garcia - Fallen Angels (OST) - 03. Bar Scene #1.wav
Pre-gap length 0:00:02.00
Peak level 92.6 % Track quality 99.7 % Test CRC 48D05FEB Copy CRC 48D05FEB Copy OK
Track 4
Filename G:\upload\Frankie Chan Fan-Kei & Roel A. Garcia - Fallen Angels (OST) - 04. God (Cov. Laurie Anderson - Speak My Language).wav
Pre-gap length 0:00:02.00
Peak level 100.0 % Track quality 100.0 % Test CRC 232795C0 Copy CRC 232795C0 Copy OK
Track 5
Filename G:\upload\Frankie Chan Fan-Kei & Roel A. Garcia - Fallen Angels (OST) - 05. Second Killing (Voc. Robinson Randriaharimalala).wav
Pre-gap length 0:00:02.00
Peak level 98.0 % Track quality 100.0 % Test CRC 67AE10BB Copy CRC 67AE10BB Copy OK
Track 6
Filename G:\upload\Frankie Chan Fan-Kei & Roel A. Garcia - Fallen Angels (OST) - 06. A Summer Night.wav
Pre-gap length 0:00:02.00
Peak level 99.7 % Track quality 99.7 % Test CRC 13DC5778 Copy CRC 13DC5778 Copy OK
Track 7
Filename G:\upload\Frankie Chan Fan-Kei & Roel A. Garcia - Fallen Angels (OST) - 07. The Killer #1.wav
Pre-gap length 0:00:02.00
Peak level 98.6 % Track quality 100.0 % Test CRC 2071A328 Copy CRC 2071A328 Copy OK
Track 8
Filename G:\upload\Frankie Chan Fan-Kei & Roel A. Garcia - Fallen Angels (OST) - 08. Bar Scene #2.wav
Pre-gap length 0:00:02.00
Peak level 87.6 % Track quality 100.0 % Test CRC 197E8128 Copy CRC 197E8128 Copy OK
Track 9
Filename G:\upload\Frankie Chan Fan-Kei & Roel A. Garcia - Fallen Angels (OST) - 09. Icecream Dream.wav
Pre-gap length 0:00:02.00
Peak level 100.0 % Track quality 100.0 % Test CRC A0A2225D Copy CRC A0A2225D Copy OK
Track 10
Filename G:\upload\Frankie Chan Fan-Kei & Roel A. Garcia - Fallen Angels (OST) - 10. Crash.wav
Pre-gap length 0:00:02.00
Peak level 99.7 % Track quality 100.0 % Test CRC 95F11919 Copy CRC 95F11919 Copy OK
Track 11
Filename G:\upload\Chyi Chin - Thinking About You - Fallen Angels (OST) - 11. Chyi Chin - Thinking About You.wav
Pre-gap length 0:00:02.00
Peak level 100.0 % Track quality 100.0 % Test CRC 8643CBA7 Copy CRC 8643CBA7 Copy OK
Track 12
Filename G:\upload\Frankie Chan Fan-Kei & Roel A. Garcia - Fallen Angels (OST) - 12. First Love.wav
Pre-gap length 0:00:02.00
Peak level 90.5 % Track quality 100.0 % Test CRC 903C70E1 Copy CRC 903C70E1 Copy OK
Track 13
Filename G:\upload\Frankie Chan Fan-Kei & Roel A. Garcia - Fallen Angels (OST) - 13. Running.wav
Pre-gap length 0:00:02.00
Peak level 100.0 % Track quality 100.0 % Test CRC 010D3D7C Copy CRC 010D3D7C Copy OK
Track 14
Filename G:\upload\Frankie Chan Fan-Kei & Roel A. Garcia - Fallen Angels (OST) - 14. Broken Heart.wav
Pre-gap length 0:00:02.00
Peak level 99.3 % Track quality 99.8 % Test CRC D5060251 Copy CRC D5060251 Copy OK
Track 15
Filename G:\upload\Frankie Chan Fan-Kei & Roel A. Garcia - Fallen Angels (OST) - 15. A Rainy Night.wav
Pre-gap length 0:00:02.00
Peak level 100.0 % Track quality 100.0 % Test CRC 22D54930 Copy CRC 22D54930 Copy OK
Track 16
Filename G:\upload\Frankie Chan Fan-Kei & Roel A. Garcia - Fallen Angels (OST) - 16. The Final Mission.wav
Pre-gap length 0:00:02.00
Peak level 99.7 % Track quality 100.0 % Test CRC 0B1035D5 Copy CRC 0B1035D5 Copy OK
Track 17
Filename G:\upload\Frankie Chan Fan-Kei & Roel A. Garcia - Fallen Angels (OST) - 17. The Killer's Death (Voc. Robinson Randriaharimalala).wav
Pre-gap length 0:00:02.00
Peak level 100.0 % Track quality 100.0 % Test CRC 8940CF43 Copy CRC 8940CF43 Copy OK
Track 18
Filename G:\upload\Frankie Chan Fan-Kei & Roel A. Garcia - Fallen Angels (OST) - 18. The Killer #2.wav
Pre-gap length 0:00:02.00
Peak level 79.3 % Track quality 100.0 % Test CRC E5C5B2BD Copy CRC E5C5B2BD Copy OK
Track 19
Filename G:\upload\The Flying Pickets - Fallen Angels (OST) - 19. Only You.wav
Pre-gap length 0:00:02.00
Peak level 99.3 % Track quality 100.0 % Test CRC AEB12E66 Copy CRC AEB12E66 Copy OK
No errors occurred
End of status report

Содержание индексной карты (.CUE)

REM GENRE SoundtrackREM DATE 1995REM DISCID ED098713REM COMMENT "ExactAudioCopy v0.99pb5"PERFORMER "Various Artists"TITLE "Fallen Angels (OST)"FILE "Frankie Chan Fan-Kei & Roel A. Garcia - Fallen Angels (OST) - 01. First Killing (Voc. Robinson Randriaharimalala).wav" WAVE TRACK 01 AUDIO TITLE "First Killing (Voc. Robinson Randriaharimalala)" PERFORMER "Frankie Chan Fan-Kei & Roel A. Garcia" INDEX 01 00:00:00 TRACK 02 AUDIO TITLE "Mission Completed" PERFORMER "Frankie Chan Fan-Kei & Roel A. Garcia" INDEX 00 02:12:62FILE "Frankie Chan Fan-Kei & Roel A. Garcia - Fallen Angels (OST) - 02. Mission Completed.wav" WAVE INDEX 01 00:00:00 TRACK 03 AUDIO TITLE "Bar Scene #1" PERFORMER "Frankie Chan Fan-Kei & Roel A. Garcia" INDEX 00 01:27:50FILE "Frankie Chan Fan-Kei & Roel A. Garcia - Fallen Angels (OST) - 03. Bar Scene #1.wav" WAVE INDEX 01 00:00:00 TRACK 04 AUDIO TITLE "God (Cov. Laurie Anderson - Speak My Language)" PERFORMER "Frankie Chan Fan-Kei & Roel A. Garcia" INDEX 00 00:49:33FILE "Frankie Chan Fan-Kei & Roel A. Garcia - Fallen Angels (OST) - 04. God (Cov. Laurie Anderson - Speak My Language).wav" WAVE INDEX 01 00:00:00 TRACK 05 AUDIO TITLE "Second Killing (Voc. Robinson Randriaharimalala)" PERFORMER "Frankie Chan Fan-Kei & Roel A. Garcia" INDEX 00 03:45:30FILE "Frankie Chan Fan-Kei & Roel A. Garcia - Fallen Angels (OST) - 05. Second Killing (Voc. Robinson Randriaharimalala).wav" WAVE INDEX 01 00:00:00 TRACK 06 AUDIO TITLE "A Summer Night" PERFORMER "Frankie Chan Fan-Kei & Roel A. Garcia" INDEX 00 02:01:02FILE "Frankie Chan Fan-Kei & Roel A. Garcia - Fallen Angels (OST) - 06. A Summer Night.wav" WAVE INDEX 01 00:00:00 TRACK 07 AUDIO TITLE "The Killer #1" PERFORMER "Frankie Chan Fan-Kei & Roel A. Garcia" INDEX 00 00:38:15FILE "Frankie Chan Fan-Kei & Roel A. Garcia - Fallen Angels (OST) - 07. The Killer #1.wav" WAVE INDEX 01 00:00:00 TRACK 08 AUDIO TITLE "Bar Scene #2" PERFORMER "Frankie Chan Fan-Kei & Roel A. Garcia" INDEX 00 01:49:30FILE "Frankie Chan Fan-Kei & Roel A. Garcia - Fallen Angels (OST) - 08. Bar Scene #2.wav" WAVE INDEX 01 00:00:00 TRACK 09 AUDIO TITLE "Icecream Dream" PERFORMER "Frankie Chan Fan-Kei & Roel A. Garcia" INDEX 00 01:21:45FILE "Frankie Chan Fan-Kei & Roel A. Garcia - Fallen Angels (OST) - 09. Icecream Dream.wav" WAVE INDEX 01 00:00:00 TRACK 10 AUDIO TITLE "Crash" PERFORMER "Frankie Chan Fan-Kei & Roel A. Garcia" INDEX 00 02:56:03FILE "Frankie Chan Fan-Kei & Roel A. Garcia - Fallen Angels (OST) - 10. Crash.wav" WAVE INDEX 01 00:00:00 TRACK 11 AUDIO TITLE "Chyi Chin - Thinking About You" PERFORMER "Chyi Chin - Thinking About You" INDEX 00 00:58:00FILE "Chyi Chin - Thinking About You - Fallen Angels (OST) - 11. Chyi Chin - Thinking About You.wav" WAVE INDEX 01 00:00:00 TRACK 12 AUDIO TITLE "First Love" PERFORMER "Frankie Chan Fan-Kei & Roel A. Garcia" INDEX 00 04:25:07FILE "Frankie Chan Fan-Kei & Roel A. Garcia - Fallen Angels (OST) - 12. First Love.wav" WAVE INDEX 01 00:00:00 TRACK 13 AUDIO TITLE "Running" PERFORMER "Frankie Chan Fan-Kei & Roel A. Garcia" INDEX 00 02:14:40FILE "Frankie Chan Fan-Kei & Roel A. Garcia - Fallen Angels (OST) - 13. Running.wav" WAVE INDEX 01 00:00:00 TRACK 14 AUDIO TITLE "Broken Heart" PERFORMER "Frankie Chan Fan-Kei & Roel A. Garcia" INDEX 00 00:34:28FILE "Frankie Chan Fan-Kei & Roel A. Garcia - Fallen Angels (OST) - 14. Broken Heart.wav" WAVE INDEX 01 00:00:00 TRACK 15 AUDIO TITLE "A Rainy Night" PERFORMER "Frankie Chan Fan-Kei & Roel A. Garcia" INDEX 00 01:17:50FILE "Frankie Chan Fan-Kei & Roel A. Garcia - Fallen Angels (OST) - 15. A Rainy Night.wav" WAVE INDEX 01 00:00:00 TRACK 16 AUDIO TITLE "The Final Mission" PERFORMER "Frankie Chan Fan-Kei & Roel A. Garcia" INDEX 00 00:56:50FILE "Frankie Chan Fan-Kei & Roel A. Garcia - Fallen Angels (OST) - 16. The Final Mission.wav" WAVE INDEX 01 00:00:00 TRACK 17 AUDIO TITLE "The Killer's Death (Voc. Robinson Randriaharimalala)" PERFORMER "Frankie Chan Fan-Kei & Roel A. Garcia" INDEX 00 01:59:05FILE "Frankie Chan Fan-Kei & Roel A. Garcia - Fallen Angels (OST) - 17. The Killer's Death (Voc. Robinson Randriaharimalala).wav" WAVE INDEX 01 00:00:00 TRACK 18 AUDIO TITLE "The Killer #2" PERFORMER "Frankie Chan Fan-Kei & Roel A. Garcia" INDEX 00 03:40:05FILE "Frankie Chan Fan-Kei & Roel A. Garcia - Fallen Angels (OST) - 18. The Killer #2.wav" WAVE INDEX 01 00:00:00 TRACK 19 AUDIO TITLE "Only You" PERFORMER "The Flying Pickets" INDEX 00 03:32:25FILE "The Flying Pickets - Fallen Angels (OST) - 19. Only You.wav" WAVE INDEX 01 00:00:00

Лог проверки качества

-----------------------
DON'T MODIFY THIS FILE
-----------------------
PERFORMER: auCDtect Task Manager, ver. 1.6.0 RC1 build 1.6.0.1Copyright (c) 2008-2010 y-soft. All rights reservedhttp://y-soft.org
ANALYZER: auCDtect: CD records authenticity detector, version 0.8.2Copyright (c) 2004 Oleg Berngardt. All rights reserved.Copyright (c) 2004 Alexander Djourik. All rights reserved.
FILE: The Flying Pickets - Fallen Angels (OST) - 19. Only You.flac Size: 21631932 Hash: 7E9AEB736B8FD6EE6FCAA84871C7B21B Accuracy: -m0 Conclusion: CDDA 100% Signature: 014F7A7834B37301762A9A404468A9A49D109897FILE: Frankie Chan Fan-Kei & Roel A. Garcia - Fallen Angels (OST) - 18. The Killer #2.flac Size: 17442535 Hash: A66BAA487513191546C663B9ADB99370 Accuracy: -m0 Conclusion: CDDA 100% Signature: B69787CA6FF5AB4C1A872D17C5983A2716F04A0BFILE: Frankie Chan Fan-Kei & Roel A. Garcia - Fallen Angels (OST) - 17. The Killer's Death (Voc. Robinson Randriaharimalala).flac Size: 20512580 Hash: 5E2959066B830BF58DDFAAFFE8B8F291 Accuracy: -m0 Conclusion: CDDA 100% Signature: 7BCE8CF9663FE817E26BC552F2FC2C546C962ECFFILE: Frankie Chan Fan-Kei & Roel A. Garcia - Fallen Angels (OST) - 16. The Final Mission.flac Size: 9203219 Hash: 3C64C41C3E6B3F58323E84CF483466F0 Accuracy: -m0 Conclusion: CDDA 100% Signature: 212E2D8FD5D57BEE6343284E19A2B86921B27DEAFILE: Frankie Chan Fan-Kei & Roel A. Garcia - Fallen Angels (OST) - 15. A Rainy Night.flac Size: 4501821 Hash: CCA669E4C14B6CE06F0DEBD338A3985C Accuracy: -m0 Conclusion: CDDA 100% Signature: 600C590AF584392AB40A7C9207D20B0358E6CB4AFILE: Frankie Chan Fan-Kei & Roel A. Garcia - Fallen Angels (OST) - 14. Broken Heart.flac Size: 6307499 Hash: 1190B011DA38A799F491DC941BCB1D9D Accuracy: -m0 Conclusion: CDDA 100% Signature: A5815FB2B3B7B05756045F36C88E7D26CA1C0835FILE: Frankie Chan Fan-Kei & Roel A. Garcia - Fallen Angels (OST) - 13. Running.flac Size: 3325607 Hash: 0BDC7FE210C74C0522027B52D211084C Accuracy: -m0 Conclusion: CDDA 100% Signature: 4E0225D4BC372307C3655DCEA78421C0DF1519B6FILE: Frankie Chan Fan-Kei & Roel A. Garcia - Fallen Angels (OST) - 12. First Love.flac Size: 11384503 Hash: B06A28ADC7738945AA119FCDFFA19BED Accuracy: -m0 Conclusion: CDDA 100% Signature: 5DBF3835A0F68B87E4296EA5DF5525C4899CE1BCFILE: Frankie Chan Fan-Kei & Roel A. Garcia - Fallen Angels (OST) - 10. Crash.flac Size: 6109786 Hash: 101EAC71FC18FDF28CBAD37F1B51FBD6 Accuracy: -m0 Conclusion: CDDA 100% Signature: D146015B43936166459168F1D33C225BBB8CF351FILE: Frankie Chan Fan-Kei & Roel A. Garcia - Fallen Angels (OST) - 09. Icecream Dream.flac Size: 13333757 Hash: 69C3338A734B005F8B617E397B0D0B13 Accuracy: -m0 Conclusion: CDDA 76% Signature: 8FAAECE96CF7C7D6BF195008D3540D1D470D89D3FILE: Frankie Chan Fan-Kei & Roel A. Garcia - Fallen Angels (OST) - 08. Bar Scene #2.flac Size: 7371435 Hash: D40FD412AA8FCAB876EB760F278D4016 Accuracy: -m0 Conclusion: CDDA 99% Signature: E2CC3C302F9198FACE1D96865E434F5AD7255B6CFILE: Frankie Chan Fan-Kei & Roel A. Garcia - Fallen Angels (OST) - 07. The Killer #1.flac Size: 8105218 Hash: 17FB900216EBEDCC612F6B0A29A91E61 Accuracy: -m0 Conclusion: CDDA 100% Signature: 0A086492912E074AE35905C90E649B11A5B2FF82FILE: Frankie Chan Fan-Kei & Roel A. Garcia - Fallen Angels (OST) - 06. A Summer Night.flac Size: 3055752 Hash: E9FCAE54E44DAA099A95F1A320CA2F42 Accuracy: -m0 Conclusion: CDDA 99% Signature: 0D9F717784A95D80776E39EF6D7B5A326EC7CFC0FILE: Frankie Chan Fan-Kei & Roel A. Garcia - Fallen Angels (OST) - 05. Second Killing (Voc. Robinson Randriaharimalala).flac Size: 11445511 Hash: D04FE71AE7A97D5A55B8C0503F6AE18E Accuracy: -m0 Conclusion: CDDA 100% Signature: 97FB0FDEE421CD6A93093C184DCF3E9677AC8069FILE: Frankie Chan Fan-Kei & Roel A. Garcia - Fallen Angels (OST) - 04. God (Cov. Laurie Anderson - Speak My Language).flac Size: 18593118 Hash: 218F1B6F0AA2D7A59EFA5FCFB7108386 Accuracy: -m0 Conclusion: CDDA 100% Signature: 8C890B6E1C8DDEE388D2F79105B41B07B2911A8CFILE: Frankie Chan Fan-Kei & Roel A. Garcia - Fallen Angels (OST) - 03. Bar Scene #1.flac Size: 4137371 Hash: 438A1B824450ED8510D06D58C1965CC8 Accuracy: -m0 Conclusion: CDDA 100% Signature: CED567FC2CE481B41A94BE5E5AB63949761F9359FILE: Frankie Chan Fan-Kei & Roel A. Garcia - Fallen Angels (OST) - 02. Mission Completed.flac Size: 7209539 Hash: A18581BCABA91AADF81402D13206DCFB Accuracy: -m0 Conclusion: CDDA 100% Signature: F6AC56E0969677A5C6932D40CED40CF70FADF368FILE: Frankie Chan Fan-Kei & Roel A. Garcia - Fallen Angels (OST) - 01. First Killing (Voc. Robinson Randriaharimalala).flac Size: 13418561 Hash: 048E3D5C4564B7E2012A8065ED4826BA Accuracy: -m0 Conclusion: CDDA 100% Signature: F1A7D0977598FABA97E346D5A32A0144D5DEAEC3FILE: Chyi Chin - Thinking About You - Fallen Angels (OST) - 11. Chyi Chin - Thinking About You.flac Size: 27295393 Hash: 813B23D322E1F6F88D5AF6DCBE515781 Accuracy: -m0 Conclusion: CDDA 100% Signature: EFF2527F56C15B647B55C39AF81D42525C729144

Скриншоты спектра частот

Замер динамического диапазона

foobar2000 1.2.9 / Замер динамического диапазона (DR) 1.1.1
Дата отчёта: 2015-09-20 02:55:36
--------------------------------------------------------------------------------
Анализ: Chyi Chin / Fallen Angels (OST) (1)
Frankie Chan Fan-Kei & Roel A. Garcia / Fallen Angels (OST) (2-18)
The Flying Pickets / Fallen Angels (OST) (19)
--------------------------------------------------------------------------------
DR Пики RMS Продолжительность трека
--------------------------------------------------------------------------------
DR12 0.00 дБ -14.38 дБ 4:27 11-Thinking About You
DR11 0.00 дБ -13.85 дБ 2:15 01-First Killing (Voc. Robinson Randriaharimalala)
DR12 0.00 дБ -14.54 дБ 1:30 02-Mission Completed
DR10 -0.67 дБ -14.34 дБ 0:51 03-Bar Scene #1
DR13 0.00 дБ -16.84 дБ 3:47 04-God (Cov. Laurie Anderson - Speak My Language)
DR11 -0.18 дБ -15.03 дБ 2:03 05-Second Killing (Voc. Robinson Randriaharimalala)
DR13 -0.02 дБ -16.84 дБ 0:40 06-A Summer Night
DR12 -0.12 дБ -15.99 дБ 1:51 07-The Killer #1
DR11 -1.14 дБ -15.26 дБ 1:24 08-Bar Scene #2
DR12 0.00 дБ -18.61 дБ 2:58 09-Icecream Dream
DR11 -0.02 дБ -13.13 дБ 1:00 10-Crash
DR10 -0.86 дБ -13.87 дБ 2:17 12-First Love
DR11 0.00 дБ -13.71 дБ 0:36 13-Running
DR11 -0.06 дБ -15.15 дБ 1:20 14-Broken Heart
DR14 0.00 дБ -17.29 дБ 0:59 15-A Rainy Night
DR12 -0.02 дБ -16.85 дБ 2:01 16-The Final Mission
DR12 0.00 дБ -16.70 дБ 3:42 17-The Killer's Death (Voc. Robinson Randriaharimalala)
DR11 -2.01 дБ -17.36 дБ 3:34 18-The Killer #2
DR13 -0.05 дБ -16.19 дБ 3:24 19-Only You
--------------------------------------------------------------------------------
Количество треков: 19
Реальные значения DR: DR12
Частота: 44100 Гц
Каналов: 2
Разрядность: 16
Битрейт: 849 кбит/с
Кодек: FLAC
================================================================================
[teatrix.ru].t10290.torrent 
Торрент: Зарегистрирован [ 2015-11-01 20:51 ] · 8863D51B7575508AEA304D9FF9A44BF3FFE1A8CB

Скачать .torrent

Скачать

19 KB

Статус: проверено
Скачан: 3 раз
Размер: 205 MB
terms.php



Быстрый ответ

Имя:

      
Для отправки сообщений необходимо включить JavaScript
Показать сообщения:    

Текущее время: 04-Дек 19:22

Часовой пояс: UTC + 3


Вы можете начинать темы
Вы можете отвечать на сообщения
Вы не можете редактировать свои сообщения
Вы не можете удалять свои сообщения
Вы не можете голосовать в опросах
Вы не можете прикреплять файлы к сообщениям
Вы можете скачивать файлы