(Score) После нашей эры / After Earth (by James Newton Howard) - 2013, FLAC (tracks+.cue), lossless


Статистика раздачи [Обновить пиров]
Размер:  317 MB   |    Зарегистрирован:  1 год 1 месяц   |    Скачан:  1 раз

Полного источника не было: 1 месяц 26 дней

Личеров:  6  [  0 KB/s  ]   Подробная статистика пиров
 
   
 
 
 

[Цитировать]

После нашей эры / After Earth-Жанр: Score
Композитор: James Newton Howard
Год выпуска диска: 2013
Производитель диска: USA
Издатель (лейбл): Sony Masterworks
Номер по каталогу: 88883725472-Аудиокодек: FLAC (*.flac)
Тип рипа: tracks+.cue
Битрейт аудио: lossless
Продолжительность: 00:57:32
Источник: what.cd / nazgul68
Наличие сканов в содержимом раздачи: да

Треклист

1. The History Of Man (02:22)
2. I'm Not Advancing You (01:28)
3. Pack Your Bags (01:41)
4. Leaving Nova Prime (00:48)
5. Can You Ghost? (02:10)
6. Ship Tears Apart (02:17)
7. Kitai Finds Cypher (01:19)
8. Get Me Into The Cockpit (01:36)
9. The Mission (01:31)
10. Baboons (02:52)
11. Kitai On Earth (02:56)
12. Four Vials Remain, Sir (01:11)
13. Run To The Falls (02:42)
14. Abort Mission (02:02)
15. Bird Attack (01:02)
16. Nest Battle (02:03)
17. Safety In The Hog Hole (03:42)
18. Saved By The Bird (00:52)
19. The Tail (01:41)
20. Dad, Are You There? (02:46)
21. Leech (02:59)
22. See The Peak (02:21)
23. Run To The Volcano (00:38)
24. Somewhere To Hide (01:22)
25. Chase Through The Cave (03:06)
26. Ghosting (04:45)
27. I Wanna Work With Mom (01:17)
28. After Earth (01:54)

Лог создания рипа

Exact Audio Copy V1.0 beta 3 from 29. August 2011
EAC extraction logfile from 31. May 2013, 18:57
James Newton Howard / After Earth
Used drive : HL-DT-STBD-RE BH10LS38 Adapter: 1 ID: 0
Read mode : SecureUtilize accurate stream : YesDefeat audio cache : YesMake use of C2 pointers : No
Read offset correction : 667Overread into Lead-In and Lead-Out : NoFill up missing offset samples with silence : YesDelete leading and trailing silent blocks : NoNull samples used in CRC calculations : YesUsed interface : Native Win32 interface for Win NT & 2000Gap handling : Appended to previous track
Used output format : User Defined EncoderSelected bitrate : 768 kBit/sQuality : HighAdd ID3 tag : NoCommand line compressor : C:\Program Files (x86)\Exact Audio Copy\FLAC\FLAC.EXEAdditional command line options : -8 -V -T "ARTIST=%artist%" -T "TITLE=%title%" -T "ALBUM=%albumtitle%" -T "DATE=%year%" -T "TRACKNUMBER=%tracknr%" -T "GENRE=%genre%" -T "PERFORMER=%albuminterpret%" -T "COMPOSER=%composer%" %haslyrics%--tag-from-file=LYRICS="%lyricsfile%"%haslyrics% -T "ALBUMARTIST=%albumartist%" -T "ALBUM ARTIST=%albumartist%" -T "DISCNUMBER=%cdnumber%" -T "TOTALDISCS=%totalcds%" -T "TOTALTRACKS=%numtracks%" -T "COMMENT=%comment%" %source% -o %dest%
TOC of the extracted CD
Track | Start | Length | Start sector | End sector --------------------------------------------------------- 1 | 0:00.00 | 2:23.03 | 0 | 10727 2 | 2:23.03 | 1:28.24 | 10728 | 17351 3 | 3:51.27 | 1:40.57 | 17352 | 24908 4 | 5:32.09 | 0:48.10 | 24909 | 28518 5 | 6:20.19 | 2:09.63 | 28519 | 38256 6 | 8:30.07 | 2:17.28 | 38257 | 48559 7 | 10:47.35 | 1:19.18 | 48560 | 54502 8 | 12:06.53 | 1:36.11 | 54503 | 61713 9 | 13:42.64 | 1:31.00 | 61714 | 68538 10 | 15:13.64 | 2:51.68 | 68539 | 81431 11 | 18:05.57 | 2:56.12 | 81432 | 94643 12 | 21:01.69 | 1:11.08 | 94644 | 99976 13 | 22:13.02 | 2:42.31 | 99977 | 112157 14 | 24:55.33 | 2:02.00 | 112158 | 121307 15 | 26:57.33 | 1:02.01 | 121308 | 125958 16 | 27:59.34 | 2:03.17 | 125959 | 135200 17 | 30:02.51 | 3:42.29 | 135201 | 151879 18 | 33:45.05 | 0:52.47 | 151880 | 155826 19 | 34:37.52 | 1:40.27 | 155827 | 163353 20 | 36:18.04 | 2:46.16 | 163354 | 175819 21 | 39:04.20 | 2:59.10 | 175820 | 189254 22 | 42:03.30 | 2:21.25 | 189255 | 199854 23 | 44:24.55 | 0:37.62 | 199855 | 202691 24 | 45:02.42 | 1:22.38 | 202692 | 208879 25 | 46:25.05 | 3:07.03 | 208880 | 222907 26 | 49:32.08 | 4:45.49 | 222908 | 244331 27 | 54:17.57 | 1:17.51 | 244332 | 250157 28 | 55:35.33 | 1:54.38 | 250158 | 258745
Track 1
Filename C:\Users\chris\Desktop\Rips\01 - The History of Man.wav
Pre-gap length 0:00:02.00
Peak level 96.5 % Extraction speed 1.1 X Track quality 100.0 % Test CRC 935315C5 Copy CRC 935315C5 Track not present in AccurateRip database Copy OK
Track 2
Filename C:\Users\chris\Desktop\Rips\02 - I'm Not Advancing You.wav
Peak level 96.4 % Extraction speed 0.8 X Track quality 99.8 % Test CRC 3905AE9D Copy CRC 3905AE9D Track not present in AccurateRip database Copy OK
Track 3
Filename C:\Users\chris\Desktop\Rips\03 - Pack Your Bags.wav
Peak level 80.0 % Extraction speed 1.1 X Track quality 100.0 % Test CRC 94596F6F Copy CRC 94596F6F Track not present in AccurateRip database Copy OK
Track 4
Filename C:\Users\chris\Desktop\Rips\04 - Leaving Nova Prime.wav
Peak level 96.5 % Extraction speed 0.6 X Track quality 99.7 % Test CRC FBD221DF Copy CRC FBD221DF Track not present in AccurateRip database Copy OK
Track 5
Filename C:\Users\chris\Desktop\Rips\05 - Can You Ghost.wav
Peak level 92.2 % Extraction speed 1.3 X Track quality 100.0 % Test CRC 5910C586 Copy CRC 5910C586 Track not present in AccurateRip database Copy OK
Track 6
Filename C:\Users\chris\Desktop\Rips\06 - Ship Tears Apart.wav
Peak level 96.5 % Extraction speed 1.4 X Track quality 100.0 % Test CRC 071E94A5 Copy CRC 071E94A5 Track not present in AccurateRip database Copy OK
Track 7
Filename C:\Users\chris\Desktop\Rips\07 - Kitai Finds Cypher.wav
Peak level 46.0 % Extraction speed 1.2 X Track quality 100.0 % Test CRC 6C23C6CD Copy CRC 6C23C6CD Track not present in AccurateRip database Copy OK
Track 8
Filename C:\Users\chris\Desktop\Rips\08 - Get Me Into the Cockpit.wav
Peak level 96.5 % Extraction speed 1.3 X Track quality 100.0 % Test CRC 3F44361A Copy CRC 3F44361A Track not present in AccurateRip database Copy OK
Track 9
Filename C:\Users\chris\Desktop\Rips\09 - The Mission.wav
Peak level 63.1 % Extraction speed 1.3 X Track quality 100.0 % Test CRC 96E33399 Copy CRC 96E33399 Track not present in AccurateRip database Copy OK
Track 10
Filename C:\Users\chris\Desktop\Rips\10 - Baboons.wav
Peak level 99.8 % Extraction speed 1.6 X Track quality 100.0 % Test CRC 29E21A3D Copy CRC 29E21A3D Track not present in AccurateRip database Copy OK
Track 11
Filename C:\Users\chris\Desktop\Rips\11 - Kitai On Earth.wav
Peak level 96.5 % Extraction speed 1.7 X Track quality 100.0 % Test CRC 1F66D024 Copy CRC 1F66D024 Track not present in AccurateRip database Copy OK
Track 12
Filename C:\Users\chris\Desktop\Rips\12 - Four Vials Remain, Sir.wav
Peak level 53.4 % Extraction speed 1.4 X Track quality 100.0 % Test CRC 84FF6FB3 Copy CRC 84FF6FB3 Track not present in AccurateRip database Copy OK
Track 13
Filename C:\Users\chris\Desktop\Rips\13 - Run To The Falls.wav
Peak level 96.5 % Extraction speed 1.8 X Track quality 100.0 % Test CRC D3F483DD Copy CRC D3F483DD Track not present in AccurateRip database Copy OK
Track 14
Filename C:\Users\chris\Desktop\Rips\14 - Abort Mission.wav
Peak level 99.8 % Extraction speed 1.7 X Track quality 100.0 % Test CRC 4D6353F7 Copy CRC 4D6353F7 Track not present in AccurateRip database Copy OK
Track 15
Filename C:\Users\chris\Desktop\Rips\15 - Bird Attack.wav
Peak level 99.8 % Extraction speed 1.4 X Track quality 100.0 % Test CRC 44B21BE4 Copy CRC 44B21BE4 Track not present in AccurateRip database Copy OK
Track 16
Filename C:\Users\chris\Desktop\Rips\16 - Nest Battle.wav
Peak level 96.5 % Extraction speed 1.8 X Track quality 100.0 % Test CRC 8A88CA15 Copy CRC 8A88CA15 Track not present in AccurateRip database Copy OK
Track 17
Filename C:\Users\chris\Desktop\Rips\17 - Safety In the Hog Hole.wav
Peak level 98.2 % Extraction speed 2.1 X Track quality 100.0 % Test CRC 118E8B0E Copy CRC 118E8B0E Track not present in AccurateRip database Copy OK
Track 18
Filename C:\Users\chris\Desktop\Rips\18 - Saved By the Bird.wav
Peak level 67.3 % Extraction speed 1.4 X Track quality 100.0 % Test CRC 6A5D71BB Copy CRC 6A5D71BB Track not present in AccurateRip database Copy OK
Track 19
Filename C:\Users\chris\Desktop\Rips\19 - The Tail.wav
Peak level 96.5 % Extraction speed 1.8 X Track quality 100.0 % Test CRC A146F872 Copy CRC A146F872 Track not present in AccurateRip database Copy OK
Track 20
Filename C:\Users\chris\Desktop\Rips\20 - Dad, Are You There.wav
Peak level 78.6 % Extraction speed 2.1 X Track quality 100.0 % Test CRC 1373D0E8 Copy CRC 1373D0E8 Track not present in AccurateRip database Copy OK
Track 21
Filename C:\Users\chris\Desktop\Rips\21 - Leech.wav
Peak level 96.5 % Extraction speed 2.2 X Track quality 100.0 % Test CRC A8C296E9 Copy CRC A8C296E9 Track not present in AccurateRip database Copy OK
Track 22
Filename C:\Users\chris\Desktop\Rips\22 - See the Peak.wav
Peak level 96.5 % Extraction speed 2.1 X Track quality 100.0 % Test CRC 8CA6ADDC Copy CRC 8CA6ADDC Track not present in AccurateRip database Copy OK
Track 23
Filename C:\Users\chris\Desktop\Rips\23 - Run To the Volcano.wav
Peak level 97.9 % Extraction speed 0.9 X Track quality 99.7 % Test CRC CABCD80C Copy CRC CABCD80C Track not present in AccurateRip database Copy OK
Track 24
Filename C:\Users\chris\Desktop\Rips\24 - Somewhere To Hide.wav
Peak level 99.8 % Extraction speed 1.9 X Track quality 100.0 % Test CRC D61010C3 Copy CRC D61010C3 Track not present in AccurateRip database Copy OK
Track 25
Filename C:\Users\chris\Desktop\Rips\25 - Chase Through the Cave.wav
Peak level 96.5 % Extraction speed 2.3 X Track quality 100.0 % Test CRC 1E35247C Copy CRC 1E35247C Track not present in AccurateRip database Copy OK
Track 26
Filename C:\Users\chris\Desktop\Rips\26 - Ghosting.wav
Peak level 96.5 % Extraction speed 2.6 X Track quality 100.0 % Test CRC B4462292 Copy CRC B4462292 Track not present in AccurateRip database Copy OK
Track 27
Filename C:\Users\chris\Desktop\Rips\27 - I Wanna Work With Mom.wav
Peak level 96.9 % Extraction speed 1.5 X Track quality 99.8 % Test CRC 4257DCDF Copy CRC 4257DCDF Track not present in AccurateRip database Copy OK
Track 28
Filename C:\Users\chris\Desktop\Rips\28 - After Earth.wav
Peak level 91.1 % Extraction speed 2.2 X Track quality 100.0 % Test CRC B1D6C61E Copy CRC B1D6C61E Track not present in AccurateRip database Copy OK
None of the tracks are present in the AccurateRip database
No errors occurred
End of status report
==== Log checksum B5D48AD44AA5A68D12258F2C672C3B0911F5D064A86BEB07D3F9CF15A1382229 ====

Содержание индексной карты (.CUE)

REM GENRE SoundtrackREM DATE 2013REM DISCID 970D791CREM COMMENT "ExactAudioCopy v1.0b3"FILE "01 - The History of Man.wav" WAVE TRACK 01 AUDIO INDEX 01 00:00:00FILE "02 - I'm Not Advancing You.wav" WAVE TRACK 02 AUDIO INDEX 01 00:00:00FILE "03 - Pack Your Bags.wav" WAVE TRACK 03 AUDIO INDEX 01 00:00:00FILE "04 - Leaving Nova Prime.wav" WAVE TRACK 04 AUDIO INDEX 01 00:00:00FILE "05 - Can You Ghost.wav" WAVE TRACK 05 AUDIO INDEX 01 00:00:00FILE "06 - Ship Tears Apart.wav" WAVE TRACK 06 AUDIO INDEX 01 00:00:00FILE "07 - Kitai Finds Cypher.wav" WAVE TRACK 07 AUDIO INDEX 01 00:00:00FILE "08 - Get Me Into the Cockpit.wav" WAVE TRACK 08 AUDIO INDEX 01 00:00:00FILE "09 - The Mission.wav" WAVE TRACK 09 AUDIO INDEX 01 00:00:00FILE "10 - Baboons.wav" WAVE TRACK 10 AUDIO INDEX 01 00:00:00FILE "11 - Kitai On Earth.wav" WAVE TRACK 11 AUDIO INDEX 01 00:00:00FILE "12 - Four Vials Remain, Sir.wav" WAVE TRACK 12 AUDIO INDEX 01 00:00:00FILE "13 - Run To The Falls.wav" WAVE TRACK 13 AUDIO INDEX 01 00:00:00FILE "14 - Abort Mission.wav" WAVE TRACK 14 AUDIO INDEX 01 00:00:00FILE "15 - Bird Attack.wav" WAVE TRACK 15 AUDIO INDEX 01 00:00:00FILE "16 - Nest Battle.wav" WAVE TRACK 16 AUDIO INDEX 01 00:00:00FILE "17 - Safety In the Hog Hole.wav" WAVE TRACK 17 AUDIO INDEX 01 00:00:00FILE "18 - Saved By the Bird.wav" WAVE TRACK 18 AUDIO INDEX 01 00:00:00FILE "19 - The Tail.wav" WAVE TRACK 19 AUDIO INDEX 01 00:00:00FILE "20 - Dad, Are You There.wav" WAVE TRACK 20 AUDIO INDEX 01 00:00:00FILE "21 - Leech.wav" WAVE TRACK 21 AUDIO INDEX 01 00:00:00FILE "22 - See the Peak.wav" WAVE TRACK 22 AUDIO INDEX 01 00:00:00FILE "23 - Run To the Volcano.wav" WAVE TRACK 23 AUDIO INDEX 01 00:00:00FILE "24 - Somewhere To Hide.wav" WAVE TRACK 24 AUDIO INDEX 01 00:00:00FILE "25 - Chase Through the Cave.wav" WAVE TRACK 25 AUDIO INDEX 01 00:00:00FILE "26 - Ghosting.wav" WAVE TRACK 26 AUDIO INDEX 01 00:00:00FILE "27 - I Wanna Work With Mom.wav" WAVE TRACK 27 AUDIO INDEX 01 00:00:00FILE "28 - After Earth.wav" WAVE TRACK 28 AUDIO INDEX 01 00:00:00
[teatrix.ru].t10291.torrent 
Торрент: Зарегистрирован [ 2015-11-01 20:51 ] · 318152A5F402C3255BE2F1A40F514C56256A57DA

Скачать .torrent

Скачать

15 KB

Статус: проверено
Скачан: 1 раз
Размер: 317 MB
terms.php



Быстрый ответ

Имя:

      
Для отправки сообщений необходимо включить JavaScript
Показать сообщения:    

Текущее время: 04-Дек 00:50

Часовой пояс: UTC + 3


Вы можете начинать темы
Вы можете отвечать на сообщения
Вы не можете редактировать свои сообщения
Вы не можете удалять свои сообщения
Вы не можете голосовать в опросах
Вы не можете прикреплять файлы к сообщениям
Вы можете скачивать файлы