(Score) Запретная зона / Forbidden Zone (by Danny Elfman) - 1990 (1980), FLAC (tracks+.cue), lossless


Статистика раздачи [Обновить пиров]
Размер:  210 MB   |    Зарегистрирован:  1 год 1 месяц   |    Скачан:  1 раз

Полного источника не было: 28 дней

Личеров:  6  [  0 KB/s  ]   Подробная статистика пиров
 
   
 
 
 

[Цитировать]

Запретная зона / Forbidden Zone-Жанр: Score
Композитор: Danny Elfman
Год выпуска диска: 1990
Год выпуска фильма: 1980
Производитель диска: JVC / USA
Издатель (лейбл): Varèse Sarabande
Номер по каталогу: VSD-5268-Аудиокодек: FLAC (*.flac)
Тип рипа: tracks+.cue
Битрейт аудио: lossless
Продолжительность: 00:38:47
Источник: lztr.us / Leffe
Наличие сканов в содержимом раздачи: да

Треклист

1. Forbidden Zone (02:51)
2. "Hercules" Family Theme (01:50)
3. Some Of These Days (02:55)
4. Journey Through The Intestines (00:55)
5. Squeezit's Vision of his "Sister" (00:35)
6. Queen's Revenge (02:32)
7. Factory (01:00)
8. Love Theme - Squeezit And The Chickens (00:44)
9. Flash And Gramps (00:58)
10. Squeezit The Moocher (Minnie the Moocher) (04:50)
11. Alphabet Song (02:01)
12. Cell 63 (01:21)
13. Witch's Egg (02:23)
14. Yiddishe Charleson (01:33)
15. Bim Bam Boom (01:54)
16. Chamber Music (02:01)
17. Pleure (00:39)
18. Battle Of The Queens (03:07)
19. Love Theme - King And Queen (01:14)
20. Finale (03:24)
performed by Danny Elfman / The Mystic Knights Of The Oingo Boingo

Лог создания рипа

Exact Audio Copy V1.0 beta 2 from 29. April 2011
EAC extraction logfile from 16. September 2011, 19:05
Danny Elfman / Forbidden Zone
Used drive : ASUS DRW-22B2S Adapter: 2 ID: 0
Read mode : SecureUtilize accurate stream : YesDefeat audio cache : YesMake use of C2 pointers : No
Read offset correction : 6Overread into Lead-In and Lead-Out : NoFill up missing offset samples with silence : YesDelete leading and trailing silent blocks : NoNull samples used in CRC calculations : YesUsed interface : Installed external ASPI interfaceGap handling : Appended to previous track
Used output format : User Defined EncoderSelected bitrate : 1024 kBit/sQuality : HighAdd ID3 tag : NoCommand line compressor : C:\Program Files\Exact Audio Copy\Flac\flac.exeAdditional command line options : -8 -V -T "ARTIST=%artist%" -T "TITLE=%title%" -T "ALBUM=%albumtitle%" -T "DATE=%year%" -T "TRACKNUMBER=%tracknr%"-T "TOTALTRACKS=%numtracks%" -T "GENRE=%genre%" -T "ALBUMARTIST=%albumartist%" -T "COMPOSER=%composer%" -T "A
TOC of the extracted CD
Track | Start | Length | Start sector | End sector --------------------------------------------------------- 1 | 0:00.00 | 2:52.07 | 0 | 12906 2 | 2:52.07 | 1:50.23 | 12907 | 21179 3 | 4:42.30 | 2:55.00 | 21180 | 34304 4 | 7:37.30 | 0:55.42 | 34305 | 38471 5 | 8:32.72 | 0:35.30 | 38472 | 41126 6 | 9:08.27 | 2:32.35 | 41127 | 52561 7 | 11:40.62 | 1:00.03 | 52562 | 57064 8 | 12:40.65 | 0:44.62 | 57065 | 60426 9 | 13:25.52 | 0:58.35 | 60427 | 64811 10 | 14:24.12 | 4:50.18 | 64812 | 86579 11 | 19:14.30 | 2:01.32 | 86580 | 95686 12 | 21:15.62 | 1:21.05 | 95687 | 101766 13 | 22:36.67 | 2:23.33 | 101767 | 112524 14 | 25:00.25 | 1:33.50 | 112525 | 119549 15 | 26:34.00 | 1:54.70 | 119550 | 128169 16 | 28:28.70 | 2:01.32 | 128170 | 137276 17 | 30:30.27 | 0:39.40 | 137277 | 140241 18 | 31:09.67 | 3:07.53 | 140242 | 154319 19 | 34:17.45 | 1:14.42 | 154320 | 159911 20 | 35:32.12 | 3:24.68 | 159912 | 175279
Track 1
Filename J:\Torrent\Danny Elfman - Forbidden Zone (1990) [FLAC]\01 - Forbidden Zone.wav
Pre-gap length 0:00:02.00
Peak level 100.0 % Extraction speed 3.1 X Track quality 100.0 % Test CRC DB17B362 Copy CRC DB17B362 Cannot be verified as accurate (confidence 3) [1E9CD535], AccurateRip returned [1F5742D7] (AR v2) Copy OK
Track 2
Filename J:\Torrent\Danny Elfman - Forbidden Zone (1990) [FLAC]\02 - 'Hercules' Family Theme.wav
Peak level 77.0 % Extraction speed 2.9 X Track quality 100.0 % Test CRC B277AD49 Copy CRC B277AD49 Cannot be verified as accurate (confidence 3) [E64DC4E9], AccurateRip returned [B295ACEC] (AR v2) Copy OK
Track 3
Filename J:\Torrent\Danny Elfman - Forbidden Zone (1990) [FLAC]\03 - Some of These Days.wav
Pre-gap length 0:00:01.25
Peak level 56.1 % Extraction speed 3.5 X Track quality 100.0 % Test CRC 703433C2 Copy CRC 703433C2 Cannot be verified as accurate (confidence 3) [A29B8C45], AccurateRip returned [816626E5] (AR v2) Copy OK
Track 4
Filename J:\Torrent\Danny Elfman - Forbidden Zone (1990) [FLAC]\04 - Journey Through the Intestines.wav
Pre-gap length 0:00:01.65
Peak level 68.7 % Extraction speed 2.5 X Track quality 100.0 % Test CRC 4E9CCC40 Copy CRC 4E9CCC40 Cannot be verified as accurate (confidence 3) [A602604A], AccurateRip returned [5E31ABEE] (AR v2) Copy OK
Track 5
Filename J:\Torrent\Danny Elfman - Forbidden Zone (1990) [FLAC]\05 - Squeezit's Vision of his 'Sister'.wav
Peak level 30.9 % Extraction speed 2.1 X Track quality 100.0 % Test CRC 8BA56731 Copy CRC 8BA56731 Cannot be verified as accurate (confidence 3) [CF34C79C], AccurateRip returned [10E1C6EC] (AR v2) Copy OK
Track 6
Filename J:\Torrent\Danny Elfman - Forbidden Zone (1990) [FLAC]\06 - Queen's Revenge.wav
Pre-gap length 0:00:00.22
Peak level 78.6 % Extraction speed 3.7 X Track quality 100.0 % Test CRC C365D9E0 Copy CRC C365D9E0 Cannot be verified as accurate (confidence 3) [6256A501], AccurateRip returned [D5B7900E] (AR v2) Copy OK
Track 7
Filename J:\Torrent\Danny Elfman - Forbidden Zone (1990) [FLAC]\07 - Factory.wav
Pre-gap length 0:00:00.55
Peak level 56.5 % Extraction speed 3.0 X Track quality 100.0 % Test CRC 37E50D6F Copy CRC 37E50D6F Cannot be verified as accurate (confidence 3) [45448781], AccurateRip returned [9E7DF910] (AR v2) Copy OK
Track 8
Filename J:\Torrent\Danny Elfman - Forbidden Zone (1990) [FLAC]\08 - Love Theme - Squeezit and the Chickens.wav
Pre-gap length 0:00:01.50
Peak level 23.9 % Extraction speed 1.4 X Track quality 99.7 % Test CRC CDB6899E Copy CRC CDB6899E Cannot be verified as accurate (confidence 3) [5E10A945], AccurateRip returned [5C21D805] (AR v2) Copy OK
Track 9
Filename J:\Torrent\Danny Elfman - Forbidden Zone (1990) [FLAC]\09 - Flash and Gramps.wav
Peak level 68.1 % Extraction speed 3.0 X Track quality 100.0 % Test CRC 6C9B4BDF Copy CRC 6C9B4BDF Cannot be verified as accurate (confidence 3) [82611129], AccurateRip returned [EBE1236A] (AR v2) Copy OK
Track 10
Filename J:\Torrent\Danny Elfman - Forbidden Zone (1990) [FLAC]\10 - Squeezit the Moocher (Minnie the Moocher).wav
Peak level 88.4 % Extraction speed 4.6 X Track quality 100.0 % Test CRC 93585A1C Copy CRC 93585A1C Cannot be verified as accurate (confidence 3) [BBBC5996], AccurateRip returned [8C9B532B] (AR v2) Copy OK
Track 11
Filename J:\Torrent\Danny Elfman - Forbidden Zone (1990) [FLAC]\11 - Alphabet Song.wav
Pre-gap length 0:00:01.70
Peak level 75.1 % Extraction speed 4.1 X Track quality 100.0 % Test CRC 2ABB36BC Copy CRC 2ABB36BC Cannot be verified as accurate (confidence 3) [C099620C], AccurateRip returned [7F96BA8B] (AR v2) Copy OK
Track 12
Filename J:\Torrent\Danny Elfman - Forbidden Zone (1990) [FLAC]\12 - Cell 63.wav
Pre-gap length 0:00:00.37
Peak level 97.7 % Extraction speed 3.8 X Track quality 100.0 % Test CRC 1A2F4C0C Copy CRC 1A2F4C0C Cannot be verified as accurate (confidence 3) [C1101DF9], AccurateRip returned [91CA7630] (AR v2) Copy OK
Track 13
Filename J:\Torrent\Danny Elfman - Forbidden Zone (1990) [FLAC]\13 - Witch's Egg.wav
Peak level 68.0 % Extraction speed 3.1 X Track quality 99.9 % Test CRC 5AF296F5 Copy CRC 5AF296F5 Cannot be verified as accurate (confidence 3) [E1577460], AccurateRip returned [FC82F4AD] (AR v2) Copy OK
Track 14
Filename J:\Torrent\Danny Elfman - Forbidden Zone (1990) [FLAC]\14 - Yiddishe Charleston.wav
Pre-gap length 0:00:01.68
Peak level 48.5 % Extraction speed 4.1 X Track quality 100.0 % Test CRC 19601991 Copy CRC 19601991 Cannot be verified as accurate (confidence 3) [4210344F], AccurateRip returned [2BFA11DF] (AR v2) Copy OK
Track 15
Filename J:\Torrent\Danny Elfman - Forbidden Zone (1990) [FLAC]\15 - Bim Bam Boom.wav
Pre-gap length 0:00:00.10
Peak level 77.6 % Extraction speed 3.9 X Track quality 100.0 % Test CRC 4CC7670E Copy CRC 4CC7670E Cannot be verified as accurate (confidence 3) [DF1AC1DA], AccurateRip returned [77F2BE80] (AR v2) Copy OK
Track 16
Filename J:\Torrent\Danny Elfman - Forbidden Zone (1990) [FLAC]\16 - Chamber Music.wav
Pre-gap length 0:00:00.43
Peak level 42.7 % Extraction speed 4.6 X Track quality 100.0 % Test CRC B819273D Copy CRC B819273D Cannot be verified as accurate (confidence 3) [A882FD41], AccurateRip returned [70CB6070] (AR v2) Copy OK
Track 17
Filename J:\Torrent\Danny Elfman - Forbidden Zone (1990) [FLAC]\17 - Pleure.wav
Pre-gap length 0:00:01.27
Peak level 39.5 % Extraction speed 1.7 X Track quality 99.7 % Test CRC D84D0CCE Copy CRC D84D0CCE Cannot be verified as accurate (confidence 3) [82066098], AccurateRip returned [5D5E860B] (AR v2) Copy OK
Track 18
Filename J:\Torrent\Danny Elfman - Forbidden Zone (1990) [FLAC]\18 - Battle of the Queens.wav
Pre-gap length 0:00:01.10
Peak level 87.3 % Extraction speed 5.2 X Track quality 100.0 % Test CRC 07EB1770 Copy CRC 07EB1770 Cannot be verified as accurate (confidence 3) [3AB8836F], AccurateRip returned [404B53A5] (AR v2) Copy OK
Track 19
Filename J:\Torrent\Danny Elfman - Forbidden Zone (1990) [FLAC]\19 - Love Theme - King and Queen.wav
Pre-gap length 0:00:01.43
Peak level 35.4 % Extraction speed 4.2 X Track quality 100.0 % Test CRC 783E53B4 Copy CRC 783E53B4 Cannot be verified as accurate (confidence 3) [DE5E5EB0], AccurateRip returned [818B058D] (AR v2) Copy OK
Track 20
Filename J:\Torrent\Danny Elfman - Forbidden Zone (1990) [FLAC]\20 - Finale.wav
Peak level 79.3 % Extraction speed 5.5 X Track quality 100.0 % Test CRC 62D781EC Copy CRC 62D781EC Cannot be verified as accurate (confidence 3) [DDAD5D46], AccurateRip returned [34FCE7C9] (AR v2) Copy OK
No tracks could be verified as accurateYou may have a different pressing from the one(s) in the database
No errors occurred
End of status report
==== Log checksum 2A0668CC2B4FCD57746466A4E9AB0AFD0F9A279F88D3090AE743F19B099A34B1 ====

Содержание индексной карты (.CUE)

REM GENRE rockREM DATE 1980REM DISCID 0C092114REM COMMENT "ExactAudioCopy v1.0b2"PERFORMER "Danny Elfman"TITLE "Forbidden Zone"FILE "01 - Forbidden Zone.wav" WAVE TRACK 01 AUDIO TITLE "Forbidden Zone" PERFORMER "Danny Elfman" INDEX 01 00:00:00FILE "02 - 'Hercules' Family Theme.wav" WAVE TRACK 02 AUDIO TITLE "'Hercules' Family Theme" PERFORMER "Danny Elfman" INDEX 01 00:00:00 TRACK 03 AUDIO TITLE "Some of These Days" PERFORMER "Danny Elfman" INDEX 00 01:48:73FILE "03 - Some of These Days.wav" WAVE INDEX 01 00:00:00 TRACK 04 AUDIO TITLE "Journey Through the Intestines" PERFORMER "Danny Elfman" INDEX 00 02:53:10FILE "04 - Journey Through the Intestines.wav" WAVE INDEX 01 00:00:00FILE "05 - Squeezit's Vision of his 'Sister'.wav" WAVE TRACK 05 AUDIO TITLE "Squeezit's Vision of his 'Sister'" PERFORMER "Danny Elfman" INDEX 01 00:00:00 TRACK 06 AUDIO TITLE "Queen's Revenge" PERFORMER "Danny Elfman" INDEX 00 00:35:08FILE "06 - Queen's Revenge.wav" WAVE INDEX 01 00:00:00 TRACK 07 AUDIO TITLE "Factory" PERFORMER "Danny Elfman" INDEX 00 02:31:55FILE "07 - Factory.wav" WAVE INDEX 01 00:00:00 TRACK 08 AUDIO TITLE "Love Theme - Squeezit and the Chickens" PERFORMER "Danny Elfman" INDEX 00 00:58:28FILE "08 - Love Theme - Squeezit and the Chickens.wav" WAVE INDEX 01 00:00:00FILE "09 - Flash and Gramps.wav" WAVE TRACK 09 AUDIO TITLE "Flash and Gramps" PERFORMER "Danny Elfman" INDEX 01 00:00:00FILE "10 - Squeezit the Moocher (Minnie the Moocher).wav" WAVE TRACK 10 AUDIO TITLE "Squeezit the Moocher (Minnie the Moocher)" PERFORMER "Danny Elfman" INDEX 01 00:00:00 TRACK 11 AUDIO TITLE "Alphabet Song" PERFORMER "Danny Elfman" INDEX 00 04:48:23FILE "11 - Alphabet Song.wav" WAVE INDEX 01 00:00:00 TRACK 12 AUDIO TITLE "Cell 63" PERFORMER "Danny Elfman" INDEX 00 02:00:70FILE "12 - Cell 63.wav" WAVE INDEX 01 00:00:00FILE "13 - Witch's Egg.wav" WAVE TRACK 13 AUDIO TITLE "Witch's Egg" PERFORMER "Danny Elfman" INDEX 01 00:00:00 TRACK 14 AUDIO TITLE "Yiddishe Charleston" PERFORMER "Danny Elfman" INDEX 00 02:21:40FILE "14 - Yiddishe Charleston.wav" WAVE INDEX 01 00:00:00 TRACK 15 AUDIO TITLE "Bim Bam Boom" PERFORMER "Danny Elfman" INDEX 00 01:33:40FILE "15 - Bim Bam Boom.wav" WAVE INDEX 01 00:00:00 TRACK 16 AUDIO TITLE "Chamber Music" PERFORMER "Danny Elfman" INDEX 00 01:54:27FILE "16 - Chamber Music.wav" WAVE INDEX 01 00:00:00 TRACK 17 AUDIO TITLE "Pleure" PERFORMER "Danny Elfman" INDEX 00 02:00:05FILE "17 - Pleure.wav" WAVE INDEX 01 00:00:00 TRACK 18 AUDIO TITLE "Battle of the Queens" PERFORMER "Danny Elfman" INDEX 00 00:38:30FILE "18 - Battle of the Queens.wav" WAVE INDEX 01 00:00:00 TRACK 19 AUDIO TITLE "Love Theme - King and Queen" PERFORMER "Danny Elfman" INDEX 00 03:06:10FILE "19 - Love Theme - King and Queen.wav" WAVE INDEX 01 00:00:00FILE "20 - Finale.wav" WAVE TRACK 20 AUDIO TITLE "Finale" PERFORMER "Danny Elfman" INDEX 01 00:00:00
[teatrix.ru].t10292.torrent 
Торрент: Зарегистрирован [ 2015-11-01 20:51 ] · A26B41457D14C266FC348B0409AE43D12E3C04F7

Скачать .torrent

Скачать

18 KB

Статус: проверено
Скачан: 1 раз
Размер: 210 MB
terms.php



Быстрый ответ

Имя:

      
Для отправки сообщений необходимо включить JavaScript
Показать сообщения:    

Текущее время: 09-Дек 14:40

Часовой пояс: UTC + 3


Вы можете начинать темы
Вы можете отвечать на сообщения
Вы не можете редактировать свои сообщения
Вы не можете удалять свои сообщения
Вы не можете голосовать в опросах
Вы не можете прикреплять файлы к сообщениям
Вы можете скачивать файлы