(Soundtrack) Накал страстей / Fever Pitch (Fever Pitch - Music And Moments From The Film) - 1997, FLAC (tracks+.cue), lossless


Статистика раздачи [Обновить пиров]
Размер:  324 MB   |    Зарегистрирован:  1 год 1 месяц   |    Скачан:  0 раз

Полного источника не было: Никогда

Личеров:  6  [  0 KB/s  ]   Подробная статистика пиров
 
   
 
 
 

[Цитировать]

НАКАЛ СТРАСТЕЙ / FEVER PITCH.Название альбома: Fever Pitch - Music And Moments From The Film
Жанр: Soundtrack
Год выпуска диска: 1997
Год выпуска фильма: 1997
Страна-производитель диска: Germany
Издатель (лейбл): Blanco Y Negro
Номер по каталогу: 0630-18453-2
Аудиокодек: FLAC (*.flac)
Тип рипа: tracks+.cue
Битрейт аудио: lossless
Продолжительность: 00:42:44
Источник: собственный рип
Наличие сканов в содержимом раздачи: да - 600 dpi
.Треклист:
01. No Artist - Anthropologists...
02. The La's - There She Goes.
03. No Artist - It's Not The Smoking...
04. Harry J Allstars - Liquidator.
05. Why Is It... / The Pogues - Fiesta.
06. Neill MacColl & Boo Hewerdine - Cafe '68.
07. No Artist - It's Not Easy...
08. The Who - Baba O'Riley.
09. Tim Hardin - How Can We Hang On To A Dream.
10. No Artist - Football...
11. Fine Young Criminals - Good Thing.
12. Lisa Stansfield - All Around The World.
13. No Artist - Up For Grabs...
14. Van Morrison - Bright Side Of The Road.
15. No Artist - When I Think Back...
16. The Pretenders - Goin' Back.
17. Neill MacColl & Boo Hewerdine - Fever Pitch.

Лог создания рипа

Exact Audio Copy V1.0 beta 3 from 29. August 2011
Отчёт EAC об извлечении, выполненном 14. сентября 2015, 22:31
Various / Fever Pitch
Дисковод: TSSTcorpCDDVDW SH-222BB Adapter: 3 ID: 0
Режим чтения : ДостоверностьИспользование точного потока : ДаОтключение кэша аудио : ДаИспользование указателей C2 : Нет
Коррекция смещения при чтении : 6Способность читать области Lead-in и Lead-out : НетЗаполнение пропущенных сэмплов тишиной : ДаУдаление блоков с тишиной в начале и конце : НетПри вычислениях CRC использовались нулевые сэмплы : ДаИнтерфейс : Установленный внешний ASPI-интерфейсОбработка зазоров : Добавлено к предыдущему треку
Выходной формат : Пользовательский кодировщикВыбранный битрейт : 128 kBit/sКачество : ВысокийДобавление ID3-тега : НетУтилита сжатия : C:\Program Files\Exact Audio Copy\FLAC\FLAC.EXEДополнительные параметры : -V -8 -T "Genre=%genre%" -T "Artist=%artist%" -T "Title=%title%" -T "Album=%albumtitle%" -T "Date=%year%" -T "Tracknumber=%tracknr%" -T "Comment=%comment%" %source%
TOC извлечённого CD
Трек | Старт | Длительность | Начальный сектор | Конечный сектор --------------------------------------------------------------------- 1 | 0:00.00 | 0:14.30 | 0 | 1079 2 | 0:14.30 | 2:39.32 | 1080 | 13036 3 | 2:53.62 | 0:10.28 | 13037 | 13814 4 | 3:04.15 | 3:10.02 | 13815 | 28066 5 | 6:14.17 | 4:06.38 | 28067 | 46554 6 | 10:20.55 | 2:55.40 | 46555 | 59719 7 | 13:16.20 | 0:33.07 | 59720 | 62201 8 | 13:49.27 | 5:10.15 | 62202 | 85466 9 | 18:59.42 | 2:02.73 | 85467 | 94689 10 | 21:02.40 | 2:01.57 | 94690 | 103821 11 | 23:04.22 | 3:22.35 | 103822 | 119006 12 | 26:26.57 | 4:20.33 | 119007 | 138539 13 | 30:47.15 | 0:25.32 | 138540 | 140446 14 | 31:12.47 | 3:43.08 | 140447 | 157179 15 | 34:55.55 | 0:43.57 | 157180 | 160461 16 | 35:39.37 | 4:05.63 | 160462 | 178899 17 | 39:45.25 | 2:59.10 | 178900 | 192334
Трек 1
Имя файла I:\MOI_RAZDACI\VA Fever Pitch 1997\VA_Fever.Pitch_Music.And.Moments.From.The.Film_1997\01. No Artist , Anthropologists....wav
Длина предзазора 0:00:02.00
Пиковый уровень 39.4 % Скорость извлечения 0.4 X Качество трека 100.0 % CRC теста 523AB701 CRC копии 523AB701 Точное извлечение (достоверность 2) [A9FC286E] (AR v2) Копирование... OK
Трек 2
Имя файла I:\MOI_RAZDACI\VA Fever Pitch 1997\VA_Fever.Pitch_Music.And.Moments.From.The.Film_1997\02. The La's , There She Goes.wav
Длина предзазора 0:00:00.19
Пиковый уровень 99.6 % Скорость извлечения 1.6 X Качество трека 100.0 % CRC теста 1B1B4CA1 CRC копии 1B1B4CA1 Точное извлечение (достоверность 2) [97BEA8C2] (AR v2) Копирование... OK
Трек 3
Имя файла I:\MOI_RAZDACI\VA Fever Pitch 1997\VA_Fever.Pitch_Music.And.Moments.From.The.Film_1997\03. No Artist , It's Not The Smoking....wav
Длина предзазора 0:00:00.27
Пиковый уровень 76.8 % Скорость извлечения 0.4 X Качество трека 100.0 % CRC теста 5AEF1415 CRC копии 5AEF1415 Точное извлечение (достоверность 2) [C68C3168] (AR v2) Копирование... OK
Трек 4
Имя файла I:\MOI_RAZDACI\VA Fever Pitch 1997\VA_Fever.Pitch_Music.And.Moments.From.The.Film_1997\04. Harry J Allstars , Liquidator.wav
Пиковый уровень 97.5 % Скорость извлечения 1.8 X Качество трека 100.0 % CRC теста 3102496D CRC копии 3102496D Точное извлечение (достоверность 2) [314B43A7] (AR v2) Копирование... OK
Трек 5
Имя файла I:\MOI_RAZDACI\VA Fever Pitch 1997\VA_Fever.Pitch_Music.And.Moments.From.The.Film_1997\05. Why Is It... ,, The Pogues , Fiesta.wav
Пиковый уровень 98.8 % Скорость извлечения 2.0 X Качество трека 100.0 % CRC теста 732F6587 CRC копии 732F6587 Точное извлечение (достоверность 2) [D0815943] (AR v2) Копирование... OK
Трек 6
Имя файла I:\MOI_RAZDACI\VA Fever Pitch 1997\VA_Fever.Pitch_Music.And.Moments.From.The.Film_1997\06. Neill MacColl & Boo Hewerdine , Cafe '68.wav
Пиковый уровень 95.9 % Скорость извлечения 2.0 X Качество трека 100.0 % CRC теста 0D656801 CRC копии 0D656801 Точное извлечение (достоверность 2) [8F03CC06] (AR v2) Копирование... OK
Трек 7
Имя файла I:\MOI_RAZDACI\VA Fever Pitch 1997\VA_Fever.Pitch_Music.And.Moments.From.The.Film_1997\07. No Artist , It's Not Easy....wav
Длина предзазора 0:00:00.02
Пиковый уровень 98.8 % Скорость извлечения 1.2 X Качество трека 100.0 % CRC теста 5CB85B6D CRC копии 5CB85B6D Точное извлечение (достоверность 2) [3109CBC9] (AR v2) Копирование... OK
Трек 8
Имя файла I:\MOI_RAZDACI\VA Fever Pitch 1997\VA_Fever.Pitch_Music.And.Moments.From.The.Film_1997\08. The Who , Baba O'Riley.wav
Пиковый уровень 99.8 % Скорость извлечения 2.4 X Качество трека 100.0 % CRC теста F9F82565 CRC копии F9F82565 Точное извлечение (достоверность 2) [92662ECC] (AR v2) Копирование... OK
Трек 9
Имя файла I:\MOI_RAZDACI\VA Fever Pitch 1997\VA_Fever.Pitch_Music.And.Moments.From.The.Film_1997\09. Tim Hardin , How Can We Hang On To A Dream.wav
Длина предзазора 0:00:02.31
Пиковый уровень 97.4 % Скорость извлечения 2.2 X Качество трека 100.0 % CRC теста FF3E0590 CRC копии FF3E0590 Точное извлечение (достоверность 2) [281D6C5D] (AR v2) Копирование... OK
Трек 10
Имя файла I:\MOI_RAZDACI\VA Fever Pitch 1997\VA_Fever.Pitch_Music.And.Moments.From.The.Film_1997\10. No Artist , Football....wav
Длина предзазора 0:00:00.64
Пиковый уровень 60.8 % Скорость извлечения 2.2 X Качество трека 100.0 % CRC теста D1466387 CRC копии D1466387 Точное извлечение (достоверность 2) [7DD55FEF] (AR v2) Копирование... OK
Трек 11
Имя файла I:\MOI_RAZDACI\VA Fever Pitch 1997\VA_Fever.Pitch_Music.And.Moments.From.The.Film_1997\11. Fine Young Criminals , Good Thing.wav
Пиковый уровень 86.1 % Скорость извлечения 2.5 X Качество трека 100.0 % CRC теста 1017E4FC CRC копии 1017E4FC Точное извлечение (достоверность 2) [5BA01717] (AR v2) Копирование... OK
Трек 12
Имя файла I:\MOI_RAZDACI\VA Fever Pitch 1997\VA_Fever.Pitch_Music.And.Moments.From.The.Film_1997\12. Lisa Stansfield , All Around The World.wav
Длина предзазора 0:00:01.59
Пиковый уровень 77.1 % Скорость извлечения 2.7 X Качество трека 100.0 % CRC теста D73A2A3A CRC копии D73A2A3A Точное извлечение (достоверность 2) [AC4EE59C] (AR v2) Копирование... OK
Трек 13
Имя файла I:\MOI_RAZDACI\VA Fever Pitch 1997\VA_Fever.Pitch_Music.And.Moments.From.The.Film_1997\13. No Artist , Up For Grabs....wav
Пиковый уровень 90.3 % Скорость извлечения 1.3 X Качество трека 100.0 % CRC теста 397AD585 CRC копии 397AD585 Точное извлечение (достоверность 2) [9D625ADE] (AR v2) Копирование... OK
Трек 14
Имя файла I:\MOI_RAZDACI\VA Fever Pitch 1997\VA_Fever.Pitch_Music.And.Moments.From.The.Film_1997\14. Van Morrison , Bright Side Of The Road.wav
Длина предзазора 0:00:00.01
Пиковый уровень 98.8 % Скорость извлечения 2.2 X Качество трека 99.9 % CRC теста E708204F CRC копии E708204F Точное извлечение (достоверность 2) [3AF9508D] (AR v2) Копирование... OK
Трек 15
Имя файла I:\MOI_RAZDACI\VA Fever Pitch 1997\VA_Fever.Pitch_Music.And.Moments.From.The.Film_1997\15. No Artist , When I Think Back....wav
Пиковый уровень 86.9 % Скорость извлечения 1.8 X Качество трека 100.0 % CRC теста 505CB186 CRC копии 505CB186 Точное извлечение (достоверность 2) [2E9A4DA6] (AR v2) Копирование... OK
Трек 16
Имя файла I:\MOI_RAZDACI\VA Fever Pitch 1997\VA_Fever.Pitch_Music.And.Moments.From.The.Film_1997\16. The Pretenders , Goin' Back.wav
Длина предзазора 0:00:00.02
Пиковый уровень 93.1 % Скорость извлечения 3.0 X Качество трека 100.0 % CRC теста 40AD7B0A CRC копии 40AD7B0A Точное извлечение (достоверность 2) [DBBE9FBE] (AR v2) Копирование... OK
Трек 17
Имя файла I:\MOI_RAZDACI\VA Fever Pitch 1997\VA_Fever.Pitch_Music.And.Moments.From.The.Film_1997\17. Neill MacColl & Boo Hewerdine , Fever Pitch.wav
Длина предзазора 0:00:00.11
Пиковый уровень 99.5 % Скорость извлечения 2.9 X Качество трека 100.0 % CRC теста 616374B4 CRC копии 616374B4 Точное извлечение (достоверность 2) [498AC178] (AR v2) Копирование... OK
Все треки извлечены точно
Ошибок не произошло
Конец отчёта
==== Контрольная сумма отчёта CEF4A75249AE85D9D33F715C6F52FDEF2714D30FF2C0C83798618576EC8B1187 ====

Содержание индексной карты (.CUE)

REM GENRE SoundtrackREM DATE 1997REM DISCID F70A0411REM COMMENT "ExactAudioCopy v1.0b3"CATALOG 0630184530200PERFORMER "Various"TITLE "Fever Pitch"FILE "01. No Artist , Anthropologists....wav" WAVE TRACK 01 AUDIO TITLE "No Artist / Anthropologists..." PERFORMER "Various" INDEX 01 00:00:00 TRACK 02 AUDIO TITLE "The La's / There She Goes" PERFORMER "Various" INDEX 00 00:14:11FILE "02. The La's , There She Goes.wav" WAVE INDEX 01 00:00:00 TRACK 03 AUDIO TITLE "No Artist / It's Not The Smoking..." PERFORMER "Various" INDEX 00 02:39:05FILE "03. No Artist , It's Not The Smoking....wav" WAVE INDEX 01 00:00:00FILE "04. Harry J Allstars , Liquidator.wav" WAVE TRACK 04 AUDIO TITLE "Harry J Allstars / Liquidator" PERFORMER "Various" INDEX 01 00:00:00FILE "05. Why Is It... ,, The Pogues , Fiesta.wav" WAVE TRACK 05 AUDIO TITLE "Why Is It... // The Pogues / Fiesta" PERFORMER "Various" INDEX 01 00:00:00FILE "06. Neill MacColl & Boo Hewerdine , Cafe '68.wav" WAVE TRACK 06 AUDIO TITLE "Neill MacColl & Boo Hewerdine / Cafe '68" PERFORMER "Various" INDEX 01 00:00:00 TRACK 07 AUDIO TITLE "No Artist / It's Not Easy..." PERFORMER "Various" INDEX 00 02:55:38FILE "07. No Artist , It's Not Easy....wav" WAVE INDEX 01 00:00:00FILE "08. The Who , Baba O'Riley.wav" WAVE TRACK 08 AUDIO TITLE "The Who / Baba O'Riley" PERFORMER "Various" ISRC GBAKW7100113 INDEX 01 00:00:00 TRACK 09 AUDIO TITLE "Tim Hardin / How Can We Hang On To A Dream" PERFORMER "Various" ISRC USPR36500010 INDEX 00 05:07:59FILE "09. Tim Hardin , How Can We Hang On To A Dream.wav" WAVE INDEX 01 00:00:00 TRACK 10 AUDIO TITLE "No Artist / Football..." PERFORMER "Various" INDEX 00 02:02:09FILE "10. No Artist , Football....wav" WAVE INDEX 01 00:00:00FILE "11. Fine Young Criminals , Good Thing.wav" WAVE TRACK 11 AUDIO TITLE "Fine Young Criminals / Good Thing" PERFORMER "Various" INDEX 01 00:00:00 TRACK 12 AUDIO TITLE "Lisa Stansfield / All Around The World" PERFORMER "Various" ISRC GBARK8900003 INDEX 00 03:20:51FILE "12. Lisa Stansfield , All Around The World.wav" WAVE INDEX 01 00:00:00FILE "13. No Artist , Up For Grabs....wav" WAVE TRACK 13 AUDIO TITLE "No Artist / Up For Grabs..." PERFORMER "Various" ISRC GBAKW7100113 INDEX 01 00:00:00 TRACK 14 AUDIO TITLE "Van Morrison / Bright Side Of The Road" PERFORMER "Various" ISRC GBAKW7100113 INDEX 00 00:25:31FILE "14. Van Morrison , Bright Side Of The Road.wav" WAVE INDEX 01 00:00:00FILE "15. No Artist , When I Think Back....wav" WAVE TRACK 15 AUDIO TITLE "No Artist / When I Think Back..." PERFORMER "Various" INDEX 01 00:00:00 TRACK 16 AUDIO TITLE "The Pretenders / Goin' Back" PERFORMER "Various" ISRC GBAHT9702227 INDEX 00 00:43:55FILE "16. The Pretenders , Goin' Back.wav" WAVE INDEX 01 00:00:00 TRACK 17 AUDIO TITLE "Neill MacColl & Boo Hewerdine / Fever Pitch" PERFORMER "Various" INDEX 00 04:05:52FILE "17. Neill MacColl & Boo Hewerdine , Fever Pitch.wav" WAVE INDEX 01 00:00:00

Лог проверки качества

-----------------------
DON'T MODIFY THIS FILE
-----------------------
PERFORMER: auCDtect Task Manager, ver. 1.5.1RC6 build 1.5.1.7Copyright (c) 2008-2010 y-soft. All rights reservedhttp://y-soft.org
ANALYZER: auCDtect: CD records authenticity detector, version 0.8.2Copyright (c) 2004 Oleg Berngardt. All rights reserved.Copyright (c) 2004 Alexander Djourik. All rights reserved.
FILE: 17. Neill MacColl & Boo Hewerdine , Fever Pitch.flac Size: 21295727 Hash: D49A37A3A76678DB589FF536081007E4 Accuracy: -m0 Conclusion: CDDA 100% Signature: 5B6739402F7D423386CB5F3FE6F94F3D5CBAA2EAFILE: 16. The Pretenders , Goin' Back.flac Size: 28370145 Hash: 56FADE8F95650C23840D339E55B20959 Accuracy: -m0 Conclusion: CDDA 100% Signature: D0C286A92C19A62421FDC7A792EAD733F09C88F1FILE: 15. No Artist , When I Think Back....flac Size: 2903940 Hash: 46DCD774F0571585795FD225AF11BD44 Accuracy: -m0 Conclusion: CDDA 100% Signature: 607D785C1B8A9AF3B1F1CD977E96592018B99494FILE: 14. Van Morrison , Bright Side Of The Road.flac Size: 26601483 Hash: 77036E15D76DACE1A258B9FF24BEDD60 Accuracy: -m0 Conclusion: CDDA 100% Signature: 9D359108B53E44940E5E9FC08AB9388486E89AB1FILE: 13. No Artist , Up For Grabs....flac Size: 1306931 Hash: 0A2028B1BBDBB923F4E63B3173F81AB1 Accuracy: -m0 Conclusion: ??? Signature: AF788C9F55D397B7BEA9F457CCA1B9C06768F922FILE: 12. Lisa Stansfield , All Around The World.flac Size: 32748992 Hash: 71E7DE95295533CBD86FE54106058CE3 Accuracy: -m0 Conclusion: CDDA 100% Signature: 24046A54D0A2B868B30554A49B2312539063C6D5FILE: 11. Fine Young Criminals , Good Thing.flac Size: 24709469 Hash: FBE5E9DD84561F3CA995B14317913225 Accuracy: -m0 Conclusion: CDDA 99% Signature: D8DC7139D8F4A2D4A0C2BC2E0738CD54D73A8801FILE: 10. No Artist , Football....flac Size: 11486717 Hash: 978C8A2023263940903D818072A0F6E9 Accuracy: -m0 Conclusion: CDDA 62% Signature: 4B8BA6DEA2E4BB765D083C38D65E44CB0E697D39FILE: 09. Tim Hardin , How Can We Hang On To A Dream.flac Size: 12351788 Hash: 07438F2697E92B0CD659F4341216628B Accuracy: -m0 Conclusion: MPEG 89% Signature: 9CEC16103F5F32B6D4C2878207F073C4FE431FC8FILE: 08. The Who , Baba O'Riley.flac Size: 35180824 Hash: D923352E7389416E5F3934BEE84188EC Accuracy: -m0 Conclusion: CDDA 99% Signature: 24F8D3E59732D2357737D271F02EB2BD09623462FILE: 07. No Artist , It's Not Easy....flac Size: 3438603 Hash: 56F69033301559FD8B2D34D2A042D0E8 Accuracy: -m0 Conclusion: CDDA 100% Signature: 64A2C1B84A8498849DE15DFDC9F07625A0770694FILE: 06. Neill MacColl & Boo Hewerdine , Cafe '68.flac Size: 21647527 Hash: 6C91FD50E3B49B2B50D575047B9C736B Accuracy: -m0 Conclusion: CDDA 100% Signature: CBA1084BADFD54563B2B1BD7D0B1D1294FE169B3FILE: 05. Why Is It... ,, The Pogues , Fiesta.flac Size: 29914887 Hash: 031FA1E58385F0736D3B41D168EE1EF2 Accuracy: -m0 Conclusion: CDDA 99% Signature: 9123CBA42504442E546F8469204DC73E9B459D5CFILE: 04. Harry J Allstars , Liquidator.flac Size: 16282488 Hash: C20D1225A304749E5372BB3F5FD181A9 Accuracy: -m0 Conclusion: CDDA 100% Signature: F865B9F12A78C321F44B7C15931F1AC1D05D9184FILE: 03. No Artist , It's Not The Smoking....flac Size: 602163 Hash: 27B8AF302745203A45E6804EB6C5E58C Accuracy: -m0 Conclusion: CDDA 100% Signature: 37BD4ADCE67CCF768742C319DD2C1942E7E1F931FILE: 02. The La's , There She Goes.flac Size: 20627241 Hash: 400B769E74B026C0DFC68C2AD1A15750 Accuracy: -m0 Conclusion: CDDA 99% Signature: 737623FC74FD5B96ABF1A8C603857FA271D72521FILE: 01. No Artist , Anthropologists....flac Size: 545920 Hash: EF72847CADEF70BBECC7E90F4343F648 Accuracy: -m0 Conclusion: ??? Signature: A9B68EB590FCCD57447BDA3AD42F15A1B9717CC9

Скриншот спектра частот

[teatrix.ru].t10294.torrent 
Торрент: Зарегистрирован [ 2015-11-01 20:51 ] · 00D3B9BC07EC5002CFF3AA10AEA9788DC2771801

Скачать .torrent

Скачать

15 KB

Статус: проверено
Скачан: 0 раз
Размер: 324 MB
terms.php



Быстрый ответ

Имя:

      
Для отправки сообщений необходимо включить JavaScript
Показать сообщения:    

Текущее время: 04-Дек 15:18

Часовой пояс: UTC + 3


Вы можете начинать темы
Вы можете отвечать на сообщения
Вы не можете редактировать свои сообщения
Вы не можете удалять свои сообщения
Вы не можете голосовать в опросах
Вы не можете прикреплять файлы к сообщениям
Вы можете скачивать файлы