(Score) Кошки против собак / Cats & Dogs (by John Debney) - 2001, FLAC (tracks+.cue), lossless


Статистика раздачи [Обновить пиров]
Размер:  245 MB   |    Зарегистрирован:  1 год 1 месяц   |    Скачан:  0 раз

Полного источника не было: Никогда

Личеров:  6  [  0 KB/s  ]   Подробная статистика пиров
 
   
 
 
 

[Цитировать]

Кошки против собак / Cats & Dogs-Жанр: Score
Композитор: John Debney
Год выпуска диска: 2001
Производитель диска: P&O, Germany
Издатель (лейбл): Varèse Sarabande
Номер по каталогу: VSD (CVS) 6278-Аудиокодек: FLAC (*.flac)
Тип рипа: tracks+.cue
Битрейт аудио: lossless
Продолжительность: 00:33:55
Источник: собственный рип
Наличие сканов в содержимом раздачи: да, 600dpi-Ссылки: Кинопоиск | IMDB | Wikipedia | SoundtrackCollector

Треклист

01. Main Titles [0:02:41.18]
02. The Neighborhood [0:03:10.73]
03. Lou the Dreamer [0:01:43.58]
04. Meet Mr. Tinkles / The Formula [0:02:03.61]
05. Kung Fu Kats [0:02:28.44]
06. Meet the Team [0:01:20.70]
07. The Russian! [0:02:53.50]
08. Team Theme / Montage / The Discovery [0:04:04.06]
09. Tinkle Plots / Limo Ride / Flocking Factory [0:03:42.07]
10. Blasting to Headquarters [0:02:22.45]
11. Lou Saves the Day [0:03:40.62]
12. Lou's Alive! [0:02:11.28]
13. Dress-up Time for Tinkles [0:01:30.12]

Лог создания рипа

Exact Audio Copy V1.1 from 23. June 2015
EAC extraction logfile from 12. September 2015, 14:02
John Debney / Cats & Dogs
Used drive : PLEXTOR CD-R PX-230A Adapter: 1 ID: 2
Read mode : SecureUtilize accurate stream : YesDefeat audio cache : YesMake use of C2 pointers : No
Read offset correction : 738Overread into Lead-In and Lead-Out : NoFill up missing offset samples with silence : YesDelete leading and trailing silent blocks : NoNull samples used in CRC calculations : YesUsed interface : Native Win32 interface for Win NT & 2000Gap handling : Appended to previous track
Used output format : User Defined EncoderSelected bitrate : 1024 kBit/sQuality : HighAdd ID3 tag : NoCommand line compressor : C:\Program Files (x86)\Exact Audio Copy\FLAC\FLAC.EXEAdditional command line options : -6 -V -T "ARTIST=%artist%" -T "TITLE=%title%" -T "ALBUM=%albumtitle%" -T "DATE=%year%"-T "TRACKNUMBER=%tracknr%" -T "GENRE=%genre%" -T "COMMENT=%comment%" -T "ALBUMARTIST=%albuminterpret%" -T "COMPOSER=%composer%"-T "DISCNUMBER=%cdnumber%" -T "TOTALDISCS=%totalcds%" -T "TOTALTRACKS=%numtracks%" %source% -o %dest%
TOC of the extracted CD
Track | Start | Length | Start sector | End sector --------------------------------------------------------- 1 | 0:00.00 | 2:41.18 | 0 | 12092 2 | 2:41.18 | 3:10.73 | 12093 | 26415 3 | 5:52.16 | 1:43.58 | 26416 | 34198 4 | 7:35.74 | 2:03.61 | 34199 | 43484 5 | 9:39.60 | 2:28.44 | 43485 | 54628 6 | 12:08.29 | 1:20.70 | 54629 | 60698 7 | 13:29.24 | 2:53.50 | 60699 | 73723 8 | 16:22.74 | 4:04.06 | 73724 | 92029 9 | 20:27.05 | 3:42.07 | 92030 | 108686 10 | 24:09.12 | 2:22.45 | 108687 | 119381 11 | 26:31.57 | 3:40.62 | 119382 | 135943 12 | 30:12.44 | 2:11.28 | 135944 | 145796 13 | 32:23.72 | 1:30.12 | 145797 | 152558
Track 1
Filename C:\Music\01 - John Debney - Main Titles.wav
Pre-gap length 0:00:02.00
Peak level 98.3 % Extraction speed 4.7 X Track quality 100.0 % Test CRC DDDCFFB6 Copy CRC DDDCFFB6 Accurately ripped (confidence 3) [F121D336] (AR v2) Copy OK
Track 2
Filename C:\Music\02 - John Debney - The Neighborhood.wav
Peak level 98.2 % Extraction speed 4.2 X Track quality 100.0 % Test CRC 5D0DE6DE Copy CRC 5D0DE6DE Accurately ripped (confidence 3) [BD929347] (AR v2) Copy OK
Track 3
Filename C:\Music\03 - John Debney - Lou the Dreamer.wav
Peak level 98.1 % Extraction speed 4.5 X Track quality 100.0 % Test CRC 19561693 Copy CRC 19561693 Accurately ripped (confidence 3) [4624E6A8] (AR v2) Copy OK
Track 4
Filename C:\Music\04 - John Debney - Meet Mr. Tinkles , The Formula.wav
Peak level 90.1 % Extraction speed 3.4 X Track quality 99.9 % Test CRC 1593B3AA Copy CRC 1593B3AA Accurately ripped (confidence 3) [DB2B22B8] (AR v2) Copy OK
Track 5
Filename C:\Music\05 - John Debney - Kung Fu Kats.wav
Peak level 97.4 % Extraction speed 4.5 X Track quality 100.0 % Test CRC A0DC7AE7 Copy CRC A0DC7AE7 Accurately ripped (confidence 3) [C536EBC6] (AR v2) Copy OK
Track 6
Filename C:\Music\06 - John Debney - Meet the Team.wav
Peak level 98.0 % Extraction speed 4.2 X Track quality 100.0 % Test CRC F1418779 Copy CRC F1418779 Accurately ripped (confidence 3) [737D18D4] (AR v2) Copy OK
Track 7
Filename C:\Music\07 - John Debney - The Russian!.wav
Peak level 98.2 % Extraction speed 5.0 X Track quality 100.0 % Test CRC 14B35BE4 Copy CRC 14B35BE4 Accurately ripped (confidence 3) [9C1EE9D2] (AR v2) Copy OK
Track 8
Filename C:\Music\08 - John Debney - Team Theme , Montage , The Discovery.wav
Peak level 97.7 % Extraction speed 4.7 X Track quality 100.0 % Test CRC BB00E7A8 Copy CRC BB00E7A8 Accurately ripped (confidence 3) [2E0EA5A8] (AR v2) Copy OK
Track 9
Filename C:\Music\09 - John Debney - Tinkle Plots , Limo Ride , Flocking Factory.wav
Peak level 98.6 % Extraction speed 4.6 X Track quality 99.9 % Test CRC 57A52ACE Copy CRC 57A52ACE Accurately ripped (confidence 3) [7C682E88] (AR v2) Copy OK
Track 10
Filename C:\Music\10 - John Debney - Blasting to Headquarters.wav
Peak level 95.8 % Extraction speed 4.8 X Track quality 100.0 % Test CRC B61B7649 Copy CRC B61B7649 Accurately ripped (confidence 3) [4B6ACC5A] (AR v2) Copy OK
Track 11
Filename C:\Music\11 - John Debney - Lou Saves the Day.wav
Peak level 98.2 % Extraction speed 5.2 X Track quality 100.0 % Test CRC FA71F5AF Copy CRC FA71F5AF Accurately ripped (confidence 3) [F43BFEB2] (AR v2) Copy OK
Track 12
Filename C:\Music\12 - John Debney - Lou's Alive!.wav
Peak level 79.5 % Extraction speed 4.2 X Track quality 100.0 % Test CRC 9BEDDCAB Copy CRC 9BEDDCAB Accurately ripped (confidence 3) [23895CD9] (AR v2) Copy OK
Track 13
Filename C:\Music\13 - John Debney - Dress-up Time for Tinkles.wav
Peak level 98.5 % Extraction speed 4.1 X Track quality 100.0 % Test CRC CBAD102C Copy CRC CBAD102C Accurately ripped (confidence 3) [FBE05DB9] (AR v2) Copy OK
All tracks accurately ripped
No errors occurred
End of status report
---- CUETools DB Plugin V2.1.6
[CTDB TOCID: tlRFlka3x3YUn9gn4dBqNj4D2RU-] foundSubmit result: tlRFlka3x3YUn9gn4dBqNj4D2RU- has been confirmedTrack | CTDB Status 1 | (2/2) Accurately ripped 2 | (2/2) Accurately ripped 3 | (2/2) Accurately ripped 4 | (2/2) Accurately ripped 5 | (2/2) Accurately ripped 6 | (2/2) Accurately ripped 7 | (2/2) Accurately ripped 8 | (2/2) Accurately ripped 9 | (2/2) Accurately ripped 10 | (2/2) Accurately ripped 11 | (2/2) Accurately ripped 12 | (2/2) Accurately ripped 13 | (2/2) Accurately ripped
==== Log checksum 389A47E7629A44026C45939CA9BD7397A78DA0DE4BF87B6FCA8849C12174FA6A ====

Содержание индексной карты (.CUE)

REM GENRE SoundtrackREM DATE 2001REM DISCID AB07F20DREM COMMENT "ExactAudioCopy v1.1"PERFORMER "John Debney"TITLE "Cats & Dogs"FILE "01 - John Debney - Main Titles.wav" WAVE TRACK 01 AUDIO TITLE "Main Titles" PERFORMER "John Debney" INDEX 01 00:00:00FILE "02 - John Debney - The Neighborhood.wav" WAVE TRACK 02 AUDIO TITLE "The Neighborhood" PERFORMER "John Debney" INDEX 01 00:00:00FILE "03 - John Debney - Lou the Dreamer.wav" WAVE TRACK 03 AUDIO TITLE "Lou the Dreamer" PERFORMER "John Debney" INDEX 01 00:00:00FILE "04 - John Debney - Meet Mr. Tinkles , The Formula.wav" WAVE TRACK 04 AUDIO TITLE "Meet Mr. Tinkles / The Formula" PERFORMER "John Debney" INDEX 01 00:00:00FILE "05 - John Debney - Kung Fu Kats.wav" WAVE TRACK 05 AUDIO TITLE "Kung Fu Kats" PERFORMER "John Debney" INDEX 01 00:00:00FILE "06 - John Debney - Meet the Team.wav" WAVE TRACK 06 AUDIO TITLE "Meet the Team" PERFORMER "John Debney" INDEX 01 00:00:00FILE "07 - John Debney - The Russian!.wav" WAVE TRACK 07 AUDIO TITLE "The Russian!" PERFORMER "John Debney" INDEX 01 00:00:00FILE "08 - John Debney - Team Theme , Montage , The Discovery.wav" WAVE TRACK 08 AUDIO TITLE "Team Theme / Montage / The Discovery" PERFORMER "John Debney" INDEX 01 00:00:00FILE "09 - John Debney - Tinkle Plots , Limo Ride , Flocking Factory.wav" WAVE TRACK 09 AUDIO TITLE "Tinkle Plots / Limo Ride / Flocking Factory" PERFORMER "John Debney" INDEX 01 00:00:00FILE "10 - John Debney - Blasting to Headquarters.wav" WAVE TRACK 10 AUDIO TITLE "Blasting to Headquarters" PERFORMER "John Debney" INDEX 01 00:00:00FILE "11 - John Debney - Lou Saves the Day.wav" WAVE TRACK 11 AUDIO TITLE "Lou Saves the Day" PERFORMER "John Debney" INDEX 01 00:00:00FILE "12 - John Debney - Lou's Alive!.wav" WAVE TRACK 12 AUDIO TITLE "Lou's Alive!" PERFORMER "John Debney" INDEX 01 00:00:00FILE "13 - John Debney - Dress-up Time for Tinkles.wav" WAVE TRACK 13 AUDIO TITLE "Dress-up Time for Tinkles" PERFORMER "John Debney" INDEX 01 00:00:00
[teatrix.ru].t10295.torrent 
Торрент: Зарегистрирован [ 2015-11-01 20:51 ] · CBDAF775EE50E421F577D28604109B98A76570B4

Скачать .torrent

Скачать

21 KB

Статус: проверено
Скачан: 0 раз
Размер: 245 MB
terms.php



Быстрый ответ

Имя:

      
Для отправки сообщений необходимо включить JavaScript
Показать сообщения:    

Текущее время: 11-Дек 11:07

Часовой пояс: UTC + 3


Вы можете начинать темы
Вы можете отвечать на сообщения
Вы не можете редактировать свои сообщения
Вы не можете удалять свои сообщения
Вы не можете голосовать в опросах
Вы не можете прикреплять файлы к сообщениям
Вы можете скачивать файлы