(Score / Television) Подводная Одиссея / SeaQuest DSV (by John Debney) - 1995 (1993), FLAC (tracks+.cue), lossless


Статистика раздачи [Обновить пиров]
Размер:  139 MB   |    Зарегистрирован:  1 год 1 месяц   |    Скачан:  0 раз

Полного источника не было: Никогда

Личеров:  6  [  0 KB/s  ]   Подробная статистика пиров
 
   
 
 
 

[Цитировать]

Подводная Одиссея / SeaQuest DSV-Жанр: Score / Television
Композитор: John Debney
Год выпуска диска: 1995
Год выпуска сериала: 1993 (- 1996)
Производитель диска: USA
Издатель (лейбл): Varèse Sarabande
Номер по каталогу: VSD 5565-Аудиокодек: FLAC (*.flac)
Тип рипа: tracks+.cue
Битрейт аудио: lossless
Продолжительность: 00:29:50
Источник: what.cd / Wolo
Наличие сканов в содержимом раздачи: да

Треклист

01. Main Title (1:04)
02. Preparing for Battle (2:51)
03. Bridger's Dream (0:52)
04. Uncharted Waters (2:07)
05. First Engagement (3:18)
06. Darwin Speaks (0:59)
07. Dangerous Adversary (1:35)
08. To Adventures Bold (1:31)
09. Waltz with the Dead (2:48)
10. The Forgiving / Resurrection (4:54)
11. The Discovery (2:15)
12. Lucas Meets the Alien (2:31)
13. Solemn Oath (2:27)
14. End Credits (0:38)

Лог создания рипа

Exact Audio Copy V1.0 beta 3 from 29. August 2011
EAC extraction logfile from 28. October 2011, 19:19
John Debney / SeaQuest DSV
Used drive : TSSTcorpCDDVDW TS-L633C Adapter: 2 ID: 0
Read mode : SecureUtilize accurate stream : YesDefeat audio cache : YesMake use of C2 pointers : No
Read offset correction : 6Overread into Lead-In and Lead-Out : NoFill up missing offset samples with silence : YesDelete leading and trailing silent blocks : NoNull samples used in CRC calculations : YesUsed interface : Native Win32 interface for Win NT & 2000Gap handling : Appended to previous track
Used output format : User Defined EncoderSelected bitrate : 128 kBit/sQuality : HighAdd ID3 tag : NoCommand line compressor : C:\Program Files (x86)\Exact Audio Copy\Flac\flac.exeAdditional command line options : -8 -V -T "ARTIST=%artist%" -T "TITLE=%title%" -T "ALBUM=%albumtitle%" -T "DATE=%year%"-T "TRACKNUMBER=%tracknr%" -T "GENRE=%genre%" -T "PERFORMER=%albuminterpret%" -T "COMPOSER=%composer%" %haslyrics%--tag-from-file=LYRICS="%lyricsfile%"%haslyrics%-T "ALBUMARTIST=%albumartist%" -T "ALBUM ARTIST=%albumartist%" -T "DISCNUMBER=%cdnumber%" -T "TOTALDISCS=%totalcds%" -T "TOTALTRACKS=%numtracks%"-T "COMMENT=EAC V1.0 beta 2, Secure Mode, Test & Copy, AccurateRip, FLAC -8" %source% -o %dest%
TOC of the extracted CD
Track | Start | Length | Start sector | End sector --------------------------------------------------------- 1 | 0:00.00 | 1:04.02 | 0 | 4801 2 | 1:04.02 | 2:51.08 | 4802 | 17634 3 | 3:55.10 | 0:52.17 | 17635 | 21551 4 | 4:47.27 | 2:06.58 | 21552 | 31059 5 | 6:54.10 | 3:18.07 | 31060 | 45916 6 | 10:12.17 | 0:59.00 | 45917 | 50341 7 | 11:11.17 | 1:35.00 | 50342 | 57466 8 | 12:46.17 | 1:31.25 | 57467 | 64316 9 | 14:17.42 | 2:48.33 | 64317 | 76949 10 | 17:06.00 | 4:53.40 | 76950 | 98964 11 | 21:59.40 | 2:15.30 | 98965 | 109119 12 | 24:14.70 | 2:30.47 | 109120 | 120416 13 | 26:45.42 | 2:27.00 | 120417 | 131441 14 | 29:12.42 | 0:37.65 | 131442 | 134281
Track 1
Filename G:\EACRIPS\John Debney - SeaQuest DSV (1993) [FLAC]\01. Main Title.wav
Pre-gap length 0:00:02.00
Peak level 72.6 % Extraction speed 1.5 X Track quality 100.0 % Test CRC CCCDBA3C Copy CRC CCCDBA3C Accurately ripped (confidence 4) [45A968FD] (AR v1) Copy OK
Track 2
Filename G:\EACRIPS\John Debney - SeaQuest DSV (1993) [FLAC]\02. Preparing for Battle.wav
Peak level 78.3 % Extraction speed 2.1 X Track quality 100.0 % Test CRC D104F443 Copy CRC D104F443 Accurately ripped (confidence 4) [A7F5ECA2] (AR v1) Copy OK
Track 3
Filename G:\EACRIPS\John Debney - SeaQuest DSV (1993) [FLAC]\03. Bridger's Dream.wav
Peak level 57.6 % Extraction speed 1.5 X Track quality 100.0 % Test CRC DD21D2E8 Copy CRC DD21D2E8 Accurately ripped (confidence 4) [1FB683CD] (AR v1) Copy OK
Track 4
Filename G:\EACRIPS\John Debney - SeaQuest DSV (1993) [FLAC]\04. Uncharted Waters.wav
Peak level 81.0 % Extraction speed 1.5 X Track quality 99.9 % Test CRC 18748E96 Copy CRC 18748E96 Accurately ripped (confidence 4) [41C1AC86] (AR v1) Copy OK
Track 5
Filename G:\EACRIPS\John Debney - SeaQuest DSV (1993) [FLAC]\05. First Engagement.wav
Pre-gap length 0:00:01.37
Peak level 100.0 % Extraction speed 2.5 X Track quality 100.0 % Test CRC 0DBD7035 Copy CRC 0DBD7035 Accurately ripped (confidence 4) [F459EA20] (AR v1) Copy OK
Track 6
Filename G:\EACRIPS\John Debney - SeaQuest DSV (1993) [FLAC]\06. Darwin Speaks.wav
Peak level 41.9 % Extraction speed 1.8 X Track quality 100.0 % Test CRC 10E29F14 Copy CRC 10E29F14 Accurately ripped (confidence 3) [5F6ECBD9] (AR v1) Copy OK
Track 7
Filename G:\EACRIPS\John Debney - SeaQuest DSV (1993) [FLAC]\07. Dangerous Adversary.wav
Peak level 91.6 % Extraction speed 2.2 X Track quality 100.0 % Test CRC F888B273 Copy CRC F888B273 Accurately ripped (confidence 4) [2123A232] (AR v1) Copy OK
Track 8
Filename G:\EACRIPS\John Debney - SeaQuest DSV (1993) [FLAC]\08. To Adventures Bold.wav
Pre-gap length 0:00:01.40
Peak level 85.8 % Extraction speed 2.2 X Track quality 100.0 % Test CRC C1F4C5C1 Copy CRC C1F4C5C1 Accurately ripped (confidence 4) [631CCDD6] (AR v1) Copy OK
Track 9
Filename G:\EACRIPS\John Debney - SeaQuest DSV (1993) [FLAC]\09. Waltz with the Dead.wav
Pre-gap length 0:00:01.09
Peak level 74.1 % Extraction speed 2.7 X Track quality 100.0 % Test CRC 747B19A6 Copy CRC 747B19A6 Accurately ripped (confidence 4) [8FF66DC1] (AR v1) Copy OK
Track 10
Filename G:\EACRIPS\John Debney - SeaQuest DSV (1993) [FLAC]\10. The Forgiving & Resurrection.wav
Pre-gap length 0:00:02.57
Peak level 100.0 % Extraction speed 3.1 X Track quality 100.0 % Test CRC 087B3DC8 Copy CRC 087B3DC8 Accurately ripped (confidence 4) [942EE62A] (AR v1) Copy OK
Track 11
Filename G:\EACRIPS\John Debney - SeaQuest DSV (1993) [FLAC]\11. The Discovery.wav
Pre-gap length 0:00:02.10
Peak level 78.7 % Extraction speed 2.8 X Track quality 100.0 % Test CRC CBDA2811 Copy CRC CBDA2811 Accurately ripped (confidence 4) [F15E9061] (AR v1) Copy OK
Track 12
Filename G:\EACRIPS\John Debney - SeaQuest DSV (1993) [FLAC]\12. Lucas Meets the Alien.wav
Pre-gap length 0:00:01.90
Peak level 73.7 % Extraction speed 3.0 X Track quality 100.0 % Test CRC BB777A00 Copy CRC BB777A00 Accurately ripped (confidence 4) [C09C7118] (AR v1) Copy OK
Track 13
Filename G:\EACRIPS\John Debney - SeaQuest DSV (1993) [FLAC]\13. Solemn Oath.wav
Peak level 90.5 % Extraction speed 3.1 X Track quality 100.0 % Test CRC ECBEE529 Copy CRC ECBEE529 Accurately ripped (confidence 4) [897C6409] (AR v1) Copy OK
Track 14
Filename G:\EACRIPS\John Debney - SeaQuest DSV (1993) [FLAC]\14. End Credits.wav
Pre-gap length 0:00:01.02
Peak level 79.8 % Extraction speed 1.0 X Track quality 99.7 % Test CRC FC231274 Copy CRC FC231274 Accurately ripped (confidence 4) [FD10AD99] (AR v1) Copy OK
All tracks accurately ripped
No errors occurred
End of status report
---- CUETools DB Plugin V2.1.3
[CTDB TOCID: j25Z2SB47EbhC2hzLs8SJu38D60-] disk not present in database, Submit result: j25Z2SB47EbhC2hzLs8SJu38D60- has been uploaded
==== Log checksum 23CF9036B4339BC9370A83B3BE6994785044D52D4148DC93169E988136CE0C74 ====

Содержание индексной карты (.CUE)

REM GENRE SoundtrackREM DATE 1993REM DISCID BF06FE0EREM COMMENT "ExactAudioCopy v1.0b3"PERFORMER "John Debney"TITLE "SeaQuest DSV"FILE "01. Main Title.wav" WAVE TRACK 01 AUDIO TITLE "Main Title" PERFORMER "John Debney" INDEX 01 00:00:00FILE "02. Preparing for Battle.wav" WAVE TRACK 02 AUDIO TITLE "Preparing for Battle" PERFORMER "John Debney" INDEX 01 00:00:00FILE "03. Bridger's Dream.wav" WAVE TRACK 03 AUDIO TITLE "Bridger's Dream" PERFORMER "John Debney" INDEX 01 00:00:00FILE "04. Uncharted Waters.wav" WAVE TRACK 04 AUDIO TITLE "Uncharted Waters" PERFORMER "John Debney" INDEX 01 00:00:00 TRACK 05 AUDIO TITLE "First Engagement" PERFORMER "John Debney" INDEX 00 02:05:30FILE "05. First Engagement.wav" WAVE INDEX 01 00:00:00FILE "06. Darwin Speaks.wav" WAVE TRACK 06 AUDIO TITLE "Darwin Speaks" PERFORMER "John Debney" INDEX 01 00:00:00FILE "07. Dangerous Adversary.wav" WAVE TRACK 07 AUDIO TITLE "Dangerous Adversary" PERFORMER "John Debney" INDEX 01 00:00:00 TRACK 08 AUDIO TITLE "To Adventures Bold" PERFORMER "John Debney" INDEX 00 01:33:45FILE "08. To Adventures Bold.wav" WAVE INDEX 01 00:00:00 TRACK 09 AUDIO TITLE "Waltz with the Dead" PERFORMER "John Debney" INDEX 00 01:30:18FILE "09. Waltz with the Dead.wav" WAVE INDEX 01 00:00:00 TRACK 10 AUDIO TITLE "The Forgiving & Resurrection" PERFORMER "John Debney" INDEX 00 02:45:65FILE "10. The Forgiving & Resurrection.wav" WAVE INDEX 01 00:00:00 TRACK 11 AUDIO TITLE "The Discovery" PERFORMER "John Debney" INDEX 00 04:51:32FILE "11. The Discovery.wav" WAVE INDEX 01 00:00:00 TRACK 12 AUDIO TITLE "Lucas Meets the Alien" PERFORMER "John Debney" INDEX 00 02:13:37FILE "12. Lucas Meets the Alien.wav" WAVE INDEX 01 00:00:00FILE "13. Solemn Oath.wav" WAVE TRACK 13 AUDIO TITLE "Solemn Oath" PERFORMER "John Debney" INDEX 01 00:00:00 TRACK 14 AUDIO TITLE "End Credits" PERFORMER "John Debney" INDEX 00 02:25:73FILE "14. End Credits.wav" WAVE INDEX 01 00:00:00
[teatrix.ru].t10296.torrent 
Торрент: Зарегистрирован [ 2015-11-01 20:51 ] · BE236DA801485B4EE999C4212FA016BEA8208DC2

Скачать .torrent

Скачать

12 KB

Статус: проверено
Скачан: 0 раз
Размер: 139 MB
terms.php



Быстрый ответ

Имя:

      
Для отправки сообщений необходимо включить JavaScript
Показать сообщения:    

Текущее время: 03-Дек 16:46

Часовой пояс: UTC + 3


Вы можете начинать темы
Вы можете отвечать на сообщения
Вы не можете редактировать свои сообщения
Вы не можете удалять свои сообщения
Вы не можете голосовать в опросах
Вы не можете прикреплять файлы к сообщениям
Вы можете скачивать файлы