(Score) Ночи в Роданте / Nights In Rodanthe (by Jeanine Tesori) - 2008, FLAC (tracks+.cue), lossless


Статистика раздачи [Обновить пиров]
Размер:  211 MB   |    Зарегистрирован:  1 год 1 месяц   |    Скачан:  0 раз

Полного источника не было: Никогда

Личеров:  7  [  0 KB/s  ]   Подробная статистика пиров
 
   
 
 
 

[Цитировать]

Ночи в Роданте / Nights In Rodanthe-Жанр: Score
Композитор: Jeanine Tesori
Год выпуска диска: 2008
Производитель диска: P&O, Germany
Издатель (лейбл): Varèse Sarabande
Номер по каталогу: VSD (CVS) 6924.2-Аудиокодек: FLAC (*.flac)
Тип рипа: tracks+.cue
Битрейт аудио: lossless
Продолжительность: 00:35:22
Источник: собственный рип
Наличие сканов в содержимом раздачи: да, 600 dpi-Ссылки: Кинопоиск | IMDB | Wikipedia | SoundtrackCollector

Треклист

01. Sandstorm [0:01:30.61]
02. Romeo and Juliet [0:01:40.36]
03. Face off with Charlie [0:01:16.44]
04. Jean in Miami [0:01:24.11]
05. White Wine Dinner [0:02:05.39]
06. Jean's Studio [0:02:41.11]
07. Embrace [0:00:58.40]
08. Devastation [0:01:21.16]
09. Opening Shutters [0:01:11.31]
10. Walk on the Beach [0:01:45.25]
11. Maps in Bed [0:02:27.73]
12. The Goodbye [0:01:33.14]
13. Box Montage [0:04:15.45]
14. Ecuador [0:02:29.16]
15. Loss [0:01:41.47]
16. Tell me About Him [0:01:27.06]
17. Horses [0:01:37.70]
18. End Credit Suite [0:03:53.44]

Лог создания рипа

Exact Audio Copy V1.1 from 23. June 2015
EAC extraction logfile from 4. September 2015, 10:42
Tesori Jeanine / Nights in Rodanthe
Used drive : PLEXTOR CD-R PX-230A Adapter: 1 ID: 2
Read mode : SecureUtilize accurate stream : YesDefeat audio cache : YesMake use of C2 pointers : No
Read offset correction : 738Overread into Lead-In and Lead-Out : NoFill up missing offset samples with silence : YesDelete leading and trailing silent blocks : NoNull samples used in CRC calculations : YesUsed interface : Native Win32 interface for Win NT & 2000Gap handling : Appended to previous track
Used output format : User Defined EncoderSelected bitrate : 1024 kBit/sQuality : HighAdd ID3 tag : NoCommand line compressor : C:\Program Files (x86)\Exact Audio Copy\FLAC\FLAC.EXEAdditional command line options : -6 -V -T "ARTIST=%artist%" -T "TITLE=%title%" -T "ALBUM=%albumtitle%" -T "DATE=%year%"-T "TRACKNUMBER=%tracknr%" -T "GENRE=%genre%" -T "COMMENT=%comment%" -T "ALBUMARTIST=%albuminterpret%" -T "COMPOSER=%composer%"-T "DISCNUMBER=%cdnumber%" -T "TOTALDISCS=%totalcds%" -T "TOTALTRACKS=%numtracks%" %source% -o %dest%
TOC of the extracted CD
Track | Start | Length | Start sector | End sector --------------------------------------------------------- 1 | 0:00.00 | 1:30.61 | 0 | 6810 2 | 1:30.61 | 1:40.36 | 6811 | 14346 3 | 3:11.22 | 1:16.44 | 14347 | 20090 4 | 4:27.66 | 1:24.11 | 20091 | 26401 5 | 5:52.02 | 2:05.39 | 26402 | 35815 6 | 7:57.41 | 2:41.11 | 35816 | 47901 7 | 10:38.52 | 0:58.40 | 47902 | 52291 8 | 11:37.17 | 1:21.16 | 52292 | 58382 9 | 12:58.33 | 1:11.31 | 58383 | 63738 10 | 14:09.64 | 1:45.25 | 63739 | 71638 11 | 15:55.14 | 2:27.73 | 71639 | 82736 12 | 18:23.12 | 1:33.14 | 82737 | 89725 13 | 19:56.26 | 4:15.45 | 89726 | 108895 14 | 24:11.71 | 2:29.16 | 108896 | 120086 15 | 26:41.12 | 1:41.47 | 120087 | 127708 16 | 28:22.59 | 1:27.06 | 127709 | 134239 17 | 29:49.65 | 1:37.70 | 134240 | 141584 18 | 31:27.60 | 3:53.44 | 141585 | 159103
Track 1
Filename C:\Music\01 - Tesori Jeanine - Sandstorm.wav
Pre-gap length 0:00:02.00
Peak level 98.9 % Extraction speed 4.4 X Track quality 100.0 % Test CRC 321CA1B9 Copy CRC 321CA1B9 Track not present in AccurateRip database Copy OK
Track 2
Filename C:\Music\02 - Tesori Jeanine - Romeo and Juliet.wav
Peak level 91.0 % Extraction speed 4.8 X Track quality 100.0 % Test CRC F91CE603 Copy CRC F91CE603 Track not present in AccurateRip database Copy OK
Track 3
Filename C:\Music\03 - Tesori Jeanine - Face off with Charlie.wav
Pre-gap length 0:00:00.35
Peak level 99.2 % Extraction speed 4.5 X Track quality 100.0 % Test CRC C62765B7 Copy CRC C62765B7 Track not present in AccurateRip database Copy OK
Track 4
Filename C:\Music\04 - Tesori Jeanine - Jean in Miami.wav
Pre-gap length 0:00:00.23
Peak level 89.3 % Extraction speed 4.8 X Track quality 100.0 % Test CRC B1CBD839 Copy CRC B1CBD839 Track not present in AccurateRip database Copy OK
Track 5
Filename C:\Music\05 - Tesori Jeanine - White Wine Dinner.wav
Pre-gap length 0:00:00.60
Peak level 99.0 % Extraction speed 4.5 X Track quality 99.9 % Test CRC 1FDE1050 Copy CRC 1FDE1050 Track not present in AccurateRip database Copy OK
Track 6
Filename C:\Music\06 - Tesori Jeanine - Jean's Studio.wav
Pre-gap length 0:00:02.10
Peak level 29.3 % Extraction speed 5.9 X Track quality 100.0 % Test CRC 80D555CC Copy CRC 80D555CC Track not present in AccurateRip database Copy OK
Track 7
Filename C:\Music\07 - Tesori Jeanine - Embrace.wav
Pre-gap length 0:00:00.42
Peak level 98.9 % Extraction speed 4.8 X Track quality 100.0 % Test CRC AAAE2259 Copy CRC AAAE2259 Track not present in AccurateRip database Copy OK
Track 8
Filename C:\Music\08 - Tesori Jeanine - Devastation.wav
Pre-gap length 0:00:00.71
Peak level 64.3 % Extraction speed 5.4 X Track quality 100.0 % Test CRC 97BF10DC Copy CRC 97BF10DC Track not present in AccurateRip database Copy OK
Track 9
Filename C:\Music\09 - Tesori Jeanine - Opening Shutters.wav
Pre-gap length 0:00:01.62
Peak level 83.1 % Extraction speed 5.2 X Track quality 100.0 % Test CRC C3AA8309 Copy CRC C3AA8309 Track not present in AccurateRip database Copy OK
Track 10
Filename C:\Music\10 - Tesori Jeanine - Walk on the Beach.wav
Pre-gap length 0:00:00.09
Peak level 97.8 % Extraction speed 6.0 X Track quality 100.0 % Test CRC 7F04CA99 Copy CRC 7F04CA99 Track not present in AccurateRip database Copy OK
Track 11
Filename C:\Music\11 - Tesori Jeanine - Maps in Bed.wav
Pre-gap length 0:00:00.72
Peak level 61.7 % Extraction speed 6.6 X Track quality 100.0 % Test CRC 94E91C41 Copy CRC 94E91C41 Track not present in AccurateRip database Copy OK
Track 12
Filename C:\Music\12 - Tesori Jeanine - The Goodbye.wav
Pre-gap length 0:00:00.46
Peak level 98.8 % Extraction speed 6.1 X Track quality 100.0 % Test CRC 6366BD6C Copy CRC 6366BD6C Track not present in AccurateRip database Copy OK
Track 13
Filename C:\Music\13 - Tesori Jeanine - Box Montage.wav
Pre-gap length 0:00:00.37
Peak level 100.0 % Extraction speed 6.4 X Track quality 99.9 % Test CRC 7EC335D9 Copy CRC 7EC335D9 Track not present in AccurateRip database Copy OK
Track 14
Filename C:\Music\14 - Tesori Jeanine - Ecuador.wav
Pre-gap length 0:00:00.72
Peak level 99.5 % Extraction speed 7.3 X Track quality 100.0 % Test CRC 6D07DB94 Copy CRC 6D07DB94 Track not present in AccurateRip database Copy OK
Track 15
Filename C:\Music\15 - Tesori Jeanine - Loss.wav
Pre-gap length 0:00:00.71
Peak level 38.1 % Extraction speed 6.8 X Track quality 100.0 % Test CRC BAFC3342 Copy CRC BAFC3342 Track not present in AccurateRip database Copy OK
Track 16
Filename C:\Music\16 - Tesori Jeanine - Tell me About Him.wav
Pre-gap length 0:00:00.70
Peak level 76.1 % Extraction speed 6.5 X Track quality 100.0 % Test CRC 17A423B4 Copy CRC 17A423B4 Track not present in AccurateRip database Copy OK
Track 17
Filename C:\Music\17 - Tesori Jeanine - Horses.wav
Pre-gap length 0:00:00.72
Peak level 99.6 % Extraction speed 4.9 X Track quality 99.8 % Test CRC 4CCD0DCC Copy CRC 4CCD0DCC Track not present in AccurateRip database Copy OK
Track 18
Filename C:\Music\18 - Tesori Jeanine - End Credit Suite.wav
Pre-gap length 0:00:00.72
Peak level 99.9 % Extraction speed 8.1 X Track quality 100.0 % Test CRC E285DE2A Copy CRC E285DE2A Track not present in AccurateRip database Copy OK
None of the tracks are present in the AccurateRip database
No errors occurred
End of status report
==== Log checksum 6F4C674C27C99122AD10FCA09FB3E99F0BA1FA8CB92A7984A98964CE00908218 ====

Содержание индексной карты (.CUE)

REM GENRE SoundtrackREM DATE 2008REM DISCID 09084912REM COMMENT "ExactAudioCopy v1.1"PERFORMER "Tesori Jeanine"TITLE "Nights in Rodanthe"FILE "01 - Tesori Jeanine - Sandstorm.wav" WAVE TRACK 01 AUDIO TITLE "Sandstorm " PERFORMER "Tesori Jeanine" INDEX 01 00:00:00FILE "02 - Tesori Jeanine - Romeo and Juliet.wav" WAVE TRACK 02 AUDIO TITLE "Romeo and Juliet" PERFORMER "Tesori Jeanine" INDEX 01 00:00:00 TRACK 03 AUDIO TITLE "Face off with Charlie" PERFORMER "Tesori Jeanine" INDEX 00 01:40:01FILE "03 - Tesori Jeanine - Face off with Charlie.wav" WAVE INDEX 01 00:00:00 TRACK 04 AUDIO TITLE "Jean in Miami" PERFORMER "Tesori Jeanine" INDEX 00 01:16:21FILE "04 - Tesori Jeanine - Jean in Miami.wav" WAVE INDEX 01 00:00:00 TRACK 05 AUDIO TITLE "White Wine Dinner" PERFORMER "Tesori Jeanine" INDEX 00 01:23:26FILE "05 - Tesori Jeanine - White Wine Dinner.wav" WAVE INDEX 01 00:00:00 TRACK 06 AUDIO TITLE "Jean's Studio" PERFORMER "Tesori Jeanine" INDEX 00 02:03:29FILE "06 - Tesori Jeanine - Jean's Studio.wav" WAVE INDEX 01 00:00:00 TRACK 07 AUDIO TITLE "Embrace " PERFORMER "Tesori Jeanine" INDEX 00 02:40:44FILE "07 - Tesori Jeanine - Embrace.wav" WAVE INDEX 01 00:00:00 TRACK 08 AUDIO TITLE "Devastation" PERFORMER "Tesori Jeanine" INDEX 00 00:57:44FILE "08 - Tesori Jeanine - Devastation.wav" WAVE INDEX 01 00:00:00 TRACK 09 AUDIO TITLE "Opening Shutters " PERFORMER "Tesori Jeanine" INDEX 00 01:19:29FILE "09 - Tesori Jeanine - Opening Shutters.wav" WAVE INDEX 01 00:00:00 TRACK 10 AUDIO TITLE "Walk on the Beach" PERFORMER "Tesori Jeanine" INDEX 00 01:11:22FILE "10 - Tesori Jeanine - Walk on the Beach.wav" WAVE INDEX 01 00:00:00 TRACK 11 AUDIO TITLE "Maps in Bed" PERFORMER "Tesori Jeanine" INDEX 00 01:44:28FILE "11 - Tesori Jeanine - Maps in Bed.wav" WAVE INDEX 01 00:00:00 TRACK 12 AUDIO TITLE "The Goodbye" PERFORMER "Tesori Jeanine" INDEX 00 02:27:27FILE "12 - Tesori Jeanine - The Goodbye.wav" WAVE INDEX 01 00:00:00 TRACK 13 AUDIO TITLE "Box Montage" PERFORMER "Tesori Jeanine" INDEX 00 01:32:52FILE "13 - Tesori Jeanine - Box Montage.wav" WAVE INDEX 01 00:00:00 TRACK 14 AUDIO TITLE "Ecuador " PERFORMER "Tesori Jeanine" INDEX 00 04:14:48FILE "14 - Tesori Jeanine - Ecuador.wav" WAVE INDEX 01 00:00:00 TRACK 15 AUDIO TITLE "Loss" PERFORMER "Tesori Jeanine" INDEX 00 02:28:20FILE "15 - Tesori Jeanine - Loss.wav" WAVE INDEX 01 00:00:00 TRACK 16 AUDIO TITLE "Tell me About Him" PERFORMER "Tesori Jeanine" INDEX 00 01:40:52FILE "16 - Tesori Jeanine - Tell me About Him.wav" WAVE INDEX 01 00:00:00 TRACK 17 AUDIO TITLE "Horses " PERFORMER "Tesori Jeanine" INDEX 00 01:26:09FILE "17 - Tesori Jeanine - Horses.wav" WAVE INDEX 01 00:00:00 TRACK 18 AUDIO TITLE "End Credit Suite" PERFORMER "Tesori Jeanine" INDEX 00 01:36:73FILE "18 - Tesori Jeanine - End Credit Suite.wav" WAVE INDEX 01 00:00:00
[teatrix.ru].t10297.torrent 
Торрент: Зарегистрирован [ 2015-11-01 20:51 ] · B1327082C383FBC9079C20E7470C3E252E7CC9F9

Скачать .torrent

Скачать

19 KB

Статус: проверено
Скачан: 0 раз
Размер: 211 MB
terms.php



Быстрый ответ

Имя:

      
Для отправки сообщений необходимо включить JavaScript
Показать сообщения:    

Текущее время: 03-Дек 22:44

Часовой пояс: UTC + 3


Вы можете начинать темы
Вы можете отвечать на сообщения
Вы не можете редактировать свои сообщения
Вы не можете удалять свои сообщения
Вы не можете голосовать в опросах
Вы не можете прикреплять файлы к сообщениям
Вы можете скачивать файлы