(Score) Гонка / Rush (by Hans Zimmer) - 2013, FLAC (tracks+.cue), lossless


Статистика раздачи [Обновить пиров]
Размер:  452 MB   |    Зарегистрирован:  1 год 1 месяц   |    Скачан:  0 раз

Полного источника не было: Никогда

Личеров:  6  [  0 KB/s  ]   Подробная статистика пиров
 
   
 
 
 

[Цитировать]

Гонка / Rush-Жанр: Score
Композитор: Hans Zimmer
Год выпуска диска: 2013
Производитель диска: Sony DADC, Austria
Издатель (лейбл): Sony Classical
Номер по каталогу: 88883772602-Аудиокодек: FLAC (*.flac)
Тип рипа: tracks+.cue
Битрейт аудио: lossless
Продолжительность: 01:04:58
Источник: собственный рип
Наличие сканов в содержимом раздачи: да, 600 dpi-Ссылки: Кинопоиск | IMDB | Wikipedia | SoundtrackCollector

Треклист

01. 1976 [0:03:00.05]
02. I Could Show You If You'd Like [0:00:44.63]
03. Dave Edmunds / I Hear You Knocking [0:02:47.59]
04. Stopwatch [0:01:29.52]
05. Into The Red [0:03:15.28]
06. Budgie [0:01:28.03]
07. Scuderia [0:00:53.54]
08. Steve Winwood / Gimme Some Lovin [0:02:52.34]
09. Oysters In The Pits [0:01:05.30]
10. 20% [0:01:01.43]
11. Mud / Dyna-Mite [0:02:56.51]
12. Watkins Glen [0:01:49.44]
13. Loose Cannon [0:00:36.07]
14. Thin Lizzy / The Rocker [0:05:09.00]
15. Car Trouble [0:02:39.54]
16. Glück [0:01:14.66]
17. Nürburgring [0:05:33.72]
18. Inferno [0:03:30.39]
19. Mount Fuji [0:03:45.07]
20. For Love [0:02:48.63]
21. Reign [0:03:07.26]
22. David Bowie / Fame [0:04:11.60]
23. Lost But Won [0:06:19.50]
24. My Best Enemy [0:02:33.72]

Лог создания рипа

Exact Audio Copy V1.1 from 23. June 2015
EAC extraction logfile from 7. September 2015, 11:29
Hans Zimmer / Rush
Used drive : PLEXTOR CD-R PX-230A Adapter: 1 ID: 2
Read mode : SecureUtilize accurate stream : YesDefeat audio cache : YesMake use of C2 pointers : No
Read offset correction : 738Overread into Lead-In and Lead-Out : NoFill up missing offset samples with silence : YesDelete leading and trailing silent blocks : NoNull samples used in CRC calculations : YesUsed interface : Native Win32 interface for Win NT & 2000Gap handling : Appended to previous track
Used output format : User Defined EncoderSelected bitrate : 1024 kBit/sQuality : HighAdd ID3 tag : NoCommand line compressor : C:\Program Files (x86)\Exact Audio Copy\FLAC\FLAC.EXEAdditional command line options : -6 -V -T "ARTIST=%artist%" -T "TITLE=%title%" -T "ALBUM=%albumtitle%" -T "DATE=%year%"-T "TRACKNUMBER=%tracknr%" -T "GENRE=%genre%" -T "COMMENT=%comment%" -T "ALBUMARTIST=%albuminterpret%" -T "COMPOSER=%composer%"-T "DISCNUMBER=%cdnumber%" -T "TOTALDISCS=%totalcds%" -T "TOTALTRACKS=%numtracks%" %source% -o %dest%
TOC of the extracted CD
Track | Start | Length | Start sector | End sector --------------------------------------------------------- 1 | 0:00.00 | 3:00.05 | 0 | 13504 2 | 3:00.05 | 0:44.63 | 13505 | 16867 3 | 3:44.68 | 2:47.59 | 16868 | 29451 4 | 6:32.52 | 1:29.52 | 29452 | 36178 5 | 8:02.29 | 3:15.28 | 36179 | 50831 6 | 11:17.57 | 1:28.03 | 50832 | 57434 7 | 12:45.60 | 0:53.54 | 57435 | 61463 8 | 13:39.39 | 2:52.34 | 61464 | 74397 9 | 16:31.73 | 1:05.30 | 74398 | 79302 10 | 17:37.28 | 1:01.43 | 79303 | 83920 11 | 18:38.71 | 2:56.51 | 83921 | 97171 12 | 21:35.47 | 1:49.44 | 97172 | 105390 13 | 23:25.16 | 0:36.07 | 105391 | 108097 14 | 24:01.23 | 5:09.00 | 108098 | 131272 15 | 29:10.23 | 2:39.54 | 131273 | 143251 16 | 31:50.02 | 1:14.66 | 143252 | 148867 17 | 33:04.68 | 5:33.72 | 148868 | 173914 18 | 38:38.65 | 3:30.39 | 173915 | 189703 19 | 42:09.29 | 3:45.07 | 189704 | 206585 20 | 45:54.36 | 2:48.63 | 206586 | 219248 21 | 48:43.24 | 3:07.26 | 219249 | 233299 22 | 51:50.50 | 4:11.60 | 233300 | 252184 23 | 56:02.35 | 6:19.50 | 252185 | 280659 24 | 62:22.10 | 2:33.72 | 280660 | 292206
Track 1
Filename C:\Music\01 - Hans Zimmer - 1976.wav
Pre-gap length 0:00:02.00
Peak level 96.6 % Extraction speed 4.5 X Track quality 100.0 % Test CRC E4BCC1BB Copy CRC E4BCC1BB Accurately ripped (confidence 26) [21FDF221] (AR v2) Copy OK
Track 2
Filename C:\Music\02 - Hans Zimmer - I Could Show You If You'd Like.wav
Peak level 84.2 % Extraction speed 2.3 X Track quality 99.7 % Test CRC 8972ADD0 Copy CRC 8972ADD0 Accurately ripped (confidence 26) [598AF03A] (AR v2) Copy OK
Track 3
Filename C:\Music\03 - Dave Edmunds - I Hear You Knocking.wav
Pre-gap length 0:00:00.15
Peak level 80.3 % Extraction speed 5.1 X Track quality 100.0 % Test CRC 79075642 Copy CRC 79075642 Accurately ripped (confidence 26) [C0126B38] (AR v2) Copy OK
Track 4
Filename C:\Music\04 - Hans Zimmer - Stopwatch.wav
Pre-gap length 0:00:01.00
Peak level 96.6 % Extraction speed 4.4 X Track quality 100.0 % Test CRC 52663570 Copy CRC 52663570 Accurately ripped (confidence 26) [35F5F86E] (AR v2) Copy OK
Track 5
Filename C:\Music\05 - Hans Zimmer - Into The Red.wav
Peak level 97.6 % Extraction speed 5.2 X Track quality 100.0 % Test CRC 6EC8E32A Copy CRC 6EC8E32A Accurately ripped (confidence 26) [83CB0AA5] (AR v2) Copy OK
Track 6
Filename C:\Music\06 - Hans Zimmer - Budgie.wav
Peak level 97.6 % Extraction speed 4.4 X Track quality 100.0 % Test CRC E844C223 Copy CRC E844C223 Accurately ripped (confidence 26) [082871AE] (AR v2) Copy OK
Track 7
Filename C:\Music\07 - Hans Zimmer - Scuderia.wav
Peak level 97.6 % Extraction speed 3.6 X Track quality 100.0 % Test CRC CF1EAD12 Copy CRC CF1EAD12 Accurately ripped (confidence 26) [34F56C5D] (AR v2) Copy OK
Track 8
Filename C:\Music\08 - Steve Winwood - Gimme Some Lovin.wav
Peak level 96.6 % Extraction speed 5.1 X Track quality 100.0 % Test CRC 69A3F0B9 Copy CRC 69A3F0B9 Accurately ripped (confidence 26) [9E8809EF] (AR v2) Copy OK
Track 9
Filename C:\Music\09 - Hans Zimmer - Oysters In The Pits.wav
Peak level 96.6 % Extraction speed 2.9 X Track quality 99.8 % Test CRC F155F8F4 Copy CRC F155F8F4 Accurately ripped (confidence 26) [23434498] (AR v2) Copy OK
Track 10
Filename C:\Music\10 - Hans Zimmer - 20%.wav
Peak level 96.6 % Extraction speed 3.8 X Track quality 100.0 % Test CRC 6020EA8F Copy CRC 6020EA8F Accurately ripped (confidence 26) [97636AD9] (AR v2) Copy OK
Track 11
Filename C:\Music\11 - Mud - Dyna-Mite.wav
Peak level 96.6 % Extraction speed 5.1 X Track quality 100.0 % Test CRC 08DF1708 Copy CRC 08DF1708 Accurately ripped (confidence 26) [CF2F6C3D] (AR v2) Copy OK
Track 12
Filename C:\Music\12 - Hans Zimmer - Watkins Glen.wav
Pre-gap length 0:00:00.54
Peak level 96.6 % Extraction speed 4.4 X Track quality 100.0 % Test CRC E2474B8A Copy CRC E2474B8A Accurately ripped (confidence 26) [8B2ED1D9] (AR v2) Copy OK
Track 13
Filename C:\Music\13 - Hans Zimmer - Loose Cannon.wav
Peak level 75.4 % Extraction speed 3.0 X Track quality 100.0 % Test CRC E0BA29AA Copy CRC E0BA29AA Accurately ripped (confidence 26) [DCF3EB46] (AR v2) Copy OK
Track 14
Filename C:\Music\14 - Thin Lizzy - The Rocker.wav
Peak level 84.1 % Extraction speed 5.5 X Track quality 100.0 % Test CRC FA837B4A Copy CRC FA837B4A Accurately ripped (confidence 26) [4BF9B340] (AR v2) Copy OK
Track 15
Filename C:\Music\15 - Hans Zimmer - Car Trouble.wav
Peak level 96.6 % Extraction speed 4.2 X Track quality 99.9 % Test CRC DC79B24F Copy CRC DC79B24F Accurately ripped (confidence 25) [B09AFF13] (AR v2) Copy OK
Track 16
Filename C:\Music\16 - Hans Zimmer - Glueck.wav
Pre-gap length 0:00:02.00
Peak level 96.6 % Extraction speed 4.1 X Track quality 100.0 % Test CRC 306A8167 Copy CRC 306A8167 Accurately ripped (confidence 24) [E94F4AC9] (AR v2) Copy OK
Track 17
Filename C:\Music\17 - Hans Zimmer - Nuerburgring.wav
Pre-gap length 0:00:00.51
Peak level 96.6 % Extraction speed 5.0 X Track quality 99.9 % Test CRC 27459B72 Copy CRC 27459B72 Accurately ripped (confidence 23) [0C4E16DD] (AR v2) Copy OK
Track 18
Filename C:\Music\18 - Hans Zimmer - Inferno.wav
Pre-gap length 0:00:00.42
Peak level 96.6 % Extraction speed 5.1 X Track quality 100.0 % Test CRC 4656CE6A Copy CRC 4656CE6A Accurately ripped (confidence 26) [0A0E7F8F] (AR v2) Copy OK
Track 19
Filename C:\Music\19 - Hans Zimmer - Mount Fuji.wav
Peak level 96.6 % Extraction speed 4.6 X Track quality 99.9 % Test CRC 8232CBA0 Copy CRC 8232CBA0 Accurately ripped (confidence 26) [297C8005] (AR v2) Copy OK
Track 20
Filename C:\Music\20 - Hans Zimmer - For Love.wav
Pre-gap length 0:00:00.14
Peak level 96.6 % Extraction speed 5.0 X Track quality 100.0 % Test CRC A72097A3 Copy CRC A72097A3 Accurately ripped (confidence 26) [0EFDF969] (AR v2) Copy OK
Track 21
Filename C:\Music\21 - Hans Zimmer - Reign.wav
Peak level 96.6 % Extraction speed 5.1 X Track quality 100.0 % Test CRC 666FCD86 Copy CRC 666FCD86 Accurately ripped (confidence 26) [E63D722C] (AR v2) Copy OK
Track 22
Filename C:\Music\22 - David Bowie - Fame.wav
Pre-gap length 0:00:01.52
Peak level 96.6 % Extraction speed 5.3 X Track quality 100.0 % Test CRC 7A27DA56 Copy CRC 7A27DA56 Accurately ripped (confidence 26) [D95AAE5B] (AR v2) Copy OK
Track 23
Filename C:\Music\23 - Hans Zimmer - Lost But Won.wav
Peak level 96.6 % Extraction speed 5.5 X Track quality 100.0 % Test CRC B10FBAD0 Copy CRC B10FBAD0 Accurately ripped (confidence 26) [5B9400DB] (AR v2) Copy OK
Track 24
Filename C:\Music\24 - Hans Zimmer - My Best Enemy.wav
Pre-gap length 0:00:03.11
Peak level 96.6 % Extraction speed 4.8 X Track quality 100.0 % Test CRC 15CA3149 Copy CRC 15CA3149 Accurately ripped (confidence 25) [4F456382] (AR v2) Copy OK
All tracks accurately ripped
No errors occurred
End of status report
---- CUETools DB Plugin V2.1.6
[CTDB TOCID: .F6wjSYGnEbTVlTOSgjZ2HPPmCk-] foundSubmit result: .F6wjSYGnEbTVlTOSgjZ2HPPmCk- has been confirmedTrack | CTDB Status 1 | (53/53) Accurately ripped 2 | (53/53) Accurately ripped 3 | (53/53) Accurately ripped 4 | (53/53) Accurately ripped 5 | (53/53) Accurately ripped 6 | (53/53) Accurately ripped 7 | (53/53) Accurately ripped 8 | (53/53) Accurately ripped 9 | (53/53) Accurately ripped 10 | (53/53) Accurately ripped 11 | (53/53) Accurately ripped 12 | (53/53) Accurately ripped 13 | (53/53) Accurately ripped 14 | (53/53) Accurately ripped 15 | (53/53) Accurately ripped 16 | (53/53) Accurately ripped 17 | (52/53) Accurately ripped 18 | (53/53) Accurately ripped 19 | (53/53) Accurately ripped 20 | (53/53) Accurately ripped 21 | (53/53) Accurately ripped 22 | (53/53) Accurately ripped 23 | (53/53) Accurately ripped 24 | (52/53) Accurately ripped
==== Log checksum 33F07F533E898FBB6951372B63D9860E846108699374CFE1DC58F1D589E258A6 ====

Содержание индексной карты (.CUE)

REM GENRE SoundtrackREM DATE 2013REM DISCID 550F3818REM COMMENT "ExactAudioCopy v1.1"PERFORMER "Hans Zimmer"TITLE "Rush"FILE "01 - Hans Zimmer - 1976.wav" WAVE TRACK 01 AUDIO TITLE "1976" PERFORMER "Hans Zimmer" INDEX 01 00:00:00FILE "02 - Hans Zimmer - I Could Show You If You'd Like.wav" WAVE TRACK 02 AUDIO TITLE "I Could Show You If You'd Like" PERFORMER "Hans Zimmer" INDEX 01 00:00:00 TRACK 03 AUDIO TITLE "I Hear You Knocking" PERFORMER "Dave Edmunds" INDEX 00 00:44:48FILE "03 - Dave Edmunds - I Hear You Knocking.wav" WAVE INDEX 01 00:00:00 TRACK 04 AUDIO TITLE "Stopwatch" PERFORMER "Hans Zimmer" INDEX 00 02:46:59FILE "04 - Hans Zimmer - Stopwatch.wav" WAVE INDEX 01 00:00:00FILE "05 - Hans Zimmer - Into The Red.wav" WAVE TRACK 05 AUDIO TITLE "Into The Red" PERFORMER "Hans Zimmer" INDEX 01 00:00:00FILE "06 - Hans Zimmer - Budgie.wav" WAVE TRACK 06 AUDIO TITLE "Budgie" PERFORMER "Hans Zimmer" INDEX 01 00:00:00FILE "07 - Hans Zimmer - Scuderia.wav" WAVE TRACK 07 AUDIO TITLE "Scuderia" PERFORMER "Hans Zimmer" INDEX 01 00:00:00FILE "08 - Steve Winwood - Gimme Some Lovin.wav" WAVE TRACK 08 AUDIO TITLE "Gimme Some Lovin" PERFORMER "Steve Winwood" INDEX 01 00:00:00FILE "09 - Hans Zimmer - Oysters In The Pits.wav" WAVE TRACK 09 AUDIO TITLE "Oysters In The Pits" PERFORMER "Hans Zimmer" INDEX 01 00:00:00FILE "10 - Hans Zimmer - 20%.wav" WAVE TRACK 10 AUDIO TITLE "20%" PERFORMER "Hans Zimmer" INDEX 01 00:00:00FILE "11 - Mud - Dyna-Mite.wav" WAVE TRACK 11 AUDIO TITLE "Dyna-Mite" PERFORMER "Mud" INDEX 01 00:00:00 TRACK 12 AUDIO TITLE "Watkins Glen" PERFORMER "Hans Zimmer" INDEX 00 02:55:72FILE "12 - Hans Zimmer - Watkins Glen.wav" WAVE INDEX 01 00:00:00FILE "13 - Hans Zimmer - Loose Cannon.wav" WAVE TRACK 13 AUDIO TITLE "Loose Cannon" PERFORMER "Hans Zimmer" INDEX 01 00:00:00FILE "14 - Thin Lizzy - The Rocker.wav" WAVE TRACK 14 AUDIO TITLE "The Rocker" PERFORMER "Thin Lizzy" INDEX 01 00:00:00FILE "15 - Hans Zimmer - Car Trouble.wav" WAVE TRACK 15 AUDIO TITLE "Car Trouble" PERFORMER "Hans Zimmer" INDEX 01 00:00:00 TRACK 16 AUDIO TITLE "Glueck" PERFORMER "Hans Zimmer" INDEX 00 02:37:54FILE "16 - Hans Zimmer - Glueck.wav" WAVE INDEX 01 00:00:00 TRACK 17 AUDIO TITLE "Nuerburgring" PERFORMER "Hans Zimmer" INDEX 00 01:14:15FILE "17 - Hans Zimmer - Nuerburgring.wav" WAVE INDEX 01 00:00:00 TRACK 18 AUDIO TITLE "Inferno" PERFORMER "Hans Zimmer" INDEX 00 05:33:30FILE "18 - Hans Zimmer - Inferno.wav" WAVE INDEX 01 00:00:00FILE "19 - Hans Zimmer - Mount Fuji.wav" WAVE TRACK 19 AUDIO TITLE "Mount Fuji" PERFORMER "Hans Zimmer" INDEX 01 00:00:00 TRACK 20 AUDIO TITLE "For Love" PERFORMER "Hans Zimmer" INDEX 00 03:44:68FILE "20 - Hans Zimmer - For Love.wav" WAVE INDEX 01 00:00:00FILE "21 - Hans Zimmer - Reign.wav" WAVE TRACK 21 AUDIO TITLE "Reign" PERFORMER "Hans Zimmer" INDEX 01 00:00:00 TRACK 22 AUDIO TITLE "Fame" PERFORMER "David Bowie" INDEX 00 03:05:49FILE "22 - David Bowie - Fame.wav" WAVE INDEX 01 00:00:00FILE "23 - Hans Zimmer - Lost But Won.wav" WAVE TRACK 23 AUDIO TITLE "Lost But Won" PERFORMER "Hans Zimmer" INDEX 01 00:00:00 TRACK 24 AUDIO TITLE "My Best Enemy" PERFORMER "Hans Zimmer" INDEX 00 06:16:39FILE "24 - Hans Zimmer - My Best Enemy.wav" WAVE INDEX 01 00:00:00
[teatrix.ru].t10298.torrent 
Торрент: Зарегистрирован [ 2015-11-01 20:51 ] · 301745425340CF0D01CF3D34EF099F0439316731

Скачать .torrent

Скачать

38 KB

Статус: проверено
Скачан: 0 раз
Размер: 452 MB
terms.php



Быстрый ответ

Имя:

      
Для отправки сообщений необходимо включить JavaScript
Показать сообщения:    

Текущее время: 04-Дек 09:09

Часовой пояс: UTC + 3


Вы можете начинать темы
Вы можете отвечать на сообщения
Вы не можете редактировать свои сообщения
Вы не можете удалять свои сообщения
Вы не можете голосовать в опросах
Вы не можете прикреплять файлы к сообщениям
Вы можете скачивать файлы