(Soundtrack) Идеальный голос 2 / Pitch Perfect 2 - 2015, FLAC (tracks+.cue), lossless


Статистика раздачи [Обновить пиров]
Размер:  290 MB   |    Зарегистрирован:  1 год 1 месяц   |    Скачан:  0 раз

Полного источника не было: Никогда

Личеров:  6  [  0 KB/s  ]   Подробная статистика пиров
 
   
 
 
 

[Цитировать]

Идеальный голос 2 / Pitch Perfect 2-Жанр: Soundtrack
Год выпуска диска: 2015
Производитель диска: USA
Издатель (лейбл): Universal
Номер по каталогу:B0023024-02-Аудиокодек: FLAC (*.flac)
Тип рипа: tracks+.cue
Битрейт аудио: lossless
Продолжительность: 00:43:40
Источник: what.cd / Danibbs
Наличие сканов в содержимом раздачи: нет-

Треклист

1 Universal Fanfare Elizabeth Banks & John Michael Higgins 0:33
2 Kennedy Center Performance The Barden Bellas 2:27
3 Lollipop The Treblemakers 2:43
4 Car Show Das Sound Machine 1:47
5 Winter Wonderland / Here Comes Santa Claus Snoop Dogg & Anna Kendrick 3:04
6 Riff Off Das Sound Machine, Tone Hangers, The Barden Bellas, Green Bay Packers & The Treblemakers 4:24
7 Jump Das Sound Machine, Tone Hangers, The Treblemakers & Green Bay Packers 1:16
8 Convention Performance The Barden Bellas 1:41
9 Back to Basics The Barden Bellas 1:30
10 Cups (When I'm Gone) [Campfire Version] The Barden Bellas 0:45
11 We Belong Rebel Wilson & Adam DeVine 3:34
12 Any Way You Want It (World Championship Medley) Pentatonix, The Filharmonic, The Castasticos, The Singboks & Penn Masala 1:56
13 World Championship Finale 1 Das Sound Machine 2:01
14 World Championship Finale 2 The Barden Bellas 4:16
15 Crazy Youngsters Ester Dean 3:39
16 Pitch Perfect 2 End Credit Medley Mark Mothersbaugh 3:00
17 Flashlight Jessie J 3:29
18 All of Me (Bumper's Audition) Adam DeVine 1:27

Лог создания рипа

Exact Audio Copy V1.0 beta 3 from 29. August 2011
EAC extraction logfile from 13. July 2015, 16:04
Mark Mothersbaugh / Pitch Perfect 2
Used drive : HL-DT-STBD-RE WH12LS39 Adapter: 0 ID: 2
Read mode : SecureUtilize accurate stream : YesDefeat audio cache : YesMake use of C2 pointers : No
Read offset correction : 667Overread into Lead-In and Lead-Out : NoFill up missing offset samples with silence : YesDelete leading and trailing silent blocks : NoNull samples used in CRC calculations : YesUsed interface : Native Win32 interface for Win NT & 2000Gap handling : Appended to previous track
Used output format : User Defined EncoderSelected bitrate : 1024 kBit/sQuality : HighAdd ID3 tag : NoCommand line compressor : C:\Program Files (x86)\Exact Audio Copy\Flac\flac.exeAdditional command line options : -8 -V -T "ARTIST=%artist%" -T "TITLE=%title%" -T "ALBUM=%albumtitle%" -T "DATE=%year%" -T "TRACKNUMBER=%tracknr%"-T "GENRE=%genre%" -T "PERFORMER=%albuminterpret%" -T "COMPOSER=%composer%" %haslyrics%--tag-from-file=LYRICS="%lyricsfile%"%haslyrics%-T "ALBUMARTIST=%albumartist%" -T "DISCNUMBER=%cdnumber%" -T "TOTALDISCS=%totalcds%" -T "TOTALTRACKS=%numtracks%" -T "COMMENT=%comment%" %source% -o %dest%
TOC of the extracted CD
Track | Start | Length | Start sector | End sector --------------------------------------------------------- 1 | 0:00.00 | 0:33.00 | 0 | 2474 2 | 0:33.00 | 2:27.22 | 2475 | 13521 3 | 3:00.22 | 2:43.04 | 13522 | 25750 4 | 5:43.26 | 1:47.37 | 25751 | 33812 5 | 7:30.63 | 3:04.23 | 33813 | 47635 6 | 10:35.11 | 4:24.37 | 47636 | 67472 7 | 14:59.48 | 1:16.62 | 67473 | 73234 8 | 16:16.35 | 1:41.07 | 73235 | 80816 9 | 17:57.42 | 1:30.49 | 80817 | 87615 10 | 19:28.16 | 0:45.54 | 87616 | 91044 11 | 20:13.70 | 3:34.56 | 91045 | 107150 12 | 23:48.51 | 1:56.21 | 107151 | 115871 13 | 25:44.72 | 2:01.65 | 115872 | 125011 14 | 27:46.62 | 4:16.10 | 125012 | 144221 15 | 32:02.72 | 3:39.45 | 144222 | 160691 16 | 35:42.42 | 3:00.19 | 160692 | 174210 17 | 38:42.61 | 3:29.41 | 174211 | 189926 18 | 42:12.27 | 1:27.58 | 189927 | 196509
Track 1
Filename I:\What.CD\Pitch Perfect 2 2015 Soundtrack\01 - Banks & John Michael Higgins - Universal Fanfare.wav
Pre-gap length 0:00:02.00
Peak level 84.5 % Extraction speed 0.6 X Track quality 100.0 % Test CRC 07572B66 Copy CRC 07572B66 Accurately ripped (confidence 8) [7777D075] (AR v2) Copy OK
Track 2
Filename I:\What.CD\Pitch Perfect 2 2015 Soundtrack\02 - The Barden Bellas - Kennedy Center Performance.wav
Peak level 97.7 % Extraction speed 1.1 X Track quality 100.0 % Test CRC B621757F Copy CRC B621757F Accurately ripped (confidence 8) [0F1C52C5] (AR v2) Copy OK
Track 3
Filename I:\What.CD\Pitch Perfect 2 2015 Soundtrack\03 - The Treblemakers - Lollipop.wav
Peak level 97.7 % Extraction speed 1.2 X Track quality 100.0 % Test CRC 2364C08D Copy CRC 2364C08D Accurately ripped (confidence 8) [77F400FF] (AR v2) Copy OK
Track 4
Filename I:\What.CD\Pitch Perfect 2 2015 Soundtrack\04 - Das Sound Machine - Car Show.wav
Peak level 97.7 % Extraction speed 1.2 X Track quality 100.0 % Test CRC B0F98D4A Copy CRC B0F98D4A Accurately ripped (confidence 8) [DC078AB4] (AR v2) Copy OK
Track 5
Filename I:\What.CD\Pitch Perfect 2 2015 Soundtrack\05 - Snoop Dogg & Anna Kendrick - Winter Wonderland , Here Comes Santa Claus.wav
Peak level 98.8 % Extraction speed 1.4 X Track quality 100.0 % Test CRC 768A4DD9 Copy CRC 768A4DD9 Accurately ripped (confidence 8) [112CBCBA] (AR v2) Copy OK
Track 6
Filename I:\What.CD\Pitch Perfect 2 2015 Soundtrack\06 - Das Sound Machine, Tone Hangers, The Barden Bellas, Green Bay Packers & The Treblemakers - Riff Off.wav
Peak level 97.7 % Extraction speed 1.6 X Track quality 100.0 % Test CRC 2EF1C09D Copy CRC 2EF1C09D Accurately ripped (confidence 8) [14977F35] (AR v2) Copy OK
Track 7
Filename I:\What.CD\Pitch Perfect 2 2015 Soundtrack\07 - Das Sound Machine, Tone Hangers, The Treblemakers & Green Bay Packers - Jump.wav
Peak level 97.7 % Extraction speed 1.2 X Track quality 100.0 % Test CRC BED23A36 Copy CRC BED23A36 Accurately ripped (confidence 8) [236D0280] (AR v2) Copy OK
Track 8
Filename I:\What.CD\Pitch Perfect 2 2015 Soundtrack\08 - The Barden Bellas - Convention Performance.wav
Peak level 97.7 % Extraction speed 1.4 X Track quality 100.0 % Test CRC 01BAEC31 Copy CRC 01BAEC31 Accurately ripped (confidence 8) [A9FFC36D] (AR v2) Copy OK
Track 9
Filename I:\What.CD\Pitch Perfect 2 2015 Soundtrack\09 - The Barden Bellas - Back to Basics.wav
Peak level 97.7 % Extraction speed 1.0 X Track quality 99.8 % Test CRC 7EE23E13 Copy CRC 7EE23E13 Accurately ripped (confidence 8) [39994744] (AR v2) Copy OK
Track 10
Filename I:\What.CD\Pitch Perfect 2 2015 Soundtrack\10 - The Barden Bellas - Cups (When I'm Gone) [Campfire Version].wav
Peak level 97.7 % Extraction speed 1.1 X Track quality 100.0 % Test CRC ACA36E2E Copy CRC ACA36E2E Accurately ripped (confidence 8) [ECF87464] (AR v2) Copy OK
Track 11
Filename I:\What.CD\Pitch Perfect 2 2015 Soundtrack\11 - Rebel Wilson & Adam DeVine - We Belong.wav
Peak level 97.7 % Extraction speed 1.7 X Track quality 100.0 % Test CRC 7C803D42 Copy CRC 7C803D42 Accurately ripped (confidence 8) [A4EE8371] (AR v2) Copy OK
Track 12
Filename I:\What.CD\Pitch Perfect 2 2015 Soundtrack\12 - Pentatonix, The Filharmonic, The Castasticos, The Singboks & Penn Masala - Any Way You Want It (World Championship Medley).wav
Peak level 97.7 % Extraction speed 1.6 X Track quality 100.0 % Test CRC 22E82DBD Copy CRC 22E82DBD Accurately ripped (confidence 8) [82FDCF43] (AR v2) Copy OK
Track 13
Filename I:\What.CD\Pitch Perfect 2 2015 Soundtrack\13 - Das Sound Machine - World Championship Finale 1.wav
Peak level 98.8 % Extraction speed 1.6 X Track quality 100.0 % Test CRC CA7A432E Copy CRC CA7A432E Accurately ripped (confidence 8) [2FD895B2] (AR v2) Copy OK
Track 14
Filename I:\What.CD\Pitch Perfect 2 2015 Soundtrack\14 - The Barden Bellas - World Championship Finale 2.wav
Peak level 97.8 % Extraction speed 1.9 X Track quality 100.0 % Test CRC A529C311 Copy CRC A529C311 Accurately ripped (confidence 8) [D9E69A12] (AR v2) Copy OK
Track 15
Filename I:\What.CD\Pitch Perfect 2 2015 Soundtrack\15 - Ester Dean - Crazy Youngsters.wav
Peak level 98.8 % Extraction speed 2.0 X Track quality 100.0 % Test CRC 0FDE3C69 Copy CRC 0FDE3C69 Accurately ripped (confidence 8) [40A40974] (AR v2) Copy OK
Track 16
Filename I:\What.CD\Pitch Perfect 2 2015 Soundtrack\16 - Mark Mothersbaugh - Pitch Perfect 2 End Credit Medley.wav
Peak level 98.7 % Extraction speed 1.7 X Track quality 99.9 % Test CRC 50508E14 Copy CRC 50508E14 Accurately ripped (confidence 8) [3BBDF499] (AR v2) Copy OK
Track 17
Filename I:\What.CD\Pitch Perfect 2 2015 Soundtrack\17 - Jessie J - Flashlight.wav
Peak level 97.7 % Extraction speed 2.1 X Track quality 100.0 % Test CRC 95A3692E Copy CRC 95A3692E Accurately ripped (confidence 8) [90762B6C] (AR v2) Copy OK
Track 18
Filename I:\What.CD\Pitch Perfect 2 2015 Soundtrack\18 - Adam DeVine - All of Me (Bumper's Audition).wav
Peak level 97.7 % Extraction speed 1.7 X Track quality 100.0 % Test CRC 6635CB86 Copy CRC 6635CB86 Accurately ripped (confidence 8) [1F99CDE6] (AR v2) Copy OK
All tracks accurately ripped
No errors occurred
End of status report
---- CUETools DB Plugin V2.1.3
[CTDB TOCID: dldsijlu1U.H9rC9pEcvkvQjOk8-] found, Submit result: dldsijlu1U.H9rC9pEcvkvQjOk8- has been confirmed[1625d7bb] (31/32) Accurately ripped[926f653f] (01/32) No match
==== Log checksum 3D44D4542E1B5E13327DA9DACB8B4D43FD54F95F7AB5BDC8DE3718CA5F84DE41 ====

Содержание индексной карты (.CUE)

REM GENRE SoundtrackREM DATE 2015REM DISCID E20A3C12REM COMMENT "ExactAudioCopy v1.0b3"CATALOG 0602547290243PERFORMER "Mark Mothersbaugh"TITLE "Pitch Perfect 2"FILE "01 - Banks & John Michael Higgins - Universal Fanfare.wav" WAVE TRACK 01 AUDIO TITLE "Universal Fanfare" PERFORMER "Banks & John Michael Higgins" ISRC USUM71504637 INDEX 01 00:00:00FILE "02 - The Barden Bellas - Kennedy Center Performance.wav" WAVE TRACK 02 AUDIO TITLE "Kennedy Center Performance" PERFORMER "The Barden Bellas" ISRC USUM71504638 INDEX 01 00:00:00FILE "03 - The Treblemakers - Lollipop.wav" WAVE TRACK 03 AUDIO TITLE "Lollipop" PERFORMER "The Treblemakers" ISRC USUM71504639 INDEX 01 00:00:00FILE "04 - Das Sound Machine - Car Show.wav" WAVE TRACK 04 AUDIO TITLE "Car Show" PERFORMER "Das Sound Machine" ISRC USUM71504640 INDEX 01 00:00:00FILE "05 - Snoop Dogg & Anna Kendrick - Winter Wonderland , Here Comes Santa Claus.wav" WAVE TRACK 05 AUDIO TITLE "Winter Wonderland / Here Comes Santa Claus" PERFORMER "Snoop Dogg & Anna Kendrick" ISRC USUM71504641 INDEX 01 00:00:00FILE "06 - Das Sound Machine, Tone Hangers, The Barden Bellas, Green Bay Packers & The Treblemakers - Riff Off.wav" WAVE TRACK 06 AUDIO TITLE "Riff Off" PERFORMER "Das Sound Machine, Tone Hangers, The Barden Bellas, Green Bay Packers & The T..." ISRC USUM71504642 INDEX 01 00:00:00FILE "07 - Das Sound Machine, Tone Hangers, The Treblemakers & Green Bay Packers - Jump.wav" WAVE TRACK 07 AUDIO TITLE "Jump" PERFORMER "Das Sound Machine, Tone Hangers, The Treblemakers & Green Bay Packers" ISRC USUM71504643 INDEX 01 00:00:00FILE "08 - The Barden Bellas - Convention Performance.wav" WAVE TRACK 08 AUDIO TITLE "Convention Performance" PERFORMER "The Barden Bellas" ISRC USUM71504644 INDEX 01 00:00:00FILE "09 - The Barden Bellas - Back to Basics.wav" WAVE TRACK 09 AUDIO TITLE "Back to Basics" PERFORMER "The Barden Bellas" ISRC USUM71504645 INDEX 01 00:00:00FILE "10 - The Barden Bellas - Cups (When I'm Gone) [Campfire Version].wav" WAVE TRACK 10 AUDIO TITLE "Cups (When I'm Gone) [Campfire Version]" PERFORMER "The Barden Bellas" ISRC USUM71504646 INDEX 01 00:00:00FILE "11 - Rebel Wilson & Adam DeVine - We Belong.wav" WAVE TRACK 11 AUDIO TITLE "We Belong" PERFORMER "Rebel Wilson & Adam DeVine" ISRC USUM71504647 INDEX 01 00:00:00FILE "12 - Pentatonix, The Filharmonic, The Castasticos, The Singboks & Penn Masala - Any Way You Want It (World Championship Medley).wav" WAVE TRACK 12 AUDIO TITLE "Any Way You Want It (World Championship Medley)" PERFORMER "Pentatonix, The Filharmonic, The Castasticos, The Singboks & Penn Masala" ISRC USUM71504648 INDEX 01 00:00:00FILE "13 - Das Sound Machine - World Championship Finale 1.wav" WAVE TRACK 13 AUDIO TITLE "World Championship Finale 1" PERFORMER "Das Sound Machine" ISRC USUM71504649 INDEX 01 00:00:00FILE "14 - The Barden Bellas - World Championship Finale 2.wav" WAVE TRACK 14 AUDIO TITLE "World Championship Finale 2" PERFORMER "The Barden Bellas" ISRC USUM71504650 INDEX 01 00:00:00FILE "15 - Ester Dean - Crazy Youngsters.wav" WAVE TRACK 15 AUDIO TITLE "Crazy Youngsters" PERFORMER "Ester Dean" ISRC USUM71504651 INDEX 01 00:00:00FILE "16 - Mark Mothersbaugh - Pitch Perfect 2 End Credit Medley.wav" WAVE TRACK 16 AUDIO TITLE "Pitch Perfect 2 End Credit Medley" PERFORMER "Mark Mothersbaugh" ISRC USUM71504652 INDEX 01 00:00:00FILE "17 - Jessie J - Flashlight.wav" WAVE TRACK 17 AUDIO TITLE "Flashlight" PERFORMER "Jessie J" ISRC USUM71504653 INDEX 01 00:00:00FILE "18 - Adam DeVine - All of Me (Bumper's Audition).wav" WAVE TRACK 18 AUDIO TITLE "All of Me (Bumper's Audition)" PERFORMER "Adam DeVine" ISRC USUM71504654 INDEX 01 00:00:00
[teatrix.ru].t10300.torrent 
Торрент: Зарегистрирован [ 2015-11-01 20:51 ] · EA84DFDE998CE56C6938CDE3ECC0987E7AB64D31

Скачать .torrent

Скачать

14 KB

Статус: проверено
Скачан: 0 раз
Размер: 290 MB
terms.php



Быстрый ответ

Имя:

      
Для отправки сообщений необходимо включить JavaScript
Показать сообщения:    

Текущее время: 05-Дек 11:33

Часовой пояс: UTC + 3


Вы можете начинать темы
Вы можете отвечать на сообщения
Вы не можете редактировать свои сообщения
Вы не можете удалять свои сообщения
Вы не можете голосовать в опросах
Вы не можете прикреплять файлы к сообщениям
Вы можете скачивать файлы