(Soundtrack) Идеальный голос / Pitch Perfect (Special Edition) - 2012, FLAC (tracks+.cue), lossless


Статистика раздачи [Обновить пиров]
Размер:  246 MB   |    Зарегистрирован:  1 год 1 месяц   |    Скачан:  1 раз

Полного источника не было: 2 месяца 26 дней

Личеров:  7  [  0 KB/s  ]   Подробная статистика пиров
 
   
 
 
 

[Цитировать]

Идеальный голос / Pitch Perfect (Special Edition)-Жанр: Soundtrack
Год выпуска диска: 2012
Производитель диска: USA
Издатель (лейбл): Universal
Номер по каталогу: B0017869-02-Аудиокодек: FLAC (*.flac)
Тип рипа: tracks+.cue
Битрейт аудио: lossless
Продолжительность: 00:37:55
Источник: what.cd / Chesterchaz
Наличие сканов в содержимом раздачи: да-

Треклист

Track List:
01. Don't Stop the Music (The Treblemakers)
02. Let It Whip (The Treblemakers)
03. Since U Been Gone (Ester Dean, Skylar Astin)
04. Cups (Anna Kendrick)
05. Riff Off: Mickey/Like A Virgin/Hit Me With Your Best Shot/S&M/Let's Talk About Sex/I'll Make Love To You/Feels Like The First Time/No Diggity (The Barden Bellas, The Treblemakers, The BU Harmonics)
06. Bellas Regionals: The Sign/Eternal Flame/Turn The Beat Around (The Barden Bellas)
07. Right Round (The Treblemakers featuring My Name Is Kay)
08. Pool Mashup: Just The Way You Are/Just A Dream (The Barden Bellas)
09. Party in the U.S.A. (The Barden Bellas)
10. Trebles Finals: Bright Lights Bigger City/Magic (The Treblemakers)
11. Bellas Finals: Price Tag/Don t You (Forget About Me)/Give Me Everything/Just The Way You Are/Party In The U.S.A./Turn The Beat Around (The Barden Bellas)
12. Toner (Instrumental Suite) (Christopher Beck, Mark Kilian)
13. F**k You (The Sockapellas)
14. Blame It On the Boogie (The Footnotes)
15. The Final Countdown (Hullabahoos)
16. Open Season (High Highs)

Лог создания рипа

Exact Audio Copy V1.0 beta 3 from 29. August 2011
EAC extraction logfile from 7. January 2013, 1:24
Various Artists / Pitch Perfect
Used drive : PLDS DVD+-RW DS-8A5SH Adapter: 1 ID: 0
Read mode : SecureUtilize accurate stream : YesDefeat audio cache : YesMake use of C2 pointers : No
Read offset correction : 6Overread into Lead-In and Lead-Out : NoFill up missing offset samples with silence : YesDelete leading and trailing silent blocks : NoNull samples used in CRC calculations : YesUsed interface : Native Win32 interface for Win NT & 2000Gap handling : Appended to previous track
Used output format : User Defined EncoderSelected bitrate : 32 kBit/sQuality : HighAdd ID3 tag : NoCommand line compressor : C:\Program Files (x86)\FLAC\flac.exeAdditional command line options : -T "artist=%artist%" -T "title=%title%" -T "album=%albumtitle%" -T "date=%year%" -T "tracknumber=%tracknr%" -T "genre=%genre%" -8 --verify %source%
TOC of the extracted CD
Track | Start | Length | Start sector | End sector --------------------------------------------------------- 1 | 0:00.00 | 3:05.06 | 0 | 13880 2 | 3:05.06 | 2:21.66 | 13881 | 24521 3 | 5:26.72 | 2:26.13 | 24522 | 35484 4 | 7:53.10 | 1:16.71 | 35485 | 41255 5 | 9:10.06 | 3:43.63 | 41256 | 58043 6 | 12:53.69 | 2:40.01 | 58044 | 70044 7 | 15:33.70 | 3:16.74 | 70045 | 84818 8 | 18:50.69 | 1:38.42 | 84819 | 92210 9 | 20:29.36 | 1:03.06 | 92211 | 96941 10 | 21:32.42 | 2:34.42 | 96942 | 108533 11 | 24:07.09 | 3:37.06 | 108534 | 124814 12 | 27:44.15 | 2:58.46 | 124815 | 138210 13 | 30:42.61 | 1:12.59 | 138211 | 143669 14 | 31:55.45 | 0:52.53 | 143670 | 147622 15 | 32:48.23 | 1:15.27 | 147623 | 153274 16 | 34:03.50 | 3:49.43 | 153275 | 170492
Track 1
Filename G:\PPSE\101-The_Treblemakers-Don't_Stop_The_Music.wav
Pre-gap length 0:00:02.00
Peak level 96.6 % Extraction speed 2.8 X Track quality 100.0 % Test CRC 321EC285 Copy CRC 321EC285 Track not present in AccurateRip database Copy OK
Track 2
Filename G:\PPSE\102-The_Treblemakers-Let_It_Whip.wav
Peak level 95.5 % Extraction speed 2.8 X Track quality 100.0 % Test CRC 5DE0C4A8 Copy CRC 5DE0C4A8 Track not present in AccurateRip database Copy OK
Track 3
Filename G:\PPSE\103-Ester_Dean_&_Skylar_Astin-Since_U_Been_Gone.wav
Peak level 97.7 % Extraction speed 3.0 X Track quality 100.0 % Test CRC 4853ECCE Copy CRC 4853ECCE Track not present in AccurateRip database Copy OK
Track 4
Filename G:\PPSE\104-Anna_Kendrick-Cups.wav
Peak level 97.7 % Extraction speed 2.6 X Track quality 100.0 % Test CRC DCD7366F Copy CRC DCD7366F Track not present in AccurateRip database Copy OK
Track 5
Filename G:\PPSE\105-The_Barden_Bellas,_The_Treblemakers_&_The_BU_Harmonics-Riff_Off.wav
Peak level 96.6 % Extraction speed 3.5 X Track quality 100.0 % Test CRC 4B639F03 Copy CRC 4B639F03 Track not present in AccurateRip database Copy OK
Track 6
Filename G:\PPSE\106-The_Barden_Bellas-Bellas_Regionals.wav
Peak level 97.7 % Extraction speed 2.9 X Track quality 99.9 % Test CRC 17E3D576 Copy CRC 17E3D576 Track not present in AccurateRip database Copy OK
Track 7
Filename G:\PPSE\107-The_Treblemakers_Feat._My_Name_Is_Kay-Right_Round.wav
Peak level 97.7 % Extraction speed 3.7 X Track quality 100.0 % Test CRC C98D2A12 Copy CRC C98D2A12 Track not present in AccurateRip database Copy OK
Track 8
Filename G:\PPSE\108-The_Barden_Bellas-Pool_Mashup.wav
Peak level 97.7 % Extraction speed 3.3 X Track quality 100.0 % Test CRC 7C693461 Copy CRC 7C693461 Track not present in AccurateRip database Copy OK
Track 9
Filename G:\PPSE\109-The_Barden_Bellas-Party_In_The_U.S.A..wav
Peak level 98.8 % Extraction speed 2.1 X Track quality 99.8 % Test CRC 8CD50294 Copy CRC 8CD50294 Track not present in AccurateRip database Copy OK
Track 10
Filename G:\PPSE\110-The_Treblemakers-Trebles_Finals.wav
Peak level 97.7 % Extraction speed 3.8 X Track quality 100.0 % Test CRC 74BD8D4C Copy CRC 74BD8D4C Track not present in AccurateRip database Copy OK
Track 11
Filename G:\PPSE\111-The_Barden_Bellas-Bellas_Finals.wav
Peak level 96.6 % Extraction speed 4.2 X Track quality 100.0 % Test CRC 3750486F Copy CRC 3750486F Track not present in AccurateRip database Copy OK
Track 12
Filename G:\PPSE\112-Christophe_Beck_&_Mark_Kilian-Toner_(Instrumental_Suite).wav
Peak level 97.7 % Extraction speed 3.6 X Track quality 99.9 % Test CRC 4CE3FAEA Copy CRC 4CE3FAEA Track not present in AccurateRip database Copy OK
Track 13
Filename G:\PPSE\113-The_Sockapellas-Fuck_You.wav
Peak level 97.7 % Extraction speed 3.5 X Track quality 100.0 % Test CRC E2078F41 Copy CRC E2078F41 Track not present in AccurateRip database Copy OK
Track 14
Filename G:\PPSE\114-The_Footnotes-Blame_It_On_The_Boogie.wav
Peak level 97.7 % Extraction speed 3.0 X Track quality 100.0 % Test CRC 99FAB390 Copy CRC 99FAB390 Track not present in AccurateRip database Copy OK
Track 15
Filename G:\PPSE\115-Hullabahoos-The_Final_Countdown.wav
Peak level 98.6 % Extraction speed 2.6 X Track quality 99.8 % Test CRC 5597DF50 Copy CRC 5597DF50 Track not present in AccurateRip database Copy OK
Track 16
Filename G:\PPSE\116-High_Highs-Open_Season.wav
Peak level 76.6 % Extraction speed 4.7 X Track quality 100.0 % Test CRC 548E7A8B Copy CRC 548E7A8B Track not present in AccurateRip database Copy OK
None of the tracks are present in the AccurateRip database
No errors occurred
End of status report
==== Log checksum 1CB77EC5D7DA8276702C16959188774B4A3D011724AF1BA968869C546F9A93E3 ====

Содержание индексной карты (.CUE)

REM GENRE SoundtrackREM DATE 2012REM DISCID E108E110REM COMMENT "ExactAudioCopy v1.0b3"CATALOG 0602537231805PERFORMER "Various Artists"TITLE "Pitch Perfect"FILE "01 - The Treblemakers - Don't Stop The Music.flac" WAVE TRACK 01 AUDIO TITLE "Don't Stop The Music" PERFORMER "The Treblemakers" ISRC USUM71209190 INDEX 01 00:00:00FILE "02 - The Treblemakers - Let It Whip.flac" WAVE TRACK 02 AUDIO TITLE "Let It Whip" PERFORMER "The Treblemakers" ISRC USUM71209191 INDEX 01 00:00:00FILE "03 - Ester Dean & Skylar Astin - Since U Been Gone.flac" WAVE TRACK 03 AUDIO TITLE "Since U Been Gone" PERFORMER "Ester Dean & Skylar Astin" ISRC USUM71209194 INDEX 01 00:00:00FILE "04 - Anna Kendrick - Cups.flac" WAVE TRACK 04 AUDIO TITLE "Cups" PERFORMER "Anna Kendrick" ISRC USUM71209195 INDEX 01 00:00:00FILE "05 - The Barden Bellas, The Treblemakers & The BU Harmonics - Riff Off.flac" WAVE TRACK 05 AUDIO TITLE "Riff Off" PERFORMER "The Barden Bellas, The Treblemakers & The BU Harmonics" ISRC USUM71209199 INDEX 01 00:00:00FILE "06 - The Barden Bellas - Bellas Regionals.flac" WAVE TRACK 06 AUDIO TITLE "Bellas Regionals" PERFORMER "The Barden Bellas" ISRC USUM71209198 INDEX 01 00:00:00FILE "07 - The Treblemakers Feat. My Name Is Kay - Right Round.flac" WAVE TRACK 07 AUDIO TITLE "Right Round" PERFORMER "The Treblemakers Feat. My Name Is Kay" ISRC USUM71209193 INDEX 01 00:00:00FILE "08 - The Barden Bellas - Pool Mashup.flac" WAVE TRACK 08 AUDIO TITLE "Pool Mashup" PERFORMER "The Barden Bellas" ISRC USUM71209200 INDEX 01 00:00:00FILE "09 - The Barden Bellas - Party In The U.S.A..flac" WAVE TRACK 09 AUDIO TITLE "Party In The U.S.A." PERFORMER "The Barden Bellas" ISRC USUM71209192 INDEX 01 00:00:00FILE "10 - The Treblemakers - Trebles Finals.flac" WAVE TRACK 10 AUDIO TITLE "Trebles Finals" PERFORMER "The Treblemakers" ISRC USUM71209156 INDEX 01 00:00:00FILE "11 - The Barden Bellas - Bellas Finals.flac" WAVE TRACK 11 AUDIO TITLE "Bellas Finals" PERFORMER "The Barden Bellas" ISRC USUM71209197 INDEX 01 00:00:00FILE "12 - Christophe Beck & Mark Kilian - Toner (Instrumental Suite).flac" WAVE TRACK 12 AUDIO TITLE "Toner (Instrumental Suite)" PERFORMER "Christophe Beck & Mark Kilian" ISRC USUM71209196 INDEX 01 00:00:00FILE "13 - The Sockapellas - Fuck You.flac" WAVE TRACK 13 AUDIO TITLE "Fuck You" PERFORMER "The Sockapellas" ISRC USUM71214824 INDEX 01 00:00:00FILE "14 - The Footnotes - Blame It On The Boogie.flac" WAVE TRACK 14 AUDIO TITLE "Blame It On The Boogie" PERFORMER "The Footnotes" ISRC USUM71214825 INDEX 01 00:00:00FILE "15 - Hullabahoos - The Final Countdown.flac" WAVE TRACK 15 AUDIO TITLE "The Final Countdown" PERFORMER "Hullabahoos" ISRC USUM71214828 INDEX 01 00:00:00FILE "16 - High Highs - Open Season.flac" WAVE TRACK 16 AUDIO TITLE "Open Season" PERFORMER "High Highs" ISRC GB3X61200009 INDEX 01 00:00:00
[teatrix.ru].t10301.torrent 
Торрент: Зарегистрирован [ 2015-11-01 20:51 ] · EA601F562DB109BE8B67A793A0539495908C10E2

Скачать .torrent

Скачать

21 KB

Статус: проверено
Скачан: 1 раз
Размер: 246 MB
terms.php



Быстрый ответ

Имя:

      
Для отправки сообщений необходимо включить JavaScript
Показать сообщения:    

Текущее время: 03-Дек 22:46

Часовой пояс: UTC + 3


Вы можете начинать темы
Вы можете отвечать на сообщения
Вы не можете редактировать свои сообщения
Вы не можете удалять свои сообщения
Вы не можете голосовать в опросах
Вы не можете прикреплять файлы к сообщениям
Вы можете скачивать файлы