(Score) Ренессанс / Renaissance (Nicholas Dodd & VA) - 2006, FLAC (tracks+.cue), lossless


Статистика раздачи [Обновить пиров]
Размер:  276 MB   |    Зарегистрирован:  1 год 1 месяц   |    Скачан:  0 раз

Полного источника не было: Никогда

Личеров:  6  [  0 KB/s  ]   Подробная статистика пиров
 
   
 
 
 

[Цитировать]

Ренессанс / Renaissance
Жанр: Score
Композитор: Nicholas Dodd & VA
Год выпуска диска: 2006
Страна-производитель диска: France
Издатель (лейбл): Naïve Records
Номер по каталогу: NV808811
Аудиокодек: FLAC (*.flac)
Тип рипа: tracks+.cue
Битрейт аудио: lossless
Продолжительность: 00:51:46
Источник: собственный рип
Наличие сканов в содержимом раздачи: нет
Треклист:
01. Nicholas Dodd - Opening Titles (2:31)
02. Chris Clark - Ted (2:46)
03. Plaid - Paris 2054 (1:21)
04. Nicholas Dodd - Passion's kiss (1:49)
05. Nicholas Dodd - Chasend (4:58)
06. Nicholas Dodd - Farfella's world (3:03)
07. Nicholas Dodd - Introspection (0:48)
08. Nicholas Dodd - Fairground schemes (2:26)
09. Louis Warbeck - Nostalgia (2:33)
10. Nicholas Dodd - Muller's sacrifice (2:48)
11. Nicholas Dodd - We've found him (3:04)
12. Louis Warbeck - Melrose bar (2:32)
13. Nicholas Dodd - Karas uncovers the mystery of Klaus (2:28)
14. Louis Warbeck - Club 71 (3:36)
15. Nicholas Dodd - Karas and Bislane (2:26)
16. Nicholas Dodd - Memories forgotten (3:21)
17. LFO - Si on partait (4:09)
18. Louis Warbeck - Renaissance Ending (5:07)

Лог создания рипа

Exact Audio Copy V1.1 from 23. June 2015
Отчёт EAC об извлечении, выполненном 20. августа 2015, 23:10
Nicholas Dodd / Renaissance
Дисковод: MATSHITADVD-RAM UJ8C0 Adapter: 1 ID: 0
Режим чтения : ДостоверностьИспользование точного потока : ДаОтключение кэша аудио : ДаИспользование указателей C2 : Нет
Коррекция смещения при чтении : 103Способность читать области Lead-in и Lead-out : НетЗаполнение пропущенных сэмплов тишиной : ДаУдаление блоков с тишиной в начале и конце : НетПри вычислениях CRC использовались нулевые сэмплы : ДаИнтерфейс : Встроенный Win32-интерфейс для Win NT/2000Обработка зазоров : Добавлено к предыдущему треку
Выходной формат : Пользовательский кодировщикВыбранный битрейт : 128 kBit/sКачество : ВысокийДобавление ID3-тега : НетУтилита сжатия : C:\Users\Борис\Downloads\AFF540DC.Unpacker_v7353qx4kg3sa!App\flac-1.3.1-win.zip\flac-1.3.1-win\win64\flac.exeДополнительные параметры : -V -8 -T "Genre=%genre%" -T "Artist=%artist%" -T "Title=%title%" -T "Album=%albumtitle%" -T "Date=%year%" -T "Tracknumber=%tracknr%" -T "Comment=%comment%" %source%
TOC извлечённого CD
Трек | Старт | Длительность | Начальный сектор | Конечный сектор --------------------------------------------------------------------- 1 | 0:00.00 | 2:31.47 | 0 | 11371 2 | 2:31.47 | 2:46.16 | 11372 | 23837 3 | 5:17.63 | 1:21.08 | 23838 | 29920 4 | 6:38.71 | 1:49.21 | 29921 | 38116 5 | 8:28.17 | 4:58.66 | 38117 | 60532 6 | 13:27.08 | 3:03.60 | 60533 | 74317 7 | 16:30.68 | 0:48.45 | 74318 | 77962 8 | 17:19.38 | 2:26.43 | 77963 | 88955 9 | 19:46.06 | 2:33.33 | 88956 | 100463 10 | 22:19.39 | 2:48.39 | 100464 | 113102 11 | 25:08.03 | 3:04.36 | 113103 | 126938 12 | 28:12.39 | 2:32.11 | 126939 | 138349 13 | 30:44.50 | 2:28.27 | 138350 | 149476 14 | 33:13.02 | 3:36.21 | 149477 | 165697 15 | 36:49.23 | 2:26.29 | 165698 | 176676 16 | 39:15.52 | 3:21.25 | 176677 | 191776 17 | 42:37.02 | 4:09.30 | 191777 | 210481 18 | 46:46.32 | 5:07.05 | 210482 | 233511
Трек 1
Имя файла C:\Users\Борис\Downloads\Ренессанс\01 Opening Titles.wav
Длина предзазора 0:00:02.00
Пиковый уровень 100.0 % Скорость извлечения 1.3 X Качество трека 100.0 % CRC теста 4DBC067D CRC копии 4DBC067D Точное извлечение (достоверность 2) [01E568A3] (AR v1) Копирование... OK
Трек 2
Имя файла C:\Users\Борис\Downloads\Ренессанс\02 Ted (Chris Clark).wav
Пиковый уровень 63.0 % Скорость извлечения 1.4 X Качество трека 100.0 % CRC теста AF7D5EEE CRC копии AF7D5EEE Точное извлечение (достоверность 2) [C4BA2C4D] (AR v1) Копирование... OK
Трек 3
Имя файла C:\Users\Борис\Downloads\Ренессанс\03 Paris 2054.wav
Пиковый уровень 100.0 % Скорость извлечения 1.2 X Качество трека 100.0 % CRC теста 4AE52867 CRC копии 4AE52867 Точное извлечение (достоверность 2) [F51A19D5] (AR v1) Копирование... OK
Трек 4
Имя файла C:\Users\Борис\Downloads\Ренессанс\04 Passion's kiss.wav
Пиковый уровень 100.0 % Скорость извлечения 1.4 X Качество трека 100.0 % CRC теста 2539EBB1 CRC копии 2539EBB1 Точное извлечение (достоверность 2) [176E40F6] (AR v1) Копирование... OK
Трек 5
Имя файла C:\Users\Борис\Downloads\Ренессанс\05 Chasend (Plaid).wav
Пиковый уровень 90.2 % Скорость извлечения 1.9 X Качество трека 100.0 % CRC теста 13257E78 CRC копии 13257E78 Точное извлечение (достоверность 2) [64EC555F] (AR v1) Копирование... OK
Трек 6
Имя файла C:\Users\Борис\Downloads\Ренессанс\06 Farfella's world.wav
Пиковый уровень 93.1 % Скорость извлечения 1.8 X Качество трека 100.0 % CRC теста DA4A118C CRC копии DA4A118C Точное извлечение (достоверность 2) [6BA81475] (AR v1) Копирование... OK
Трек 7
Имя файла C:\Users\Борис\Downloads\Ренессанс\07 Introspection.wav
Пиковый уровень 49.2 % Скорость извлечения 1.3 X Качество трека 100.0 % CRC теста 5E88BB15 CRC копии 5E88BB15 Точное извлечение (достоверность 2) [00F98971] (AR v1) Копирование... OK
Трек 8
Имя файла C:\Users\Борис\Downloads\Ренессанс\08 Fairgrounds schemes.wav
Пиковый уровень 100.0 % Скорость извлечения 1.8 X Качество трека 100.0 % CRC теста 8EF1DBB0 CRC копии 8EF1DBB0 Точное извлечение (достоверность 2) [1142E090] (AR v1) Копирование... OK
Трек 9
Имя файла C:\Users\Борис\Downloads\Ренессанс\09 Nostalgia (Louis Warbeck).wav
Пиковый уровень 100.0 % Скорость извлечения 1.9 X Качество трека 100.0 % CRC теста B81CAC27 CRC копии B81CAC27 Точное извлечение (достоверность 2) [F9C1318C] (AR v1) Копирование... OK
Трек 10
Имя файла C:\Users\Борис\Downloads\Ренессанс\10 Muller's sacrifice.wav
Пиковый уровень 100.0 % Скорость извлечения 2.1 X Качество трека 100.0 % CRC теста 82847B9F CRC копии 82847B9F Точное извлечение (достоверность 2) [1031938A] (AR v1) Копирование... OK
Трек 11
Имя файла C:\Users\Борис\Downloads\Ренессанс\11 We've found him.wav
Пиковый уровень 100.0 % Скорость извлечения 2.2 X Качество трека 100.0 % CRC теста 0611A29C CRC копии 0611A29C Точное извлечение (достоверность 2) [53A6B26D] (AR v1) Копирование... OK
Трек 12
Имя файла C:\Users\Борис\Downloads\Ренессанс\12 Melrose bar (Louirs Warbeck).wav
Пиковый уровень 100.0 % Скорость извлечения 2.2 X Качество трека 100.0 % CRC теста 4C5824EF CRC копии 4C5824EF Точное извлечение (достоверность 2) [D75EC34E] (AR v1) Копирование... OK
Трек 13
Имя файла C:\Users\Борис\Downloads\Ренессанс\13 Karas uncovers the mistery of Klaus.wav
Пиковый уровень 100.0 % Скорость извлечения 1.8 X Качество трека 99.9 % CRC теста 8CB6D180 CRC копии 8CB6D180 Точное извлечение (достоверность 2) [18E3A479] (AR v1) Копирование... OK
Трек 14
Имя файла C:\Users\Борис\Downloads\Ренессанс\14 Club 71 (Louirs Warbeck).wav
Пиковый уровень 100.0 % Скорость извлечения 2.4 X Качество трека 100.0 % CRC теста 5C3161C9 CRC копии 5C3161C9 Точное извлечение (достоверность 2) [E3F9C2A1] (AR v1) Копирование... OK
Трек 15
Имя файла C:\Users\Борис\Downloads\Ренессанс\15 Karas and Bislane.wav
Пиковый уровень 100.0 % Скорость извлечения 2.0 X Качество трека 99.9 % CRC теста 6A989D0E CRC копии 6A989D0E Точное извлечение (достоверность 2) [FC624575] (AR v1) Копирование... OK
Трек 16
Имя файла C:\Users\Борис\Downloads\Ренессанс\16 Memories forgotten.wav
Пиковый уровень 100.0 % Скорость извлечения 2.5 X Качество трека 100.0 % CRC теста 558C1280 CRC копии 558C1280 Точное извлечение (достоверность 2) [5195A099] (AR v1) Копирование... OK
Трек 17
Имя файла C:\Users\Борис\Downloads\Ренессанс\17 Si on partait (LFO - Mark Bell).wav
Пиковый уровень 100.0 % Скорость извлечения 2.7 X Качество трека 100.0 % CRC теста 94EADC49 CRC копии 94EADC49 Точное извлечение (достоверность 2) [7B9234FE] (AR v1) Копирование... OK
Трек 18
Имя файла C:\Users\Борис\Downloads\Ренессанс\18 Renaissance Ending (Louirs Warbeck).wav
Пиковый уровень 100.0 % Скорость извлечения 2.6 X Качество трека 99.9 % CRC теста 4B1F8623 CRC копии 4B1F8623 Точное извлечение (достоверность 2) [277D404D] (AR v1) Копирование... OK
Все треки извлечены точно
Ошибок не произошло
Конец отчёта
---- CUETools DB Plugin V2.1.6
[CTDB TOCID: m7eeq4XdFOuNj_bn0KR9SCFXf_4-] foundSubmit result: m7eeq4XdFOuNj_bn0KR9SCFXf_4- has been confirmedTrack | CTDB Status 1 | (2/2) Accurately ripped 2 | (2/2) Accurately ripped 3 | (2/2) Accurately ripped 4 | (2/2) Accurately ripped 5 | (2/2) Accurately ripped 6 | (2/2) Accurately ripped 7 | (2/2) Accurately ripped 8 | (2/2) Accurately ripped 9 | (2/2) Accurately ripped 10 | (2/2) Accurately ripped 11 | (2/2) Accurately ripped 12 | (2/2) Accurately ripped 13 | (2/2) Accurately ripped 14 | (2/2) Accurately ripped 15 | (2/2) Accurately ripped 16 | (2/2) Accurately ripped 17 | (2/2) Accurately ripped 18 | (2/2) Accurately ripped

Содержание индексной карты (.CUE)

REM GENRE SoundtrackREM DATE 2006REM DISCID EC0C2912REM COMMENT "ExactAudioCopy v1.1"PERFORMER "Nicholas Dodd"TITLE "Renaissance"FILE "01 Opening Titles.flac" WAVE TRACK 01 AUDIO TITLE "Opening Titles" PERFORMER "Nicholas Dodd" INDEX 01 00:00:00FILE "02 Ted (Chris Clark).flac" WAVE TRACK 02 AUDIO TITLE "Ted (Chris Clark)" PERFORMER "Nicholas Dodd" INDEX 01 00:00:00FILE "03 Paris 2054.flac" WAVE TRACK 03 AUDIO TITLE "Paris 2054" PERFORMER "Nicholas Dodd" INDEX 01 00:00:00FILE "04 Passion's kiss.flac" WAVE TRACK 04 AUDIO TITLE "Passion's kiss" PERFORMER "Nicholas Dodd" INDEX 01 00:00:00FILE "05 Chasend (Plaid).flac" WAVE TRACK 05 AUDIO TITLE "Chasend (Plaid)" PERFORMER "Nicholas Dodd" INDEX 01 00:00:00FILE "06 Farfella's world.flac" WAVE TRACK 06 AUDIO TITLE "Farfella's world" PERFORMER "Nicholas Dodd" INDEX 01 00:00:00FILE "07 Introspection.flac" WAVE TRACK 07 AUDIO TITLE "Introspection" PERFORMER "Nicholas Dodd" INDEX 01 00:00:00FILE "08 Fairgrounds schemes.flac" WAVE TRACK 08 AUDIO TITLE "Fairgrounds schemes" PERFORMER "Nicholas Dodd" INDEX 01 00:00:00FILE "09 Nostalgia (Louis Warbeck).flac" WAVE TRACK 09 AUDIO TITLE "Nostalgia (Louis Warbeck)" PERFORMER "Nicholas Dodd" INDEX 01 00:00:00FILE "10 Muller's sacrifice.flac" WAVE TRACK 10 AUDIO TITLE "Muller's sacrifice" PERFORMER "Nicholas Dodd" INDEX 01 00:00:00FILE "11 We've found him.flac" WAVE TRACK 11 AUDIO TITLE "We've found him" PERFORMER "Nicholas Dodd" INDEX 01 00:00:00FILE "12 Melrose bar (Louirs Warbeck).flac" WAVE TRACK 12 AUDIO TITLE "Melrose bar (Louirs Warbeck)" PERFORMER "Nicholas Dodd" INDEX 01 00:00:00FILE "13 Karas uncovers the mistery of Klaus.flac" WAVE TRACK 13 AUDIO TITLE "Karas uncovers the mistery of Klaus" PERFORMER "Nicholas Dodd" INDEX 01 00:00:00FILE "14 Club 71 (Louirs Warbeck).flac" WAVE TRACK 14 AUDIO TITLE "Club 71 (Louirs Warbeck)" PERFORMER "Nicholas Dodd" INDEX 01 00:00:00FILE "15 Karas and Bislane.flac" WAVE TRACK 15 AUDIO TITLE "Karas and Bislane" PERFORMER "Nicholas Dodd" INDEX 01 00:00:00FILE "16 Memories forgotten.flac" WAVE TRACK 16 AUDIO TITLE "Memories forgotten" PERFORMER "Nicholas Dodd" INDEX 01 00:00:00FILE "17 Si on partait (LFO - Mark Bell).flac" WAVE TRACK 17 AUDIO TITLE "Si on partait (LFO - Mark Bell)" PERFORMER "Nicholas Dodd" INDEX 01 00:00:00FILE "18 Renaissance Ending (Louirs Warbeck).flac" WAVE TRACK 18 AUDIO TITLE "Renaissance Ending (Louirs Warbeck)" PERFORMER "Nicholas Dodd" INDEX 01 00:00:00
Доп. информация: Если выбросить все лишние треки из альбома, оставив только Nicholas Dodd - все треки и Paid - Paris 2054, незабываемые впечатления гарантированы!
[teatrix.ru].t10303.torrent 
Торрент: Зарегистрирован [ 2015-11-01 20:51 ] · 771532D525F74CEB6DE562C74B6E5BB875E2134B

Скачать .torrent

Скачать

13 KB

Статус: проверено
Скачан: 0 раз
Размер: 276 MB
terms.php



Быстрый ответ

Имя:

      
Для отправки сообщений необходимо включить JavaScript
Показать сообщения:    

Текущее время: 08-Дек 07:08

Часовой пояс: UTC + 3


Вы можете начинать темы
Вы можете отвечать на сообщения
Вы не можете редактировать свои сообщения
Вы не можете удалять свои сообщения
Вы не можете голосовать в опросах
Вы не можете прикреплять файлы к сообщениям
Вы можете скачивать файлы