(Score) Много шума из ничего / Much Ado About Nothing (by Patrick Doyle) - 1993, FLAC (tracks+.cue), lossless


Статистика раздачи [Обновить пиров]
Размер:  280 MB   |    Зарегистрирован:  1 год 1 месяц   |    Скачан:  0 раз

Полного источника не было: Никогда

Личеров:  6  [  0 KB/s  ]   Подробная статистика пиров
 
   
 
 
 

[Цитировать]

Много шума из ничего / Much Ado About Nothing-Жанр: Score
Композитор: Patrick Doyle
Год выпуска диска: 1993
Страна-производитель диска: Sony DADC, Austria
Издатель (лейбл): Epic Records
Номер по каталогу: EPC 473989 2-Аудиокодек: FLAC (*.flac)
Тип рипа: tracks+.cue
Битрейт аудио: lossless
Продолжительность: 00:59:03
Источник: what.cd / MeekoRaccoon
Наличие сканов в содержимом раздачи: да, 300 dpi-

Треклист

1. The Picnic (02:57)
2. Overture (04:20)
3. The Sweetest Lady (02:05)
4. The Conspirators (02:39)
5. The Masked Ball (01:55)
6. The Prince Woos Hero (01:18)
7. A Star Danced (02:43)
8. Rich She Shall Be (01:42)
9. Sigh No More Ladies (01:58)
10. The Gulling Of Benedick (03:12)
11. It Must Be Requited (01:58)
12. The Gulling Of Beatrice (01:14)
13. Contempt, Farewell (01:32)
14. The Lady Is Disloyal (02:14)
15. Hero's Wedding (00:47)
16. Take Her Back Again (03:10)
17. Die To Live (04:43)
18. You Have Killed A Sweet Lady (03:03)
19. Choose Your Revenge (01:48)
20. Pardon, Goddess Of The Night (04:32)
21. Did I Not Tell You (01:40)
22. Hero Revealed (01:26)
23. Benedick, The Married Man (02:06)
24. Strike Up, Pipers (02:41)

Лог создания рипа

Exact Audio Copy V1.0 beta 3 from 29. August 2011
EAC extraction logfile from 4. May 2014, 21:08
Patrick Doyle / Much Ado About Nothing
Used drive : HL-DT-STDVD-RAM GH40N Adapter: 2 ID: 0
Read mode : SecureUtilize accurate stream : YesDefeat audio cache : YesMake use of C2 pointers : No
Read offset correction : 667Overread into Lead-In and Lead-Out : NoFill up missing offset samples with silence : YesDelete leading and trailing silent blocks : NoNull samples used in CRC calculations : YesUsed interface : Native Win32 interface for Win NT & 2000Gap handling : Appended to previous track
Used output format : User Defined EncoderSelected bitrate : 1024 kBit/sQuality : HighAdd ID3 tag : NoCommand line compressor : C:\Program Files (x86)\Exact Audio Copy\FLAC\FLAC.EXEAdditional command line options : -8 -V -T "ARTIST=%artist%" -T "TITLE=%title%" -T "ALBUM=%albumtitle%" -T "DATE=%year%"-T "TRACKNUMBER=%tracknr%" -T "GENRE=%genre%" -T "PERFORMER=%albuminterpret%" -T "COMPOSER=%composer%"%haslyrics%--tag-from-file=LYRICS="%lyricsfile%"%haslyrics% -T "ALBUMARTIST=%albumartist%" -T "DISCNUMBER=%cdnumber%"-T "TOTALDISCS=%totalcds%" -T "TOTALTRACKS=%numtracks%" -T "COMMENT=%comment%" %source% -o %dest%
TOC of the extracted CD
Track | Start | Length | Start sector | End sector --------------------------------------------------------- 1 | 0:00.00 | 2:57.27 | 0 | 13301 2 | 2:57.27 | 4:21.48 | 13302 | 32924 3 | 7:19.00 | 2:07.10 | 32925 | 42459 4 | 9:26.10 | 2:42.47 | 42460 | 54656 5 | 12:08.57 | 1:57.33 | 54657 | 63464 6 | 14:06.15 | 1:20.00 | 63465 | 69464 7 | 15:26.15 | 2:46.47 | 69465 | 81961 8 | 18:12.62 | 1:44.23 | 81962 | 89784 9 | 19:57.10 | 1:59.27 | 89785 | 98736 10 | 21:56.37 | 3:12.48 | 98737 | 113184 11 | 25:09.10 | 2:00.57 | 113185 | 122241 12 | 27:09.67 | 1:41.40 | 122242 | 129856 13 | 28:51.32 | 1:37.58 | 129857 | 137189 14 | 30:29.15 | 2:17.52 | 137190 | 147516 15 | 32:46.67 | 0:47.63 | 147517 | 151104 16 | 33:34.55 | 3:10.62 | 151105 | 165416 17 | 36:45.42 | 4:44.65 | 165417 | 186781 18 | 41:30.32 | 3:03.45 | 186782 | 200551 19 | 44:34.02 | 1:50.55 | 200552 | 208856 20 | 46:24.57 | 4:34.10 | 208857 | 229416 21 | 50:58.67 | 1:42.55 | 229417 | 237121 22 | 52:41.47 | 1:27.43 | 237122 | 243689 23 | 54:09.15 | 2:09.07 | 243690 | 253371 24 | 56:18.22 | 2:41.65 | 253372 | 265511
Track 1
Filename C:\EACRips\FLAC Files\Patrick Doyle - Much Ado About Nothing (1993) [FLAC]\01 - The Picnic.wav
Pre-gap length 0:00:02.00
Peak level 68.9 % Extraction speed 3.5 X Track quality 100.0 % Test CRC C2A706C4 Copy CRC C2A706C4 Accurately ripped (confidence 3) [BF3F796B] (AR v2) Copy OK
Track 2
Filename C:\EACRips\FLAC Files\Patrick Doyle - Much Ado About Nothing (1993) [FLAC]\02 - Overture.wav
Pre-gap length 0:00:00.02
Peak level 95.6 % Extraction speed 4.0 X Track quality 100.0 % Test CRC D5CEEC42 Copy CRC D5CEEC42 Accurately ripped (confidence 3) [8553217B] (AR v2) Copy OK
Track 3
Filename C:\EACRips\FLAC Files\Patrick Doyle - Much Ado About Nothing (1993) [FLAC]\03 - The Sweetest Lady.wav
Pre-gap length 0:00:01.23
Peak level 51.8 % Extraction speed 2.6 X Track quality 99.9 % Test CRC 86A99135 Copy CRC 86A99135 Accurately ripped (confidence 3) [8E5D4892] (AR v2) Copy OK
Track 4
Filename C:\EACRips\FLAC Files\Patrick Doyle - Much Ado About Nothing (1993) [FLAC]\04 - The Consipirators.wav
Pre-gap length 0:00:01.08
Peak level 78.6 % Extraction speed 3.9 X Track quality 100.0 % Test CRC B780DBE2 Copy CRC B780DBE2 Accurately ripped (confidence 3) [44526328] (AR v2) Copy OK
Track 5
Filename C:\EACRips\FLAC Files\Patrick Doyle - Much Ado About Nothing (1993) [FLAC]\05 - The Masked Ball.wav
Pre-gap length 0:00:03.20
Peak level 91.6 % Extraction speed 3.7 X Track quality 100.0 % Test CRC A464EEB9 Copy CRC A464EEB9 Accurately ripped (confidence 3) [A614B042] (AR v2) Copy OK
Track 6
Filename C:\EACRips\FLAC Files\Patrick Doyle - Much Ado About Nothing (1993) [FLAC]\06 - The Prince Woos Hero.wav
Pre-gap length 0:00:01.38
Peak level 53.1 % Extraction speed 2.3 X Track quality 99.8 % Test CRC E521F4FA Copy CRC E521F4FA Accurately ripped (confidence 3) [EBF009D4] (AR v2) Copy OK
Track 7
Filename C:\EACRips\FLAC Files\Patrick Doyle - Much Ado About Nothing (1993) [FLAC]\07 - A Star Danced.wav
Pre-gap length 0:00:00.25
Peak level 68.5 % Extraction speed 3.3 X Track quality 99.9 % Test CRC 6612AF0E Copy CRC 6612AF0E Accurately ripped (confidence 3) [7B68A046] (AR v2) Copy OK
Track 8
Filename C:\EACRips\FLAC Files\Patrick Doyle - Much Ado About Nothing (1993) [FLAC]\08 - Rich She Shall Be.wav
Pre-gap length 0:00:02.42
Peak level 33.9 % Extraction speed 4.1 X Track quality 100.0 % Test CRC A8EAA761 Copy CRC A8EAA761 Accurately ripped (confidence 3) [7B9A73B9] (AR v2) Copy OK
Track 9
Filename C:\EACRips\FLAC Files\Patrick Doyle - Much Ado About Nothing (1993) [FLAC]\09 - Sign No More Ladies.wav
Pre-gap length 0:00:01.68
Peak level 51.1 % Extraction speed 4.4 X Track quality 100.0 % Test CRC BC1E4CBD Copy CRC BC1E4CBD Accurately ripped (confidence 3) [7EA210B2] (AR v2) Copy OK
Track 10
Filename C:\EACRips\FLAC Files\Patrick Doyle - Much Ado About Nothing (1993) [FLAC]\10 - The Gulling Of Benedick.wav
Pre-gap length 0:00:00.45
Peak level 85.0 % Extraction speed 5.0 X Track quality 100.0 % Test CRC 1242AB69 Copy CRC 1242AB69 Accurately ripped (confidence 3) [BE56FF6B] (AR v2) Copy OK
Track 11
Filename C:\EACRips\FLAC Files\Patrick Doyle - Much Ado About Nothing (1993) [FLAC]\11 - It Must Be Requited.wav
Pre-gap length 0:00:00.03
Peak level 72.2 % Extraction speed 4.2 X Track quality 100.0 % Test CRC B4B215F7 Copy CRC B4B215F7 Accurately ripped (confidence 3) [E04F92A3] (AR v2) Copy OK
Track 12
Filename C:\EACRips\FLAC Files\Patrick Doyle - Much Ado About Nothing (1993) [FLAC]\12 - The Gulling Of Beatrice.wav
Pre-gap length 0:00:01.00
Peak level 58.6 % Extraction speed 3.5 X Track quality 100.0 % Test CRC D21DC67D Copy CRC D21DC67D Accurately ripped (confidence 3) [8F95D1BA] (AR v2) Copy OK
Track 13
Filename C:\EACRips\FLAC Files\Patrick Doyle - Much Ado About Nothing (1993) [FLAC]\13 - Contempt Farewell.wav
Pre-gap length 0:00:00.15
Peak level 96.8 % Extraction speed 3.5 X Track quality 100.0 % Test CRC 7CF89F30 Copy CRC 7CF89F30 Accurately ripped (confidence 3) [DC46A392] (AR v2) Copy OK
Track 14
Filename C:\EACRips\FLAC Files\Patrick Doyle - Much Ado About Nothing (1993) [FLAC]\14 - The Lady Is Disloyal.wav
Pre-gap length 0:00:04.73
Peak level 98.1 % Extraction speed 3.8 X Track quality 100.0 % Test CRC 4F092E12 Copy CRC 4F092E12 Accurately ripped (confidence 3) [8B615D54] (AR v2) Copy OK
Track 15
Filename C:\EACRips\FLAC Files\Patrick Doyle - Much Ado About Nothing (1993) [FLAC]\15 - Hero's Wedding.wav
Pre-gap length 0:00:02.60
Peak level 99.7 % Extraction speed 2.7 X Track quality 100.0 % Test CRC B5D3BFD3 Copy CRC B5D3BFD3 Accurately ripped (confidence 3) [AA2C9D8B] (AR v2) Copy OK
Track 16
Filename C:\EACRips\FLAC Files\Patrick Doyle - Much Ado About Nothing (1993) [FLAC]\16 - Take Her Back Again.wav
Pre-gap length 0:00:00.13
Peak level 99.6 % Extraction speed 4.2 X Track quality 100.0 % Test CRC 6C524959 Copy CRC 6C524959 Accurately ripped (confidence 3) [46779BC4] (AR v2) Copy OK
Track 17
Filename C:\EACRips\FLAC Files\Patrick Doyle - Much Ado About Nothing (1993) [FLAC]\17 - Die To Live.wav
Pre-gap length 0:00:00.02
Peak level 89.6 % Extraction speed 4.1 X Track quality 99.9 % Test CRC B435B03D Copy CRC B435B03D Accurately ripped (confidence 3) [C7D80D0F] (AR v2) Copy OK
Track 18
Filename C:\EACRips\FLAC Files\Patrick Doyle - Much Ado About Nothing (1993) [FLAC]\18 - You Have Killed A Sweet Lady.wav
Pre-gap length 0:00:00.70
Peak level 92.7 % Extraction speed 3.6 X Track quality 99.9 % Test CRC 87F33AF9 Copy CRC 87F33AF9 Accurately ripped (confidence 3) [7C95446F] (AR v2) Copy OK
Track 19
Filename C:\EACRips\FLAC Files\Patrick Doyle - Much Ado About Nothing (1993) [FLAC]\19 - Choose Your Revenge.wav
Pre-gap length 0:00:00.02
Peak level 53.3 % Extraction speed 3.8 X Track quality 100.0 % Test CRC 6B4FCDF3 Copy CRC 6B4FCDF3 Accurately ripped (confidence 3) [4DDA28F4] (AR v2) Copy OK
Track 20
Filename C:\EACRips\FLAC Files\Patrick Doyle - Much Ado About Nothing (1993) [FLAC]\20 - Pardon Goddess Of The Night.wav
Pre-gap length 0:00:01.45
Peak level 71.1 % Extraction speed 4.7 X Track quality 100.0 % Test CRC 7663C47C Copy CRC 7663C47C Accurately ripped (confidence 2) [41167077] (AR v2) Copy OK
Track 21
Filename C:\EACRips\FLAC Files\Patrick Doyle - Much Ado About Nothing (1993) [FLAC]\21 - Did I Not Tell You.wav
Pre-gap length 0:00:01.00
Peak level 82.7 % Extraction speed 4.2 X Track quality 100.0 % Test CRC 5C57DD21 Copy CRC 5C57DD21 Accurately ripped (confidence 3) [DFB9D338] (AR v2) Copy OK
Track 22
Filename C:\EACRips\FLAC Files\Patrick Doyle - Much Ado About Nothing (1993) [FLAC]\22 - Hero Revealed.wav
Pre-gap length 0:00:01.65
Peak level 81.9 % Extraction speed 3.3 X Track quality 100.0 % Test CRC F8EE9C58 Copy CRC F8EE9C58 Accurately ripped (confidence 3) [64550890] (AR v2) Copy OK
Track 23
Filename C:\EACRips\FLAC Files\Patrick Doyle - Much Ado About Nothing (1993) [FLAC]\23 - Benedick The Married Man.wav
Pre-gap length 0:00:01.58
Peak level 68.3 % Extraction speed 4.2 X Track quality 100.0 % Test CRC 3B004BB2 Copy CRC 3B004BB2 Accurately ripped (confidence 3) [AD572169] (AR v2) Copy OK
Track 24
Filename C:\EACRips\FLAC Files\Patrick Doyle - Much Ado About Nothing (1993) [FLAC]\24 - Strike Up The Pipers.wav
Pre-gap length 0:00:01.55
Peak level 90.3 % Extraction speed 4.6 X Track quality 100.0 % Test CRC F139A31A Copy CRC F139A31A Accurately ripped (confidence 3) [8820E097] (AR v2) Copy OK
All tracks accurately ripped
No errors occurred
End of status report
==== Log checksum 29EF949AA4CA95DDFC7246D06A003AA9452266569C6A09F42FAFE46CE21079A7 ====

Содержание индексной карты (.CUE)

REM GENRE SoundtrackREM DATE 1993REM DISCID 560DD418REM COMMENT "ExactAudioCopy v1.0b3"FILE "01 - The Picnic.wav" WAVE TRACK 01 AUDIO INDEX 01 00:00:00 TRACK 02 AUDIO INDEX 00 02:57:25FILE "02 - Overture.wav" WAVE INDEX 01 00:00:00 TRACK 03 AUDIO INDEX 00 04:20:25FILE "03 - The Sweetest Lady.wav" WAVE INDEX 01 00:00:00 TRACK 04 AUDIO INDEX 00 02:06:02FILE "04 - The Consipirators.wav" WAVE INDEX 01 00:00:00 TRACK 05 AUDIO INDEX 00 02:39:27FILE "05 - The Masked Ball.wav" WAVE INDEX 01 00:00:00 TRACK 06 AUDIO INDEX 00 01:55:70FILE "06 - The Prince Woos Hero.wav" WAVE INDEX 01 00:00:00 TRACK 07 AUDIO INDEX 00 01:19:50FILE "07 - A Star Danced.wav" WAVE INDEX 01 00:00:00 TRACK 08 AUDIO INDEX 00 02:44:05FILE "08 - Rich She Shall Be.wav" WAVE INDEX 01 00:00:00 TRACK 09 AUDIO INDEX 00 01:42:30FILE "09 - Sign No More Ladies.wav" WAVE INDEX 01 00:00:00 TRACK 10 AUDIO INDEX 00 01:58:57FILE "10 - The Gulling Of Benedick.wav" WAVE INDEX 01 00:00:00 TRACK 11 AUDIO INDEX 00 03:12:45FILE "11 - It Must Be Requited.wav" WAVE INDEX 01 00:00:00 TRACK 12 AUDIO INDEX 00 01:59:57FILE "12 - The Gulling Of Beatrice.wav" WAVE INDEX 01 00:00:00 TRACK 13 AUDIO INDEX 00 01:41:25FILE "13 - Contempt Farewell.wav" WAVE INDEX 01 00:00:00 TRACK 14 AUDIO INDEX 00 01:32:60FILE "14 - The Lady Is Disloyal.wav" WAVE INDEX 01 00:00:00 TRACK 15 AUDIO INDEX 00 02:14:67FILE "15 - Hero's Wedding.wav" WAVE INDEX 01 00:00:00 TRACK 16 AUDIO INDEX 00 00:47:50FILE "16 - Take Her Back Again.wav" WAVE INDEX 01 00:00:00 TRACK 17 AUDIO INDEX 00 03:10:60FILE "17 - Die To Live.wav" WAVE INDEX 01 00:00:00 TRACK 18 AUDIO INDEX 00 04:43:70FILE "18 - You Have Killed A Sweet Lady.wav" WAVE INDEX 01 00:00:00 TRACK 19 AUDIO INDEX 00 03:03:43FILE "19 - Choose Your Revenge.wav" WAVE INDEX 01 00:00:00 TRACK 20 AUDIO INDEX 00 01:49:10FILE "20 - Pardon Goddess Of The Night.wav" WAVE INDEX 01 00:00:00 TRACK 21 AUDIO INDEX 00 04:33:10FILE "21 - Did I Not Tell You.wav" WAVE INDEX 01 00:00:00 TRACK 22 AUDIO INDEX 00 01:40:65FILE "22 - Hero Revealed.wav" WAVE INDEX 01 00:00:00 TRACK 23 AUDIO INDEX 00 01:25:60FILE "23 - Benedick The Married Man.wav" WAVE INDEX 01 00:00:00 TRACK 24 AUDIO INDEX 00 02:07:27FILE "24 - Strike Up The Pipers.wav" WAVE INDEX 01 00:00:00
[teatrix.ru].t10304.torrent 
Торрент: Зарегистрирован [ 2015-11-01 20:51 ] · 4D68DB8DEB64A2116C2E72CFDA45642B1A4BB4A3

Скачать .torrent

Скачать

13 KB

Статус: проверено
Скачан: 0 раз
Размер: 280 MB
terms.php



Быстрый ответ

Имя:

      
Для отправки сообщений необходимо включить JavaScript
Показать сообщения:    

Текущее время: 05-Дек 17:33

Часовой пояс: UTC + 3


Вы можете начинать темы
Вы можете отвечать на сообщения
Вы не можете редактировать свои сообщения
Вы не можете удалять свои сообщения
Вы не можете голосовать в опросах
Вы не можете прикреплять файлы к сообщениям
Вы можете скачивать файлы