(Score) Черный динамит / Black Dynamite (by Adrian Younge) - 2009, FLAC (tracks+.cue), lossless


Статистика раздачи [Обновить пиров]
Размер:  220 MB   |    Зарегистрирован:  1 год 1 месяц   |    Скачан:  2 раза

Полного источника не было: 2 месяца 19 дней

Личеров:  6  [  0 KB/s  ]   Подробная статистика пиров
 
   
 
 
 

[Цитировать]

Черный динамит / Black Dynamite-Жанр: Score
Композитор: Adrian Younge
Год выпуска диска: 2009
Страна-производитель диска: USA
Издатель (лейбл): Wax Poetics Records
Номер по каталогу: WPR007-Аудиокодек: FLAC (*.flac)
Тип рипа: tracks+.cue
Битрейт аудио: lossless
Продолжительность: 00:35:29
Источник: what.cd / Bezvezenator
Наличие сканов в содержимом раздачи: нет

Треклист

1. Black Dynamite Theme (03:08)
2. Cleaning Up The Streets (01:54)
3. Man With The Heat (Superbad) (04:20)
4. Shine (02:43)
5. Jimmy's Dead (02:49)
6. Shot Me In The Heart (02:30)
7. Black They Back (00:44)
8. Gloria (Zodiac Lovers) (04:08)
9. Anaconda Malt Liquor (00:20)
10. Jimmy's Apartment (01:05)
11. Jimmy's Dead (Interlude) (01:20)
12. Chicago Wind (02:57)
13. Rafelli Chase (02:30)
14. Jimmy's Dead (Instrumental) (02:50)
15. Dynomite (Suckapunch Re-Edit) (02:11)

Лог создания рипа

Exact Audio Copy V1.0 beta 1 from 15. November 2010
EAC extraction logfile from 16. January 2011, 15:06
Adrian Younge / Black Dynamite
Used drive : Optiarc DVD RW AD-7173A Adapter: 3 ID: 0
Read mode : SecureUtilize accurate stream : YesDefeat audio cache : YesMake use of C2 pointers : No
Read offset correction : 48Overread into Lead-In and Lead-Out : NoFill up missing offset samples with silence : YesDelete leading and trailing silent blocks : NoNull samples used in CRC calculations : YesUsed interface : Native Win32 interface for Win NT & 2000Gap handling : Appended to previous track
Used output format : User Defined EncoderSelected bitrate : 1024 kBit/sQuality : HighAdd ID3 tag : NoCommand line compressor : C:\Program Files\FLAC\flac.exeAdditional command line options : -8 -V -T "ARTIST=%a" -T "TITLE=%t" -T "ALBUM=%g" -T "DATE=%y" -T "TRACKNUMBER=%n" -T "GENRE=%m" -T "COMMENT=EAC FLAC -8" %s
TOC of the extracted CD
Track | Start | Length | Start sector | End sector --------------------------------------------------------- 1 | 0:00.00 | 3:08.34 | 0 | 14133 2 | 3:08.34 | 1:54.25 | 14134 | 22708 3 | 5:02.59 | 4:19.40 | 22709 | 42173 4 | 9:22.24 | 2:42.71 | 42174 | 54394 5 | 12:05.20 | 2:49.28 | 54395 | 67097 6 | 14:54.48 | 2:30.35 | 67098 | 78382 7 | 17:25.08 | 0:44.19 | 78383 | 81701 8 | 18:09.27 | 4:07.62 | 81702 | 100288 9 | 22:17.14 | 0:19.46 | 100289 | 101759 10 | 22:36.60 | 1:04.60 | 101760 | 106619 11 | 23:41.45 | 1:19.53 | 106620 | 112597 12 | 25:01.23 | 2:57.25 | 112598 | 125897 13 | 27:58.48 | 2:29.40 | 125898 | 137112 14 | 30:28.13 | 2:50.33 | 137113 | 149895 15 | 33:18.46 | 2:10.68 | 149896 | 159713
Track 1
Filename D:\Media Temp\Music\01 - Black Dynamite Theme.wav
Pre-gap length 0:00:02.00
Peak level 98.3 % Extraction speed 3.3 X Track quality 99.9 % Test CRC 0C3A0E95 Copy CRC 0C3A0E95 Accurately ripped (confidence 3) [ECC3B12E] Copy OK
Track 2
Filename D:\Media Temp\Music\02 - Cleaning Up The Streets.wav
Peak level 100.0 % Extraction speed 3.9 X Track quality 100.0 % Test CRC F46308CA Copy CRC F46308CA Accurately ripped (confidence 3) [18EFCDA3] Copy OK
Track 3
Filename D:\Media Temp\Music\03 - Man With The Heat (Superbad).wav
Peak level 97.9 % Extraction speed 5.0 X Track quality 100.0 % Test CRC FF06F8FD Copy CRC FF06F8FD Accurately ripped (confidence 3) [86FA1052] Copy OK
Track 4
Filename D:\Media Temp\Music\04 - Shine.wav
Peak level 98.2 % Extraction speed 5.0 X Track quality 100.0 % Test CRC 68555AC2 Copy CRC 68555AC2 Accurately ripped (confidence 3) [62F52381] Copy OK
Track 5
Filename D:\Media Temp\Music\05 - Jimmy's Dead.wav
Peak level 98.8 % Extraction speed 4.1 X Track quality 99.9 % Test CRC F30884DD Copy CRC F30884DD Accurately ripped (confidence 3) [395DE657] Copy OK
Track 6
Filename D:\Media Temp\Music\06 - Shot Me In The Heart.wav
Peak level 98.3 % Extraction speed 5.3 X Track quality 100.0 % Test CRC C4274A34 Copy CRC C4274A34 Accurately ripped (confidence 3) [39BA18AB] Copy OK
Track 7
Filename D:\Media Temp\Music\07 - Black They Back.wav
Peak level 97.8 % Extraction speed 3.5 X Track quality 100.0 % Test CRC 8D0CB121 Copy CRC 8D0CB121 Accurately ripped (confidence 3) [21869D6F] Copy OK
Track 8
Filename D:\Media Temp\Music\08 - Gloria (Zodiac Lovers).wav
Peak level 98.4 % Extraction speed 6.2 X Track quality 100.0 % Test CRC 4509E9DC Copy CRC 4509E9DC Accurately ripped (confidence 3) [45DD6530] Copy OK
Track 9
Filename D:\Media Temp\Music\09 - Anaconda Malt Liquor.wav
Peak level 98.1 % Extraction speed 1.1 X Track quality 99.4 % Test CRC 20456BA0 Copy CRC 20456BA0 Accurately ripped (confidence 3) [7BDF0809] Copy OK
Track 10
Filename D:\Media Temp\Music\10 - Jimmy's Apartment.wav
Peak level 99.7 % Extraction speed 4.6 X Track quality 100.0 % Test CRC BC9FE471 Copy CRC BC9FE471 Accurately ripped (confidence 3) [0B2F27B7] Copy OK
Track 11
Filename D:\Media Temp\Music\11 - Jimmy's Dead (Interlude).wav
Peak level 99.0 % Extraction speed 3.3 X Track quality 99.8 % Test CRC 692FC1D2 Copy CRC 692FC1D2 Accurately ripped (confidence 3) [E5FAED7C] Copy OK
Track 12
Filename D:\Media Temp\Music\12 - Chicago Wind.wav
Peak level 98.2 % Extraction speed 4.9 X Track quality 99.9 % Test CRC DFD30F74 Copy CRC DFD30F74 Accurately ripped (confidence 3) [5D860983] Copy OK
Track 13
Filename D:\Media Temp\Music\13 - Rafelli Chase.wav
Peak level 98.2 % Extraction speed 6.2 X Track quality 100.0 % Test CRC 9982F3BE Copy CRC 9982F3BE Accurately ripped (confidence 3) [321B78CD] Copy OK
Track 14
Filename D:\Media Temp\Music\14 - Jimmy's Dead (Instrumental).wav
Peak level 99.1 % Extraction speed 5.2 X Track quality 99.9 % Test CRC F6D065EF Copy CRC F6D065EF Accurately ripped (confidence 3) [04AC7686] Copy OK
Track 15
Filename D:\Media Temp\Music\15 - Dynomite (Suckapunch Re-edit).wav
Peak level 97.8 % Extraction speed 6.5 X Track quality 100.0 % Test CRC 8F2E0D5E Copy CRC 8F2E0D5E Accurately ripped (confidence 3) [0442C049] Copy OK
All tracks accurately ripped
No errors occurred
End of status report

Содержание индексной карты (.CUE)

REM GENRE SoundtrackREM DATE 2009REM DISCID B108510FREM COMMENT "ExactAudioCopy v1.0b1"PERFORMER "Adrian Younge"TITLE "Black Dynamite"FILE "01 - Black Dynamite Theme.wav" WAVE TRACK 01 AUDIO TITLE "Black Dynamite Theme" PERFORMER "Adrian Younge" INDEX 01 00:00:00FILE "02 - Cleaning Up The Streets.wav" WAVE TRACK 02 AUDIO TITLE "Cleaning Up The Streets" PERFORMER "Adrian Younge" INDEX 01 00:00:00FILE "03 - Man With The Heat (Superbad).wav" WAVE TRACK 03 AUDIO TITLE "Man With The Heat (Superbad)" PERFORMER "Adrian Younge" INDEX 01 00:00:00FILE "04 - Shine.wav" WAVE TRACK 04 AUDIO TITLE "Shine" PERFORMER "Adrian Younge" INDEX 01 00:00:00FILE "05 - Jimmy's Dead.wav" WAVE TRACK 05 AUDIO TITLE "Jimmy's Dead" PERFORMER "Adrian Younge" INDEX 01 00:00:00FILE "06 - Shot Me In The Heart.wav" WAVE TRACK 06 AUDIO TITLE "Shot Me In The Heart" PERFORMER "Adrian Younge" INDEX 01 00:00:00FILE "07 - Black They Back.wav" WAVE TRACK 07 AUDIO TITLE "Black They Back" PERFORMER "Adrian Younge" INDEX 01 00:00:00FILE "08 - Gloria (Zodiac Lovers).wav" WAVE TRACK 08 AUDIO TITLE "Gloria (Zodiac Lovers)" PERFORMER "Adrian Younge" INDEX 01 00:00:00FILE "09 - Anaconda Malt Liquor.wav" WAVE TRACK 09 AUDIO TITLE "Anaconda Malt Liquor" PERFORMER "Adrian Younge" INDEX 01 00:00:00FILE "10 - Jimmy's Apartment.wav" WAVE TRACK 10 AUDIO TITLE "Jimmy's Apartment" PERFORMER "Adrian Younge" INDEX 01 00:00:00FILE "11 - Jimmy's Dead (Interlude).wav" WAVE TRACK 11 AUDIO TITLE "Jimmy's Dead (Interlude)" PERFORMER "Adrian Younge" INDEX 01 00:00:00FILE "12 - Chicago Wind.wav" WAVE TRACK 12 AUDIO TITLE "Chicago Wind" PERFORMER "Adrian Younge" INDEX 01 00:00:00FILE "13 - Rafelli Chase.wav" WAVE TRACK 13 AUDIO TITLE "Rafelli Chase" PERFORMER "Adrian Younge" INDEX 01 00:00:00FILE "14 - Jimmy's Dead (Instrumental).wav" WAVE TRACK 14 AUDIO TITLE "Jimmy's Dead (Instrumental)" PERFORMER "Adrian Younge" INDEX 01 00:00:00FILE "15 - Dynomite (Suckapunch Re-edit).wav" WAVE TRACK 15 AUDIO TITLE "Dynomite (Suckapunch Re-edit)" PERFORMER "Adrian Younge" INDEX 01 00:00:00
[teatrix.ru].t10305.torrent 
Торрент: Зарегистрирован [ 2015-11-01 20:51 ] · B475BEDABA4C5A6431FFAE416D6EEDB6E5D394F0

Скачать .torrent

Скачать

19 KB

Статус: проверено
Скачан: 2 раз
Размер: 220 MB
terms.php



Быстрый ответ

Имя:

      
Для отправки сообщений необходимо включить JavaScript
Показать сообщения:    

Текущее время: 09-Дек 18:25

Часовой пояс: UTC + 3


Вы можете начинать темы
Вы можете отвечать на сообщения
Вы не можете редактировать свои сообщения
Вы не можете удалять свои сообщения
Вы не можете голосовать в опросах
Вы не можете прикреплять файлы к сообщениям
Вы можете скачивать файлы