(Score) Z - значит Захария / Z For Zachariah (Music by Heather McIntosh) - 2015, FLAC (tracks), lossless


Статистика раздачи [Обновить пиров]
Размер:  224 MB   |    Зарегистрирован:  1 год 1 месяц   |    Скачан:  0 раз
Сидов:  1  [  0 KB/s  ]   Личеров:  8  [  0 KB/s  ]   Подробная статистика пиров
 
   
 
 
 

[Цитировать]

Z - значит Захария / Z For Zachariah
Название альбома: Z For Zachariah (Original Motion Picture Soundtrack)
Жанр: Score
Композитор: Heather McIntosh
Год выпуска диска: 2015
Год выпуска фильма: 2015
Издатель (лейбл): Varese Sarabande
Аудиокодек: FLAC (*.flac)
Тип рипа: tracks
Битрейт аудио: lossless
Продолжительность: 00:52:30
Источник: IsraBox
Наличие сканов в содержимом раздачи: cover+booklet


01. Outside the Valley (2:43)
02. Stranger (3:15)
03. Worry (2:23)
04. Prayer (1:38)
05. Library (1:25)
06. Danger (0:18)
07. Lady (1:38)
08. Generator (0:49)
09. Thief (0:52)
10. Ann Plays (0:27)
11. A Visitor (2:11)
12. Caleb's Plan (1:02)
13. First Meal (2:15)
14. Your Brother (3:25)
15. The Hunt (1:35)
16. The Church (2:11)
17. After a Walk (0:50)
18. Everyone Working (2:02)
19. I Love You (2:07)
20. While Loomis Sleeps (1:25)
21. The Wheel (2:48)
22. The Falls (0:50)
23. Electricity (6:07)
24. Hymn, Pt. 1 (0:44)
25. Hymn, Pt. 2 (5:54)
26. End Credits (1:24)

Лог проверки качества

-----------------------
DON'T MODIFY THIS FILE
-----------------------
PERFORMER: auCDtect Task Manager, ver. 1.5.1RC6 build 1.5.1.7Copyright (c) 2008-2010 y-soft. All rights reservedhttp://y-soft.org
ANALYZER: auCDtect: CD records authenticity detector, version 0.8.2Copyright (c) 2004 Oleg Berngardt. All rights reserved.Copyright (c) 2004 Alexander Djourik. All rights reserved.
FILE: 01 - Outside The Valley.flac Size: 13042668 Hash: 8B4AFAA44848DC2EA969FAA6CCDB0C5B Accuracy: -m8 Conclusion: CDDA 100% Signature: AF38FE1FE144298689AD3A31A4BB1794B1210CB2FILE: 02 - Stranger.flac Size: 13885698 Hash: 104B384768BB1197B15F18C4E218FEAE Accuracy: -m8 Conclusion: CDDA 100% Signature: 7B8751066B029B19A8A3FF699DB7B0E1CFACC51EFILE: 03 - Worry.flac Size: 10447488 Hash: 915D278ABDDD7953B85FFD3C9BD560C2 Accuracy: -m8 Conclusion: CDDA 100% Signature: BC6F688BBC6DD4195352FD4336778C80311029D4FILE: 04 - Prayer.flac Size: 7424324 Hash: D9CCBA8D01EC9A6A7EC4D7A40731A52B Accuracy: -m8 Conclusion: CDDA 100% Signature: 3BAB1A7685DF47E90A1C3007BDC2ECFD64E88205FILE: 05 - Library.flac Size: 5136800 Hash: D8200A2DF10928CA3568039D751FFCCB Accuracy: -m8 Conclusion: CDDA 100% Signature: DD25C6B106583FC91DD79026E1183DCD9CD2508BFILE: 06 - Danger.flac Size: 1404886 Hash: D8B6BDC02F7FE0321BC075D7B8DF621A Accuracy: -m8 Conclusion: CDDA 100% Signature: 6F0B603B594401877CEA1AC5E953BCDF2D5DA9ACFILE: 07 - Lady.flac Size: 8368320 Hash: D3FC8E27883B58453EB7479BBC4FFD99 Accuracy: -m8 Conclusion: CDDA 100% Signature: 49AEB8F32334E5F7CEA25E5CD66A704269EB20C3FILE: 08 - Generator.flac Size: 3048185 Hash: B82B5AFF46690F93A6696710F93D041C Accuracy: -m8 Conclusion: CDDA 100% Signature: 7C05F74B5BFEA0B04DFB97938ABD1D8D58C036CEFILE: 09 - Thief.flac Size: 3676948 Hash: 49A07326E69D4DBFBF3EA7FDA5589547 Accuracy: -m8 Conclusion: CDDA 100% Signature: 56EEFBE074CC78B92C39B8463DDE523638233651FILE: 10 - Ann Plays.flac Size: 1963696 Hash: E65E8468BB37F619C2E8805E30FB20B8 Accuracy: -m8 Conclusion: CDDA 100% Signature: 404AE72DEB4781418171219D3A19C97B0650D2BBFILE: 11 - A Visitor.flac Size: 8776853 Hash: 4321C8A82C4BCE6F73519F843629D5BE Accuracy: -m8 Conclusion: CDDA 100% Signature: B94BB1967E4693FB9F869B641B0F4808D94FBCD5FILE: 12 - Caleb's Plan.flac Size: 3347769 Hash: 9D51996F3D4AF42F33CCAAD673CA445B Accuracy: -m8 Conclusion: CDDA 100% Signature: FCE1C76DBEF7019757F93C30E48F9D19D035361CFILE: 13 - First Meal.flac Size: 11304332 Hash: AC67E86CD32ACAABA42307F8C1AE9C22 Accuracy: -m8 Conclusion: CDDA 99% Signature: 3FF5D6A5CFEE52A674DB4F135226F30A9C61AFB0FILE: 14 - Your Brother.flac Size: 13103169 Hash: A01AB0F27AAEC39D9E415BE70CEECD7A Accuracy: -m8 Conclusion: CDDA 100% Signature: F30A55A7BE6F7C030993B84CDDA1D14940D9DDA8FILE: 15 - The Hunt.flac Size: 8262332 Hash: D96F479F89513ACB1495F38235CA7F7B Accuracy: -m8 Conclusion: CDDA 100% Signature: E9A40F1B58300FAE511CF499B734321F784B6165FILE: 16 - The Church.flac Size: 11668840 Hash: B4B94F6C90DACD6164694870BB240C8D Accuracy: -m8 Conclusion: CDDA 100% Signature: 0886A8E79F8770BE5C5EF59BD78195780869705EFILE: 17 - After A Walk.flac Size: 4049229 Hash: 023DD73969F0840675A2A637B67B26D1 Accuracy: -m8 Conclusion: CDDA 100% Signature: 90B7AACBC361EF3FA8CA4EF6C28D108AA3A1B70BFILE: 18 - Everyone Working.flac Size: 11605056 Hash: D745AEB716668D2E8441CB0ADFBDF213 Accuracy: -m8 Conclusion: CDDA 100% Signature: 8F0532A31DF4FC97984EA5BC9407D2F65A820807FILE: 19 - I Love You.flac Size: 7453165 Hash: ACC00BF32DCB1CE7A0A30E82F63C2657 Accuracy: -m8 Conclusion: CDDA 100% Signature: 1BDF219B2BEB9557BB0843FD23B0260C5591EFE7FILE: 20 - While Loomis Sleeps.flac Size: 4864638 Hash: D602A3DA2E46492FF80513BEC122BE12 Accuracy: -m8 Conclusion: CDDA 100% Signature: 21D727924D523CE201430FFB961FBE3662760A2CFILE: 21 - The Wheel.flac Size: 10670882 Hash: FE5787D7206068EC1750A46061FB5E57 Accuracy: -m8 Conclusion: CDDA 100% Signature: CEE7C5E4DD5942CAA63511DFC222B06FCEBC8616FILE: 22 - The Falls.flac Size: 3215943 Hash: 7D3DFB113B8B3E36D5AF780C86804893 Accuracy: -m8 Conclusion: CDDA 100% Signature: B828B62BC9772D209D6EDDCE829851ED062D639FFILE: 23 - Electricity.flac Size: 22736678 Hash: F86DEB27417A3FC394CCFD8EB8AE5B9D Accuracy: -m8 Conclusion: CDDA 100% Signature: CC605460AF5D698D83821F7D1B834518150CAC76FILE: 24 - Hymn, Pt. 1.flac Size: 2936665 Hash: 4E1A92A4802230FE7C2F8C27DACABB71 Accuracy: -m8 Conclusion: CDDA 100% Signature: B9B2EE3A8D72F3A476E219A2152FA53CB20C5514FILE: 25 - Hymn, Pt. 2.flac Size: 32786044 Hash: C61E7EDE87A597D1B22204A65A40AAB9 Accuracy: -m8 Conclusion: CDDA 100% Signature: DF9D4E5AA66B1375C5A823CB313FC8C6CB5CB4F1FILE: 26 - End Credits.flac Size: 6008314 Hash: AFFD7413D40EF2E1E253DD34F6DEF734 Accuracy: -m8 Conclusion: CDDA 100% Signature: DD984D12F9C1C90FE4A0BFEB239B2DA08F834017

Динамический диапазон

foobar2000 1.2.8 / Dynamic Range Meter 1.1.1log date: 2015-08-31 04:35:46
--------------------------------------------------------------------------------Analyzed: Heather McIntosh / Z For Zachariah (Original Motion Picture Soundtrack)--------------------------------------------------------------------------------
DR Peak RMS Duration Track--------------------------------------------------------------------------------DR10 -0.50 dB -16.58 dB 2:44 01-Outside The ValleyDR11 -0.30 dB -15.90 dB 3:16 02-StrangerDR10 -6.66 dB -21.35 dB 2:24 03-WorryDR10 -0.60 dB -16.99 dB 1:38 04-PrayerDR11 -7.13 dB -21.99 dB 1:25 05-LibraryDR9 -18.91 dB -32.83 dB 0:18 06-DangerDR12 -1.51 dB -19.42 dB 1:39 07-LadyDR10 -4.89 dB -19.65 dB 0:49 08-GeneratorDR9 -9.35 dB -22.40 dB 0:52 09-ThiefDR7 -6.67 dB -17.30 dB 0:27 10-Ann PlaysDR15 -3.34 dB -21.36 dB 2:12 11-A VisitorDR10 -12.98 dB -28.83 dB 1:02 12-Caleb's PlanDR10 -16.82 dB -29.36 dB 2:16 13-First MealDR14 -4.35 dB -21.38 dB 3:25 14-Your BrotherDR10 -3.97 dB -20.02 dB 1:36 15-The HuntDR9 -0.90 dB -14.11 dB 2:11 16-The ChurchDR10 -3.14 dB -18.18 dB 0:51 17-After A WalkDR10 -1.32 dB -16.34 dB 2:02 18-Everyone WorkingDR9 -6.10 dB -21.41 dB 2:08 19-I Love YouDR19 -0.52 dB -24.06 dB 1:25 20-While Loomis SleepsDR10 -0.69 dB -16.59 dB 2:48 21-The WheelDR10 -0.57 dB -16.60 dB 0:50 22-The FallsDR13 -2.29 dB -19.68 dB 6:08 23-ElectricityDR7 -10.69 dB -21.27 dB 0:45 24-Hymn, Pt. 1DR10 -0.58 dB -14.94 dB 5:54 25-Hymn, Pt. 2DR11 -3.84 dB -18.42 dB 1:25 26-End Credits--------------------------------------------------------------------------------
Number of tracks: 26Official DR value: DR11
Samplerate: 44100 HzChannels: 2Bits per sample: 16Bitrate: 559 kbpsCodec: FLAC================================================================================
[teatrix.ru].t10306.torrent 
Торрент: Зарегистрирован [ 2015-11-01 20:51 ] · EE7CA12C9B603E573E5CB2AAD6A5AC04E9995E3B

Скачать .torrent

Скачать

6 KB

Статус: проверено
Скачан: 0 раз
Размер: 224 MB
terms.php



Быстрый ответ

Имя:

      
Для отправки сообщений необходимо включить JavaScript
Показать сообщения:    

Текущее время: 11-Дек 01:28

Часовой пояс: UTC + 3


Вы можете начинать темы
Вы можете отвечать на сообщения
Вы не можете редактировать свои сообщения
Вы не можете удалять свои сообщения
Вы не можете голосовать в опросах
Вы не можете прикреплять файлы к сообщениям
Вы можете скачивать файлы