(Soundtrack / Pop, Rock) [CD] VA - Ultimate... Movies (4CDs Of Great Hits From The Movies) - 2015, FLAC (tracks+.cue), lossless


Статистика раздачи [Обновить пиров]
Размер:  1.8 GB   |    Зарегистрирован:  1 год 1 месяц   |    Скачан:  1 раз
Сидов:  7  [  0 KB/s  ]   Личеров:  6  [  0 KB/s  ]   Подробная статистика пиров
 
   
 
 

[Цитировать]

Ultimate... Movies (4CDs Of Great Hits From The Movies)
Жанр: Pop, Rock, Country, R&B, Disco, Funk, Blues, Soundtrack
Носитель: CD
Страна-производитель диска (релиза): EU
Год издания: 2015
Издатель (лейбл): Sony Music
Номер по каталогу: 88875085822
Аудиокодек: FLAC (*.flac)
Тип рипа: tracks+.cue
Битрейт аудио: lossless
Продолжительность: 04:34:15
Источник (релизер): UseNet
Наличие сканов в содержимом раздачи: да

Треклист:

CD 1 [01:05:15]

01. Bill Medley & Jennifer Warnes - (I've had) The Time Of My Life [4:51]
02. Celine Dion - My Heart Will Go On [4:41]
03. Dolly Parton - 9 to 5 [2:46]
04. The Four Tops - Loco In Acapulco [4:33]
05. Billy Ocean - When The Going Gets Tough, The Tough Get Going [4:08]
06. Survivor - Eye Of The Tiger [3:49]
07. James Brown - Living In America [4:43]
08. Elvis Presley & The Jordanaires - Viva Las Vegas [2:25]
09. Simon & Garfunkel - Mrs. Robinson [4:03]
10. Van Morrison - Brown Eyed Girl [3:05]
11. Johnny Cash - I Walk The Line [2:44]
12. Ray Parker, Jr. - Ghostbusters [4:00]
13. Kenny Loggins - Danger Zone [3:37]
14. Sly & The Family Stone - Everyday People [2:22]
15. The Fifth Dimension - Aquarius - Let The Sunshine In (The Flash Failures) [4:51]
16. The Mash - Suicide Is Painless [2:55]
17. Hugo Montenegro & His Orchestra - The Good, The Bad And The Ugly [2:47]
18. John Barry - The James Bond Theme [2:55]

Лог создания рипа

Exact Audio Copy V1.0 beta 4 from 7. December 2014
EAC extraction logfile from 19. July 2015, 20:07
Various Artists / Ultimate Movies: 4CDs of Great Hits from the Movies (Disc 1)
Used drive : TSSTcorpCDDVDW SN-208FB Adapter: 1 ID: 0
Read mode : SecureUtilize accurate stream : YesDefeat audio cache : YesMake use of C2 pointers : No
Read offset correction : 6Overread into Lead-In and Lead-Out : NoFill up missing offset samples with silence : YesDelete leading and trailing silent blocks : NoNull samples used in CRC calculations : YesUsed interface : Native Win32 interface for Win NT & 2000Gap handling : Appended to previous track
Used output format : User Defined EncoderSelected bitrate : 1024 kBit/sQuality : HighAdd ID3 tag : NoCommand line compressor : C:\Program Files (x86)\Kodeki za Glasbo\FLAC\flac.exeAdditional command line options : -8 -V -T "ARTIST=%artist%" -T "TITLE=%title%" -T "ALBUM=%albumtitle%" -T "DATE=%year%" -T "TRACKNUMBER=%tracknr%" -T "TOTALTRACKS=%numtracks%" -T "GENRE=%genre%" -T "ALBUMARTIST=%albumartist%" -T "ALBUM ARTIST=%albumartist%" -T "COMMENT=EAC Secure Mode, Test & Copy, AccurateRip, FLAC -8" %source%
TOC of the extracted CD
Track | Start | Length | Start sector | End sector --------------------------------------------------------- 1 | 0:00.00 | 4:51.31 | 0 | 21855 2 | 4:51.31 | 4:41.01 | 21856 | 42931 3 | 9:32.32 | 2:45.48 | 42932 | 55354 4 | 12:18.05 | 4:33.27 | 55355 | 75856 5 | 16:51.32 | 4:08.01 | 75857 | 94457 6 | 20:59.33 | 3:48.61 | 94458 | 111618 7 | 24:48.19 | 4:43.36 | 111619 | 132879 8 | 29:31.55 | 2:24.66 | 132880 | 143745 9 | 31:56.46 | 4:03.11 | 143746 | 161981 10 | 35:59.57 | 3:05.11 | 161982 | 175867 11 | 39:04.68 | 2:44.09 | 175868 | 188176 12 | 41:49.02 | 4:00.23 | 188177 | 206199 13 | 45:49.25 | 3:36.55 | 206200 | 222454 14 | 49:26.05 | 2:22.17 | 222455 | 233121 15 | 51:48.22 | 4:51.07 | 233122 | 254953 16 | 56:39.29 | 2:54.74 | 254954 | 268077 17 | 59:34.28 | 2:46.50 | 268078 | 280577 18 | 62:21.03 | 2:54.60 | 280578 | 293687
Track 1
Filename M:\4. my rip in preparation\3 - in treatment\1\CD1\01 - Bill Medley & Jennifer Warnes - (I'Ve had) The Time of my Life.wav
Pre-gap length 0:00:02.00
Peak level 96.6 % Extraction speed 2.3 X Track quality 100.0 % Test CRC 34401235 Copy CRC 34401235 Track not present in AccurateRip database Copy OK
Track 2
Filename M:\4. my rip in preparation\3 - in treatment\1\CD1\02 - Celine Dion - My Heart Will Go On.wav
Pre-gap length 0:00:01.77
Peak level 99.7 % Extraction speed 2.6 X Track quality 100.0 % Test CRC 884607AC Copy CRC 884607AC Track not present in AccurateRip database Copy OK
Track 3
Filename M:\4. my rip in preparation\3 - in treatment\1\CD1\03 - Dolly Parton - 9 to 5.wav
Pre-gap length 0:00:01.77
Peak level 86.9 % Extraction speed 1.9 X Track quality 99.9 % Test CRC 2D6F4178 Copy CRC 2D6F4178 Track not present in AccurateRip database Copy OK
Track 4
Filename M:\4. my rip in preparation\3 - in treatment\1\CD1\04 - The Four Tops - Loco in Acapulco.wav
Pre-gap length 0:00:01.77
Peak level 98.5 % Extraction speed 2.9 X Track quality 100.0 % Test CRC 737A3AC4 Copy CRC 737A3AC4 Track not present in AccurateRip database Copy OK
Track 5
Filename M:\4. my rip in preparation\3 - in treatment\1\CD1\05 - Billy Ocean - When the Going Gets Tough, the Tough Get Going.wav
Pre-gap length 0:00:01.77
Peak level 97.1 % Extraction speed 2.5 X Track quality 99.9 % Test CRC A5036327 Copy CRC A5036327 Track not present in AccurateRip database Copy OK
Track 6
Filename M:\4. my rip in preparation\3 - in treatment\1\CD1\06 - Survivor - Eye of the Tiger.wav
Pre-gap length 0:00:01.77
Peak level 99.0 % Extraction speed 3.2 X Track quality 100.0 % Test CRC A72BFC70 Copy CRC A72BFC70 Track not present in AccurateRip database Copy OK
Track 7
Filename M:\4. my rip in preparation\3 - in treatment\1\CD1\07 - James Brown - Living in America.wav
Pre-gap length 0:00:01.77
Peak level 98.8 % Extraction speed 3.4 X Track quality 100.0 % Test CRC D4A22C91 Copy CRC D4A22C91 Track not present in AccurateRip database Copy OK
Track 8
Filename M:\4. my rip in preparation\3 - in treatment\1\CD1\08 - Elvis Presley & The Jordanaires - Viva Las Vegas.wav
Pre-gap length 0:00:01.77
Peak level 81.7 % Extraction speed 3.2 X Track quality 100.0 % Test CRC C8BAED75 Copy CRC C8BAED75 Track not present in AccurateRip database Copy OK
Track 9
Filename M:\4. my rip in preparation\3 - in treatment\1\CD1\09 - Simon & Garfunkel - Mrs. Robinson.wav
Pre-gap length 0:00:01.77
Peak level 98.6 % Extraction speed 3.6 X Track quality 100.0 % Test CRC DFF1A653 Copy CRC DFF1A653 Track not present in AccurateRip database Copy OK
Track 10
Filename M:\4. my rip in preparation\3 - in treatment\1\CD1\10 - Van Morrison - Brown Eyed Girl.wav
Pre-gap length 0:00:01.77
Peak level 98.8 % Extraction speed 3.6 X Track quality 100.0 % Test CRC 38EF3107 Copy CRC 38EF3107 Track not present in AccurateRip database Copy OK
Track 11
Filename M:\4. my rip in preparation\3 - in treatment\1\CD1\11 - Johnny Cash - I Walk the Line.wav
Pre-gap length 0:00:01.77
Peak level 99.7 % Extraction speed 3.6 X Track quality 100.0 % Test CRC 656C21DA Copy CRC 656C21DA Track not present in AccurateRip database Copy OK
Track 12
Filename M:\4. my rip in preparation\3 - in treatment\1\CD1\12 - Ray Parker, Jr. - Ghostbusters.wav
Pre-gap length 0:00:02.32
Peak level 98.8 % Extraction speed 3.1 X Track quality 100.0 % Test CRC 2ECC362E Copy CRC 2ECC362E Track not present in AccurateRip database Copy OK
Track 13
Filename M:\4. my rip in preparation\3 - in treatment\1\CD1\13 - Kenny Loggins - Danger Zone.wav
Pre-gap length 0:00:01.77
Peak level 99.7 % Extraction speed 4.0 X Track quality 100.0 % Test CRC EE7C18E1 Copy CRC EE7C18E1 Track not present in AccurateRip database Copy OK
Track 14
Filename M:\4. my rip in preparation\3 - in treatment\1\CD1\14 - Sly & The Family Stone - Everyday People.wav
Pre-gap length 0:00:01.77
Peak level 99.7 % Extraction speed 3.8 X Track quality 100.0 % Test CRC C8827125 Copy CRC C8827125 Track not present in AccurateRip database Copy OK
Track 15
Filename M:\4. my rip in preparation\3 - in treatment\1\CD1\15 - The Fifth Dimension - Aquarius - Let the Sunshine in (The Flash Failures).wav
Pre-gap length 0:00:01.77
Peak level 99.7 % Extraction speed 4.3 X Track quality 100.0 % Test CRC 87F88349 Copy CRC 87F88349 Track not present in AccurateRip database Copy OK
Track 16
Filename M:\4. my rip in preparation\3 - in treatment\1\CD1\16 - The Mash - Suicide Is Painless (from the 20th Century-Fox Film M.A.S.H).wav
Pre-gap length 0:00:01.77
Peak level 99.7 % Extraction speed 4.0 X Track quality 100.0 % Test CRC 446EC990 Copy CRC 446EC990 Track not present in AccurateRip database Copy OK
Track 17
Filename M:\4. my rip in preparation\3 - in treatment\1\CD1\17 - Hugo Montenegro & His Orchestra - The Good, The Bad and the Ugly.wav
Pre-gap length 0:00:01.77
Peak level 98.4 % Extraction speed 3.0 X Track quality 99.9 % Test CRC B751D07B Copy CRC B751D07B Track not present in AccurateRip database Copy OK
Track 18
Filename M:\4. my rip in preparation\3 - in treatment\1\CD1\18 - John Barry - The James Bond Theme.wav
Pre-gap length 0:00:01.77
Peak level 99.7 % Extraction speed 4.2 X Track quality 100.0 % Test CRC 697152DF Copy CRC 697152DF Track not present in AccurateRip database Copy OK
None of the tracks are present in the AccurateRip database
No errors occurred
End of status report
---- CUETools DB Plugin V2.1.4
[CTDB TOCID: sJBjuhr0JtmYLhsOv2yd1TrR9ss-] disk not present in databaseSubmit result: sJBjuhr0JtmYLhsOv2yd1TrR9ss- has been uploaded
==== Log checksum 575300B05AB982B170917F8A9758C79080D77C2B44921EA27C07CB02827F63A3 ====

Содержание индексной карты (.CUE)

REM GENRE "Pop Rock"REM DATE 2015REM DISCID EA0F4B12REM COMMENT "ExactAudioCopy v1.0b4"CATALOG 0888750858221PERFORMER "Various Artists"TITLE "Ultimate Movies: 4CDs of Great Hits from the Movies (Disc 1)"FILE "01 - Bill Medley & Jennifer Warnes - (I'Ve had) The Time of my Life.wav" WAVE TRACK 01 AUDIO TITLE "(I'Ve had) The Time of my Life" PERFORMER "Bill Medley & Jennifer Warnes" ISRC USRC10300895 INDEX 01 00:00:00 TRACK 02 AUDIO TITLE "My Heart Will Go On" PERFORMER "Celine Dion" ISRC USSM19704710 INDEX 00 04:49:48FILE "02 - Celine Dion - My Heart Will Go On.wav" WAVE INDEX 01 00:00:00 TRACK 03 AUDIO TITLE "9 to 5" PERFORMER "Dolly Parton" ISRC USRN19600101 INDEX 00 04:39:18FILE "03 - Dolly Parton - 9 to 5.wav" WAVE INDEX 01 00:00:00 TRACK 04 AUDIO TITLE "Loco in Acapulco" PERFORMER "The Four Tops" ISRC USAR18800003 INDEX 00 02:43:65FILE "04 - The Four Tops - Loco in Acapulco.wav" WAVE INDEX 01 00:00:00 TRACK 05 AUDIO TITLE "When the Going Gets Tough, the Tough Get Going" PERFORMER "Billy Ocean" ISRC GBAHK9700110 INDEX 00 04:31:44FILE "05 - Billy Ocean - When the Going Gets Tough, the Tough Get Going.wav" WAVE INDEX 01 00:00:00 TRACK 06 AUDIO TITLE "Eye of the Tiger" PERFORMER "Survivor" ISRC USVR10400292 INDEX 00 04:06:18FILE "06 - Survivor - Eye of the Tiger.wav" WAVE INDEX 01 00:00:00 TRACK 07 AUDIO TITLE "Living in America" PERFORMER "James Brown" ISRC USVR10400306 INDEX 00 03:47:03FILE "07 - James Brown - Living in America.wav" WAVE INDEX 01 00:00:00 TRACK 08 AUDIO TITLE "Viva Las Vegas" PERFORMER "Elvis Presley & The Jordanaires" ISRC USRC10201499 INDEX 00 04:41:53FILE "08 - Elvis Presley & The Jordanaires - Viva Las Vegas.wav" WAVE INDEX 01 00:00:00 TRACK 09 AUDIO TITLE "Mrs. Robinson" PERFORMER "Simon & Garfunkel" ISRC USSM16800379 INDEX 00 02:23:08FILE "09 - Simon & Garfunkel - Mrs. Robinson.wav" WAVE INDEX 01 00:00:00 TRACK 10 AUDIO TITLE "Brown Eyed Girl" PERFORMER "Van Morrison" ISRC USSM16701081 INDEX 00 04:01:28FILE "10 - Van Morrison - Brown Eyed Girl.wav" WAVE INDEX 01 00:00:00 TRACK 11 AUDIO TITLE "I Walk the Line" PERFORMER "Johnny Cash" ISRC USSM19902742 INDEX 00 03:03:28FILE "11 - Johnny Cash - I Walk the Line.wav" WAVE INDEX 01 00:00:00 TRACK 12 AUDIO TITLE "Ghostbusters" PERFORMER "Ray Parker, Jr." ISRC USAR18400008 INDEX 00 02:41:60FILE "12 - Ray Parker, Jr. - Ghostbusters.wav" WAVE INDEX 01 00:00:00 TRACK 13 AUDIO TITLE "Danger Zone" PERFORMER "Kenny Loggins" ISRC USSM18600108 INDEX 00 03:58:40FILE "13 - Kenny Loggins - Danger Zone.wav" WAVE INDEX 01 00:00:00 TRACK 14 AUDIO TITLE "Everyday People" PERFORMER "Sly & The Family Stone" ISRC USSM19901653 INDEX 00 03:34:72FILE "14 - Sly & The Family Stone - Everyday People.wav" WAVE INDEX 01 00:00:00 TRACK 15 AUDIO TITLE "Aquarius - Let the Sunshine in (The Flash Failures)" PERFORMER "The Fifth Dimension" ISRC USAR19901225 INDEX 00 02:20:34FILE "15 - The Fifth Dimension - Aquarius - Let the Sunshine in (The Flash Failures).wav" WAVE INDEX 01 00:00:00 TRACK 16 AUDIO TITLE "Suicide Is Painless (from the 20th Century-Fox Film M.A.S.H)" PERFORMER "The Mash" ISRC USSM17000741 INDEX 00 04:49:24FILE "16 - The Mash - Suicide Is Painless (from the 20th Century-Fox Film M.A.S.H).wav" WAVE INDEX 01 00:00:00 TRACK 17 AUDIO TITLE "The Good, The Bad and the Ugly" PERFORMER "Hugo Montenegro & His Orchestra" ISRC USRC16701597 INDEX 00 02:53:16FILE "17 - Hugo Montenegro & His Orchestra - The Good, The Bad and the Ugly.wav" WAVE INDEX 01 00:00:00 TRACK 18 AUDIO TITLE "The James Bond Theme" PERFORMER "John Barry" ISRC GBBBN6600001 INDEX 00 02:44:67FILE "18 - John Barry - The James Bond Theme.wav" WAVE INDEX 01 00:00:00

Лог проверки качества

-----------------------
DON'T MODIFY THIS FILE
-----------------------
PERFORMER: auCDtect Task Manager, ver. 1.5.1RC6 build 1.5.1.7Copyright (c) 2008-2010 y-soft. All rights reservedhttp://y-soft.org
ANALYZER: auCDtect: CD records authenticity detector, version 0.8.2Copyright (c) 2004 Oleg Berngardt. All rights reserved.Copyright (c) 2004 Alexander Djourik. All rights reserved.
FILE: 01 - Bill Medley & Jennifer Warnes - (I'Ve had) The Time of my Life.flac Size: 35088274 Hash: D4043AE0E16EECD99BFC4589CC927BF4 Accuracy: -m8 Conclusion: CDDA 100% Signature: 1B74FD1BAF6B34D4125C8586DEE16B25FDA0884AFILE: 02 - Celine Dion - My Heart Will Go On.flac Size: 28349314 Hash: 5BEC8AC2487A4B63E038C0D2303A0322 Accuracy: -m8 Conclusion: CDDA 100% Signature: B5FCDAD2FA4F2468BEAA2E45097043B5A39BFD24FILE: 03 - Dolly Parton - 9 to 5.flac Size: 19803452 Hash: 3C9229EAE776E0E9C0D6B533CE20DEDB Accuracy: -m8 Conclusion: CDDA 99% Signature: E3C1A018C9298E7310DAA56C8F3472B282242388FILE: 04 - The Four Tops - Loco in Acapulco.flac Size: 34793166 Hash: C6C3628E637355B9C024D5EEFF885EEE Accuracy: -m8 Conclusion: CDDA 100% Signature: CCF06DC15778E8E37053B00FA763E32CD52F4D46FILE: 05 - Billy Ocean - When the Going Gets Tough, the Tough Get Going.flac Size: 31822487 Hash: D452D7FAD9A301AA4DC9778AE6768D7F Accuracy: -m8 Conclusion: CDDA 100% Signature: C41ED2D1CE6309A2520AEC4A0BA4F4318D8C8012FILE: 06 - Survivor - Eye of the Tiger.flac Size: 27971609 Hash: C55601621BF29F8E41156EF88FAB9DEC Accuracy: -m8 Conclusion: CDDA 100% Signature: D5D35C8EA33145AE5C167655602862CA5535BA46FILE: 07 - James Brown - Living in America.flac Size: 37389536 Hash: E7EE83A86B11CF96C6C319EEAD3A91A6 Accuracy: -m8 Conclusion: CDDA 100% Signature: EED32C8FB0E4604C17050E74D6525066E93BBE5AFILE: 08 - Elvis Presley & The Jordanaires - Viva Las Vegas.flac Size: 16560862 Hash: 0E4348F473ED447970B17AF75D46B63F Accuracy: -m8 Conclusion: CDDA 99% Signature: EFFF18B5AE09CDE5F8F549452FFE5404A62417F0FILE: 09 - Simon & Garfunkel - Mrs. Robinson.flac Size: 26159913 Hash: EB7C19AE8F94E8A0A93343ABF339CFA8 Accuracy: -m8 Conclusion: CDDA 100% Signature: 543E4209DB8AC6989CED44A6C026170B10FA506CFILE: 10 - Van Morrison - Brown Eyed Girl.flac Size: 21485409 Hash: F85DC37BD3013AB92F67C6C358788CDD Accuracy: -m8 Conclusion: CDDA 99% Signature: B5B6C6A7F7720DDAD517F64719D1CFC0C9E3E1FDFILE: 11 - Johnny Cash - I Walk the Line.flac Size: 15076885 Hash: DFC390CFCE23958889511C8A34C248DB Accuracy: -m8 Conclusion: CDDA 100% Signature: 537689536AB0096A0F756CD2F54E624851131E89FILE: 12 - Ray Parker, Jr. - Ghostbusters.flac Size: 29784421 Hash: 38E0B78D5289492DE6861707EDF6A474 Accuracy: -m8 Conclusion: CDDA 100% Signature: F9ED0A33A1995333613FBAA288A3F8FC4AC4E867FILE: 13 - Kenny Loggins - Danger Zone.flac Size: 28740759 Hash: 97CCD89975D726D6B15DBE93E901A197 Accuracy: -m8 Conclusion: CDDA 100% Signature: A7727CEE8066A3339CF2D0D903E330F8F3ED3505FILE: 14 - Sly & The Family Stone - Everyday People.flac Size: 15309892 Hash: 83D1FDAF96A693D886602B64C060D2AD Accuracy: -m8 Conclusion: CDDA 100% Signature: 70F47DC9836B9DB4ABC614939715766DDF073D38FILE: 15 - The Fifth Dimension - Aquarius - Let the Sunshine in (The Flash Failures).flac Size: 35753494 Hash: DA8BB26E955AB5614063FB0CF7DE00C2 Accuracy: -m8 Conclusion: CDDA 100% Signature: 0CF9411DE8CE386FA6DFE8404D515D2B65A3C944FILE: 16 - The Mash - Suicide Is Painless (from the 20th Century-Fox Film M.A.S.H).flac Size: 17900336 Hash: 413531F1A392E6E34D90C8EB1912B979 Accuracy: -m8 Conclusion: CDDA 100% Signature: ABB7567D3A65A84C09902C482A4830C8ECB269FCFILE: 17 - Hugo Montenegro & His Orchestra - The Good, The Bad and the Ugly.flac Size: 17500535 Hash: BA766013A13EB1115DC755841083420F Accuracy: -m8 Conclusion: CDDA 100% Signature: 9B3BEE333C0764433F6EB598C8D1D08D97D78535FILE: 18 - John Barry - The James Bond Theme.flac Size: 21981173 Hash: 87FA192281776CD4B1B60692038618BC Accuracy: -m8 Conclusion: CDDA 100% Signature: 21DD8B190B096DF29B45FD4CFA682820A8E1DD03

Динамический диапазон

foobar2000 1.3.8 / Dynamic Range Meter 1.1.1log date: 2015-08-26 04:08:05
--------------------------------------------------------------------------------Analyzed: Bill Medley & Jennifer Warnes / Ultimate... Movies (Great Hits From The Movies) (1) Billy Ocean / Ultimate... Movies (Great Hits From The Movies) (2) Celine Dion / Ultimate... Movies (Great Hits From The Movies) (3) Dolly Parton / Ultimate... Movies (Great Hits From The Movies) (4) Elvis Presley & The Jordanaires / Ultimate... Movies (Great Hits From The Movies) (5) Hugo Montenegro & His Orchestra / Ultimate... Movies (Great Hits From The Movies) (6) James Brown / Ultimate... Movies (Great Hits From The Movies) (7) John Barry / Ultimate... Movies (Great Hits From The Movies) (8) Johnny Cash / Ultimate... Movies (Great Hits From The Movies) (9) Kenny Loggins / Ultimate... Movies (Great Hits From The Movies) (10) Ray Parker, Jr. / Ultimate... Movies (Great Hits From The Movies) (11) Simon & Garfunkel / Ultimate... Movies (Great Hits From The Movies) (12) Sly & The Family Stone / Ultimate... Movies (Great Hits From The Movies) (13) Survivor / Ultimate... Movies (Great Hits From The Movies) (14) The Fifth Dimension / Ultimate... Movies (Great Hits From The Movies) (15) The Four Tops / Ultimate... Movies (Great Hits From The Movies) (16) The Mash / Ultimate... Movies (Great Hits From The Movies) (17) Van Morrison / Ultimate... Movies (Great Hits From The Movies) (18)--------------------------------------------------------------------------------
DR Peak RMS Duration Track--------------------------------------------------------------------------------DR10 -0.30 dB -13.96 dB 4:51 01-(I've had) The Time Of My LifeDR7 -0.25 dB -9.50 dB 4:08 05-When The Going Gets Tough, The Tough Get GoingDR8 -0.02 dB -12.27 dB 4:41 02-My Heart Will Go OnDR7 -1.21 dB -10.72 dB 2:46 03-9 to 5DR9 -1.75 dB -12.34 dB 2:25 08-Viva Las VegasDR10 -0.13 dB -12.67 dB 2:47 17-The Good, The Bad And The UglyDR12 -0.10 dB -13.24 dB 4:43 07-Living In AmericaDR9 -0.02 dB -12.02 dB 2:55 18-The James Bond ThemeDR10 -0.02 dB -11.96 dB 2:44 11-I Walk The LineDR6 -0.02 dB -8.13 dB 3:37 13-Danger ZoneDR9 -0.10 dB -10.36 dB 4:00 12-GhostbustersDR9 -0.12 dB -11.41 dB 4:03 09-Mrs. RobinsonDR10 -0.02 dB -11.91 dB 2:22 14-Everyday PeopleDR11 -0.09 dB -12.51 dB 3:49 06-Eye Of The TigerDR9 -0.02 dB -10.20 dB 4:51 15-Aquarius - Let The Sunshine In (The Flash Failures)DR9 -0.13 dB -10.99 dB 4:33 04-Loco In AcapulcoDR8 -0.02 dB -11.16 dB 2:55 16-Suicide Is PainlessDR9 -0.10 dB -10.80 dB 3:05 10-Brown Eyed Girl--------------------------------------------------------------------------------
Number of tracks: 18Official DR value: DR9
Samplerate: 44100 HzChannels: 2Bits per sample: 16Bitrate: 924 kbpsCodec: FLAC================================================================================

CD 2 [01:18:59]

01. Kenny Loggins - Footloose [3:49]
02. Bonnie Tyler - Holding Out For A Hero [4:23]
03. Deniece Williams - Let's Her It For The Boy [4:18]
04. Aretha Franklin - Jumpin' Jack Flash [5:08]
05. Diana King - I Say A Little Prayer [3:36]
06. Harold Melvin & The Blue Notes - Don't Leave Me This Way [6:08]
07. McFadden & Whitehead - Ain't No Stoppin' Us Now [7:02]
08. Heatwave - Boogie Nights [3:38]
09. The Emotions - Best Of My Love [3:42]
10. The Isley Brothers - That Lady (Pt. 1 & 2) [5:36]
11. The Five Stairsteps - O-O-H Child [3:15]
12. The Pointer Sisters - I'm So Excited [4:54]
13. Carly Simon - In The Wee Small Hours Of The Morning [3:18]
14. Des'ree - I'm Kissing You [4:53]
15. John Legend - Someday [3:05]
16. Patrick Swayze feat. Wendy Fraser - She's Like The Wind [3:52]
17. Mike Reno feat. Ann Wilson - Almost Paradise [3:51]
18. Sarah McLachlan - Angel [4:33]

Лог создания рипа

Exact Audio Copy V1.0 beta 4 from 7. December 2014
EAC extraction logfile from 19. July 2015, 21:45
Various Artists / Ultimate Movies: 4CDs of Great Hits from the Movies (Disc 2)
Used drive : TSSTcorpCDDVDW SN-208FB Adapter: 1 ID: 0
Read mode : SecureUtilize accurate stream : YesDefeat audio cache : YesMake use of C2 pointers : No
Read offset correction : 6Overread into Lead-In and Lead-Out : NoFill up missing offset samples with silence : YesDelete leading and trailing silent blocks : NoNull samples used in CRC calculations : YesUsed interface : Native Win32 interface for Win NT & 2000Gap handling : Appended to previous track
Used output format : User Defined EncoderSelected bitrate : 1024 kBit/sQuality : HighAdd ID3 tag : NoCommand line compressor : C:\Program Files (x86)\Kodeki za Glasbo\FLAC\flac.exeAdditional command line options : -8 -V -T "ARTIST=%artist%" -T "TITLE=%title%" -T "ALBUM=%albumtitle%" -T "DATE=%year%" -T "TRACKNUMBER=%tracknr%" -T "TOTALTRACKS=%numtracks%" -T "GENRE=%genre%" -T "ALBUMARTIST=%albumartist%" -T "ALBUM ARTIST=%albumartist%" -T "COMMENT=EAC Secure Mode, Test & Copy, AccurateRip, FLAC -8" %source%
TOC of the extracted CD
Track | Start | Length | Start sector | End sector --------------------------------------------------------- 1 | 0:00.00 | 3:48.57 | 0 | 17156 2 | 3:48.57 | 4:22.55 | 17157 | 36861 3 | 8:11.37 | 4:17.48 | 36862 | 56184 4 | 12:29.10 | 5:07.38 | 56185 | 79247 5 | 17:36.48 | 3:35.41 | 79248 | 95413 6 | 21:12.14 | 6:08.33 | 95414 | 123046 7 | 27:20.47 | 7:01.73 | 123047 | 154694 8 | 34:22.45 | 3:37.53 | 154695 | 171022 9 | 38:00.23 | 3:41.61 | 171023 | 187658 10 | 41:42.09 | 5:36.31 | 187659 | 212889 11 | 47:18.40 | 3:15.07 | 212890 | 227521 12 | 50:33.47 | 4:53.55 | 227522 | 249551 13 | 55:27.27 | 3:18.32 | 249552 | 264433 14 | 58:45.59 | 4:52.61 | 264434 | 286394 15 | 63:38.45 | 3:04.56 | 286395 | 300250 16 | 66:43.26 | 3:51.39 | 300251 | 317614 17 | 70:34.65 | 3:51.30 | 317615 | 334969 18 | 74:26.20 | 4:32.59 | 334970 | 355428
Track 1
Filename M:\4. my rip in preparation\3 - in treatment\1\CD2\01 - Kenny Loggins - Footloose.wav
Pre-gap length 0:00:02.00
Peak level 97.2 % Extraction speed 1.1 X Track quality 99.9 % Test CRC 1FF1B676 Copy CRC 1FF1B676 Track not present in AccurateRip database Copy OK
Track 2
Filename M:\4. my rip in preparation\3 - in treatment\1\CD2\02 - Bonnie Tyler - Holding Out for a Hero.wav
Pre-gap length 0:00:01.77
Peak level 87.9 % Extraction speed 1.4 X Track quality 100.0 % Test CRC E7E16769 Copy CRC E7E16769 Track not present in AccurateRip database Copy OK
Track 3
Filename M:\4. my rip in preparation\3 - in treatment\1\CD2\03 - Deniece Williams - Let's Her It for the Boy.wav
Pre-gap length 0:00:01.77
Peak level 98.5 % Extraction speed 1.3 X Track quality 99.9 % Test CRC 31D2F0BE Copy CRC 31D2F0BE Track not present in AccurateRip database Copy OK
Track 4
Filename M:\4. my rip in preparation\3 - in treatment\1\CD2\04 - Aretha Franklin - Jumpin' Jack Flash.wav
Pre-gap length 0:00:01.77
Peak level 99.7 % Extraction speed 1.7 X Track quality 100.0 % Test CRC 32FC11B0 Copy CRC 32FC11B0 Track not present in AccurateRip database Copy OK
Track 5
Filename M:\4. my rip in preparation\3 - in treatment\1\CD2\05 - Diana King - I Say a Little Prayer.wav
Pre-gap length 0:00:01.77
Peak level 78.2 % Extraction speed 1.7 X Track quality 100.0 % Test CRC 7B44D942 Copy CRC 7B44D942 Track not present in AccurateRip database Copy OK
Track 6
Filename M:\4. my rip in preparation\3 - in treatment\1\CD2\06 - Harold Melvin & The Blue Notes - Don't Leave Me This Way.wav
Pre-gap length 0:00:01.77
Peak level 94.3 % Extraction speed 1.9 X Track quality 100.0 % Test CRC 25779C0B Copy CRC 25779C0B Track not present in AccurateRip database Copy OK
Track 7
Filename M:\4. my rip in preparation\3 - in treatment\1\CD2\07 - McFadden & Whitehead - Ain't No Stoppin' Us Now.wav
Pre-gap length 0:00:01.77
Peak level 99.7 % Extraction speed 1.9 X Track quality 99.9 % Test CRC 41C0891F Copy CRC 41C0891F Track not present in AccurateRip database Copy OK
Track 8
Filename M:\4. my rip in preparation\3 - in treatment\1\CD2\08 - Heatwave - Boogie Nights.wav
Pre-gap length 0:00:01.77
Peak level 98.5 % Extraction speed 2.0 X Track quality 100.0 % Test CRC CE9C3C44 Copy CRC CE9C3C44 Track not present in AccurateRip database Copy OK
Track 9
Filename M:\4. my rip in preparation\3 - in treatment\1\CD2\09 - The Emotions - Best of my Love.wav
Pre-gap length 0:00:01.77
Peak level 98.6 % Extraction speed 2.1 X Track quality 100.0 % Test CRC F912D1C2 Copy CRC F912D1C2 Track not present in AccurateRip database Copy OK
Track 10
Filename M:\4. my rip in preparation\3 - in treatment\1\CD2\10 - The Isley Brothers - That Lady (Pt. 1 & 2).wav
Pre-gap length 0:00:01.77
Peak level 98.9 % Extraction speed 2.3 X Track quality 100.0 % Test CRC C05F0AF5 Copy CRC C05F0AF5 Track not present in AccurateRip database Copy OK
Track 11
Filename M:\4. my rip in preparation\3 - in treatment\1\CD2\11 - The Five Stairsteps - O-O-H Child.wav
Pre-gap length 0:00:01.77
Peak level 99.7 % Extraction speed 2.2 X Track quality 100.0 % Test CRC 4540A295 Copy CRC 4540A295 Track not present in AccurateRip database Copy OK
Track 12
Filename M:\4. my rip in preparation\3 - in treatment\1\CD2\12 - The Pointer Sisters - I'm So Excited.wav
Pre-gap length 0:00:01.77
Peak level 96.6 % Extraction speed 2.3 X Track quality 100.0 % Test CRC 08661A12 Copy CRC 08661A12 Track not present in AccurateRip database Copy OK
Track 13
Filename M:\4. my rip in preparation\3 - in treatment\1\CD2\13 - Carly Simon - In the Wee Small Hours of the Morning.wav
Pre-gap length 0:00:01.77
Peak level 99.7 % Extraction speed 2.3 X Track quality 100.0 % Test CRC 45952156 Copy CRC 45952156 Track not present in AccurateRip database Copy OK
Track 14
Filename M:\4. my rip in preparation\3 - in treatment\1\CD2\14 - Des'ree - I'm Kissing You.wav
Pre-gap length 0:00:01.77
Peak level 99.7 % Extraction speed 2.2 X Track quality 99.9 % Test CRC 26CD088D Copy CRC 26CD088D Track not present in AccurateRip database Copy OK
Track 15
Filename M:\4. my rip in preparation\3 - in treatment\1\CD2\15 - John Legend - Someday.wav
Pre-gap length 0:00:01.77
Peak level 98.8 % Extraction speed 2.4 X Track quality 100.0 % Test CRC A16B1B19 Copy CRC A16B1B19 Track not present in AccurateRip database Copy OK
Track 16
Filename M:\4. my rip in preparation\3 - in treatment\1\CD2\16 - Patrick Swayze feat. Wendy Fraser - She's Like the Wind.wav
Pre-gap length 0:00:01.77
Peak level 96.6 % Extraction speed 2.5 X Track quality 100.0 % Test CRC 08998D2E Copy CRC 08998D2E Track not present in AccurateRip database Copy OK
Track 17
Filename M:\4. my rip in preparation\3 - in treatment\1\CD2\17 - Mike Reno feat. Ann Wilson - Almost Paradise.wav
Pre-gap length 0:00:01.77
Peak level 98.6 % Extraction speed 2.3 X Track quality 99.9 % Test CRC A6A3E32D Copy CRC A6A3E32D Track not present in AccurateRip database Copy OK
Track 18
Filename M:\4. my rip in preparation\3 - in treatment\1\CD2\18 - Sarah McLachlan - Angel.wav
Pre-gap length 0:00:01.77
Peak level 98.7 % Extraction speed 2.7 X Track quality 100.0 % Test CRC FB213E63 Copy CRC FB213E63 Track not present in AccurateRip database Copy OK
None of the tracks are present in the AccurateRip database
No errors occurred
End of status report
---- CUETools DB Plugin V2.1.4
[CTDB TOCID: ESwZPa0UOE2PEv0hWc_n8tb2a_A-] disk not present in databaseSubmit result: ESwZPa0UOE2PEv0hWc_n8tb2a_A- has been uploaded
==== Log checksum 7E7DB3B266C7CE9342F21966C618CB796EEE7C0506EF29E32167C329157A2795 ====

Содержание индексной карты (.CUE)

REM GENRE "Pop Rock"REM DATE 2015REM DISCID E8128312REM COMMENT "ExactAudioCopy v1.0b4"CATALOG 0888750858221PERFORMER "Various Artists"TITLE "Ultimate Movies: 4CDs of Great Hits from the Movies (Disc 2)"FILE "01 - Kenny Loggins - Footloose.wav" WAVE TRACK 01 AUDIO TITLE "Footloose" PERFORMER "Kenny Loggins" ISRC USSM19803320 INDEX 01 00:00:00 TRACK 02 AUDIO TITLE "Holding Out for a Hero" PERFORMER "Bonnie Tyler" ISRC USSM19802579 INDEX 00 03:46:74FILE "02 - Bonnie Tyler - Holding Out for a Hero.wav" WAVE INDEX 01 00:00:00 TRACK 03 AUDIO TITLE "Let's Her It for the Boy" PERFORMER "Deniece Williams" ISRC USSM18400508 INDEX 00 04:20:72FILE "03 - Deniece Williams - Let's Her It for the Boy.wav" WAVE INDEX 01 00:00:00 TRACK 04 AUDIO TITLE "Jumpin' Jack Flash" PERFORMER "Aretha Franklin" ISRC USAR18600112 INDEX 00 04:15:65FILE "04 - Aretha Franklin - Jumpin' Jack Flash.wav" WAVE INDEX 01 00:00:00 TRACK 05 AUDIO TITLE "I Say a Little Prayer" PERFORMER "Diana King" ISRC USSM19704766 INDEX 00 05:05:55FILE "05 - Diana King - I Say a Little Prayer.wav" WAVE INDEX 01 00:00:00 TRACK 06 AUDIO TITLE "Don't Leave Me This Way" PERFORMER "Harold Melvin & The Blue Notes" ISRC USSM10020630 INDEX 00 03:33:58FILE "06 - Harold Melvin & The Blue Notes - Don't Leave Me This Way.wav" WAVE INDEX 01 00:00:00 TRACK 07 AUDIO TITLE "Ain't No Stoppin' Us Now" PERFORMER "McFadden & Whitehead" ISRC USSM17801255 INDEX 00 06:06:50FILE "07 - McFadden & Whitehead - Ain't No Stoppin' Us Now.wav" WAVE INDEX 01 00:00:00 TRACK 08 AUDIO TITLE "Boogie Nights" PERFORMER "Heatwave" ISRC GBBBM7600003 INDEX 00 07:00:15FILE "08 - Heatwave - Boogie Nights.wav" WAVE INDEX 01 00:00:00 TRACK 09 AUDIO TITLE "Best of my Love" PERFORMER "The Emotions" ISRC USSM17701137 INDEX 00 03:35:70FILE "09 - The Emotions - Best of my Love.wav" WAVE INDEX 01 00:00:00 TRACK 10 AUDIO TITLE "That Lady (Pt. 1 & 2)" PERFORMER "The Isley Brothers" ISRC USSM19803500 INDEX 00 03:40:03FILE "10 - The Isley Brothers - That Lady (Pt. 1 & 2).wav" WAVE INDEX 01 00:00:00 TRACK 11 AUDIO TITLE "O-O-H Child" PERFORMER "The Five Stairsteps" ISRC USBR10100127 INDEX 00 05:34:48FILE "11 - The Five Stairsteps - O-O-H Child.wav" WAVE INDEX 01 00:00:00 TRACK 12 AUDIO TITLE "I'm So Excited" PERFORMER "The Pointer Sisters" ISRC USRC18207960 INDEX 00 03:13:24FILE "12 - The Pointer Sisters - I'm So Excited.wav" WAVE INDEX 01 00:00:00 TRACK 13 AUDIO TITLE "In the Wee Small Hours of the Morning" PERFORMER "Carly Simon" ISRC USAR19000163 INDEX 00 04:51:72FILE "13 - Carly Simon - In the Wee Small Hours of the Morning.wav" WAVE INDEX 01 00:00:00 TRACK 14 AUDIO TITLE "I'm Kissing You" PERFORMER "Des'ree" ISRC GBBBL9602034 INDEX 00 03:16:49FILE "14 - Des'ree - I'm Kissing You.wav" WAVE INDEX 01 00:00:00 TRACK 15 AUDIO TITLE "Someday" PERFORMER "John Legend" ISRC USSM10704160 INDEX 00 04:51:03FILE "15 - John Legend - Someday.wav" WAVE INDEX 01 00:00:00 TRACK 16 AUDIO TITLE "She's Like the Wind" PERFORMER "Patrick Swayze feat. Wendy Fraser" ISRC USRC10301378 INDEX 00 03:02:73FILE "16 - Patrick Swayze feat. Wendy Fraser - She's Like the Wind.wav" WAVE INDEX 01 00:00:00 TRACK 17 AUDIO TITLE "Almost Paradise" PERFORMER "Mike Reno feat. Ann Wilson" ISRC USSM10027426 INDEX 00 03:49:56FILE "17 - Mike Reno feat. Ann Wilson - Almost Paradise.wav" WAVE INDEX 01 00:00:00 TRACK 18 AUDIO TITLE "Angel" PERFORMER "Sarah McLachlan" ISRC USAR19700531 INDEX 00 03:49:47FILE "18 - Sarah McLachlan - Angel.wav" WAVE INDEX 01 00:00:00

Лог проверки качества

-----------------------
DON'T MODIFY THIS FILE
-----------------------
PERFORMER: auCDtect Task Manager, ver. 1.5.1RC6 build 1.5.1.7Copyright (c) 2008-2010 y-soft. All rights reservedhttp://y-soft.org
ANALYZER: auCDtect: CD records authenticity detector, version 0.8.2Copyright (c) 2004 Oleg Berngardt. All rights reserved.Copyright (c) 2004 Alexander Djourik. All rights reserved.
FILE: 01 - Kenny Loggins - Footloose.flac Size: 27107072 Hash: B3DD049D89E181412E9BDD2C10BF9F56 Accuracy: -m8 Conclusion: CDDA 99% Signature: 15E75DF4CDD5FF4DC1DA8CD7C8B1AC4C32083FEBFILE: 02 - Bonnie Tyler - Holding Out for a Hero.flac Size: 33425316 Hash: 24D677F5B3500AC53965A4DCAD169277 Accuracy: -m8 Conclusion: CDDA 100% Signature: 82266AF539C9AA5EB3F19B2C27408887D27B7C53FILE: 03 - Deniece Williams - Let's Her It for the Boy.flac Size: 30941353 Hash: 8B5BCC2DCAC7A048F2D7E0C5780FF190 Accuracy: -m8 Conclusion: CDDA 100% Signature: D6237AE6705FD2FB17B02B174A8B5FC0C2B76451FILE: 04 - Aretha Franklin - Jumpin' Jack Flash.flac Size: 39032034 Hash: FF59855DE0F92CE834454157D1CB366C Accuracy: -m8 Conclusion: CDDA 100% Signature: A97740E34FDE79BB630D5116F4EECE2E29CCC294FILE: 05 - Diana King - I Say a Little Prayer.flac Size: 26237212 Hash: B203653F78B490B0DA5A7FD9BE3C4E32 Accuracy: -m8 Conclusion: CDDA 100% Signature: 7658F6D39B51A76C73A399198A38719D424980FEFILE: 06 - Harold Melvin & The Blue Notes - Don't Leave Me This Way.flac Size: 41526998 Hash: A627F8F568064D3CFD5E43B763FFE972 Accuracy: -m8 Conclusion: CDDA 100% Signature: CB31A2183684ABC15C22BD9FA8334CD6FBFF031DFILE: 07 - McFadden & Whitehead - Ain't No Stoppin' Us Now.flac Size: 49610893 Hash: 1B3CFCD73461F9989DC927FAB87117E7 Accuracy: -m8 Conclusion: CDDA 100% Signature: B7F543D39BA01EAB8582C368A598D16CC2946ED4FILE: 08 - Heatwave - Boogie Nights.flac Size: 25107346 Hash: 698931C3E69F581F6B10F9245C3CBD8D Accuracy: -m8 Conclusion: CDDA 100% Signature: 35DF5F8B9B81048E086E46171622776E4FC1D604FILE: 09 - The Emotions - Best of my Love.flac Size: 28250854 Hash: 4E1C599EDEFEC6D0FD2E4A232EAC7518 Accuracy: -m8 Conclusion: CDDA 100% Signature: 6CE3E3EB426789AFA8D9672E205C7DC49A709C28FILE: 10 - The Isley Brothers - That Lady (Pt. 1 & 2).flac Size: 42600092 Hash: 7B7FC27B6EA70378C0888FD9E3B95E34 Accuracy: -m8 Conclusion: CDDA 100% Signature: 741055286314F150708F4617A2DA1F3823CB2315FILE: 11 - The Five Stairsteps - O-O-H Child.flac Size: 25503803 Hash: 827776F62B6C2D82E345F2E44B4EDF71 Accuracy: -m8 Conclusion: CDDA 100% Signature: AD1BB2D361F6C68AA2BC2A74CB052187B9F792ACFILE: 12 - The Pointer Sisters - I'm So Excited.flac Size: 35757555 Hash: DF68ACBF79F99CD62BCECEF99572A1A9 Accuracy: -m8 Conclusion: CDDA 100% Signature: E749120B8E939E45058543D0AB8EDD92A13761D7FILE: 13 - Carly Simon - In the Wee Small Hours of the Morning.flac Size: 18437310 Hash: E98A0DAEF240366C91FD71BBDAC3F3CF Accuracy: -m8 Conclusion: CDDA 100% Signature: 22F2372DE86261C8E5D67444F952C0C470C82EAFFILE: 14 - Des'ree - I'm Kissing You.flac Size: 26755335 Hash: 14311067F2DC65094CDF7C5322726589 Accuracy: -m8 Conclusion: CDDA 100% Signature: D6D37068F20A566BE2A16FBC81FB8510E8EF7D00FILE: 15 - John Legend - Someday.flac Size: 18111858 Hash: 40A8F8DEACFE77EBEFD876693C5B9122 Accuracy: -m8 Conclusion: CDDA 100% Signature: 985933E16CAFBFEBD45B3C310C5996DE23498260FILE: 16 - Patrick Swayze feat. Wendy Fraser - She's Like the Wind.flac Size: 26914635 Hash: D7D7E6BC03002E4A54E5C02C54C6FFDF Accuracy: -m8 Conclusion: CDDA 100% Signature: 1C0F980B08D0AF60AC4F2B37D8996E6A7773565AFILE: 17 - Mike Reno feat. Ann Wilson - Almost Paradise.flac Size: 25969572 Hash: AC87079EB7CBDE6BFB13A7417B1DE814 Accuracy: -m8 Conclusion: CDDA 100% Signature: C6D1D7D5D146FF2CCDA08A8C139F19E33CB5E2DCFILE: 18 - Sarah McLachlan - Angel.flac Size: 22755265 Hash: 75EAA46B2DEBE881670CFA25F2F70BC2 Accuracy: -m8 Conclusion: CDDA 100% Signature: D81DE7332FB5AD1D8ED0DB76F1321DDCBBD20130

Динамический диапазон

foobar2000 1.3.8 / Dynamic Range Meter 1.1.1log date: 2015-08-26 04:08:56
--------------------------------------------------------------------------------Analyzed: Aretha Franklin / Ultimate... Movies (Great Hits From The Movies) (1) Bonnie Tyler / Ultimate... Movies (Great Hits From The Movies) (2) Carly Simon / Ultimate... Movies (Great Hits From The Movies) (3) Deniece Williams / Ultimate... Movies (Great Hits From The Movies) (4) Des'ree / Ultimate... Movies (Great Hits From The Movies) (5) Diana King / Ultimate... Movies (Great Hits From The Movies) (6) Harold Melvin & The Blue Notes / Ultimate... Movies (Great Hits From The Movies) (7) Heatwave / Ultimate... Movies (Great Hits From The Movies) (8) John Legend / Ultimate... Movies (Great Hits From The Movies) (9) Kenny Loggins / Ultimate... Movies (Great Hits From The Movies) (10) McFadden & Whitehead / Ultimate... Movies (Great Hits From The Movies) (11) Mike Reno feat. Ann Wilson / Ultimate... Movies (Great Hits From The Movies) (12) Patrick Swayze feat. Wendy Fraser / Ultimate... Movies (Great Hits From The Movies) (13) Sarah McLachlan / Ultimate... Movies (Great Hits From The Movies) (14) The Emotions / Ultimate... Movies (Great Hits From The Movies) (15) The Five Stairsteps / Ultimate... Movies (Great Hits From The Movies) (16) The Isley Brothers / Ultimate... Movies (Great Hits From The Movies) (17) The Pointer Sisters / Ultimate... Movies (Great Hits From The Movies) (18)--------------------------------------------------------------------------------
DR Peak RMS Duration Track--------------------------------------------------------------------------------DR7 -0.02 dB -9.56 dB 5:08 04-Jumpin' Jack FlashDR9 -1.12 dB -11.63 dB 4:23 02-Holding Out For A HeroDR10 -0.02 dB -15.31 dB 3:18 13-In The Wee Small Hours Of The MorningDR10 -0.13 dB -11.61 dB 4:18 03-Let's Her It For The BoyDR11 -0.02 dB -15.43 dB 4:53 14-I'm Kissing YouDR7 -2.13 dB -10.74 dB 3:36 05-I Say A Little PrayerDR8 -0.50 dB -10.46 dB 6:08 06-Don't Leave Me This WayDR10 -0.13 dB -11.53 dB 3:38 08-Boogie NightsDR9 -0.10 dB -13.46 dB 3:05 15-SomedayDR8 -0.24 dB -10.09 dB 3:49 01-FootlooseDR10 -0.02 dB -11.67 dB 7:02 07-Ain't No Stoppin' Us NowDR9 -0.12 dB -12.37 dB 3:51 17-Almost ParadiseDR9 -0.30 dB -13.10 dB 3:52 16-She's Like The WindDR10 -0.11 dB -13.57 dB 4:33 18-AngelDR7 -0.11 dB -8.72 dB 3:42 09-Best Of My LoveDR8 -0.02 dB -10.32 dB 3:15 11-O-O-H ChildDR9 -0.09 dB -10.20 dB 5:36 10-That Lady (Pt. 1 & 2)DR10 -0.29 dB -11.49 dB 4:54 12-I'm So Excited--------------------------------------------------------------------------------
Number of tracks: 18Official DR value: DR9
Samplerate: 44100 HzChannels: 2Bits per sample: 16Bitrate: 971 kbpsCodec: FLAC================================================================================

CD 3 [00:58:21]

01. Judy Garland - Over The Rainbow [2:47]
02. Gene Kelly With The M-G-M Studio Orchestra - Singin' In The Rain [4:17]
03. Peter Nero - Raindrops Keep Fallin' On My Head [2:44]
04. Henry Mancini & His Orchestra and Chorus - Moon River [2:43]
05. Andy Williams - Speak Softly Love [3:03]
06. Bobby Vinton - Blue Velvet [2:48]
07. Maurice Williams & The Zodiacs - Stay [1:40]
08. The Statler Brothers - Flowers On The Wall [2:20]
09. Harry Nilsson - Everybody's Talkin' [2:46]
10. The Byrds - Ballad Of Easy Rider [2:04]
11. Bob Dylan - Things Have Changed [5:09]
12. Gipsy Kings - Hotel California [5:48]
13. Jimmy Cliff - I Can See Clearly Now [3:16]
14. Bill Withers - Ain't No Sunshine [2:04]
15. Anastacia - Love Is A Crime [3:21]
16. Amerie - 1 Thing [4:00]
17. Jefferson Airplane - Somebody To Love [2:58]
18. Starship - Nothing's Gonna Stop Us Now [4:31]

Лог создания рипа

Exact Audio Copy V1.0 beta 4 from 7. December 2014
EAC extraction logfile from 21. July 2015, 17:50
Various Artists / Ultimate Movies: 4CDs of Great Hits from the Movies (Disc 3)
Used drive : TSSTcorpCDDVDW SN-208FB Adapter: 1 ID: 0
Read mode : SecureUtilize accurate stream : YesDefeat audio cache : YesMake use of C2 pointers : No
Read offset correction : 6Overread into Lead-In and Lead-Out : NoFill up missing offset samples with silence : YesDelete leading and trailing silent blocks : NoNull samples used in CRC calculations : YesUsed interface : Native Win32 interface for Win NT & 2000Gap handling : Appended to previous track
Used output format : User Defined EncoderSelected bitrate : 1024 kBit/sQuality : HighAdd ID3 tag : NoCommand line compressor : C:\Program Files (x86)\Kodeki za Glasbo\FLAC\flac.exeAdditional command line options : -8 -V -T "ARTIST=%artist%" -T "TITLE=%title%" -T "ALBUM=%albumtitle%" -T "DATE=%year%" -T "TRACKNUMBER=%tracknr%" -T "TOTALTRACKS=%numtracks%" -T "GENRE=%genre%" -T "ALBUMARTIST=%albumartist%" -T "ALBUM ARTIST=%albumartist%" -T "COMMENT=EAC Secure Mode, Test & Copy, AccurateRip, FLAC -8" %source%
TOC of the extracted CD
Track | Start | Length | Start sector | End sector --------------------------------------------------------- 1 | 0:00.00 | 2:47.26 | 0 | 12550 2 | 2:47.26 | 4:17.31 | 12551 | 31856 3 | 7:04.57 | 2:43.41 | 31857 | 44122 4 | 9:48.23 | 2:43.26 | 44123 | 56373 5 | 12:31.49 | 3:03.03 | 56374 | 70101 6 | 15:34.52 | 2:48.36 | 70102 | 82737 7 | 18:23.13 | 1:40.05 | 82738 | 90242 8 | 20:03.18 | 2:20.23 | 90243 | 100765 9 | 22:23.41 | 2:45.50 | 100766 | 113190 10 | 25:09.16 | 2:04.25 | 113191 | 122515 11 | 27:13.41 | 5:09.02 | 122516 | 145692 12 | 32:22.43 | 5:48.09 | 145693 | 171801 13 | 38:10.52 | 3:16.15 | 171802 | 186516 14 | 41:26.67 | 2:04.19 | 186517 | 195835 15 | 43:31.11 | 3:20.68 | 195836 | 210903 16 | 46:52.04 | 3:59.64 | 210904 | 228892 17 | 50:51.68 | 2:58.16 | 228893 | 242258 18 | 53:50.09 | 4:31.27 | 242259 | 262610
Track 1
Filename M:\4. my rip in preparation\3 - in treatment\1\CD3\01 - Judy Garland - Over the Rainbow.wav
Pre-gap length 0:00:02.00
Peak level 99.7 % Extraction speed 1.0 X Track quality 100.0 % Test CRC 9DD50A07 Copy CRC 9DD50A07 Track not present in AccurateRip database Copy OK
Track 2
Filename M:\4. my rip in preparation\3 - in treatment\1\CD3\02 - Gene Kelly With The M-G-M Studio Orchestra - Singin' in the Rain.wav
Pre-gap length 0:00:01.77
Peak level 99.7 % Extraction speed 1.2 X Track quality 100.0 % Test CRC 0BC1BC29 Copy CRC 0BC1BC29 Track not present in AccurateRip database Copy OK
Track 3
Filename M:\4. my rip in preparation\3 - in treatment\1\CD3\03 - Peter Nero - Raindrops Keep Fallin' on my Head.wav
Pre-gap length 0:00:01.77
Peak level 94.3 % Extraction speed 1.2 X Track quality 100.0 % Test CRC A18F24A4 Copy CRC A18F24A4 Track not present in AccurateRip database Copy OK
Track 4
Filename M:\4. my rip in preparation\3 - in treatment\1\CD3\04 - Henry Mancini & His Orchestra and Chorus - Moon River.wav
Pre-gap length 0:00:01.77
Peak level 98.5 % Extraction speed 1.1 X Track quality 99.9 % Test CRC 82E73CA3 Copy CRC 82E73CA3 Track not present in AccurateRip database Copy OK
Track 5
Filename M:\4. my rip in preparation\3 - in treatment\1\CD3\05 - Andy Williams - Speak Softly Love.wav
Pre-gap length 0:00:01.77
Peak level 98.4 % Extraction speed 1.4 X Track quality 100.0 % Test CRC 284BC1FF Copy CRC 284BC1FF Track not present in AccurateRip database Copy OK
Track 6
Filename M:\4. my rip in preparation\3 - in treatment\1\CD3\06 - Bobby Vinton - Blue Velvet.wav
Pre-gap length 0:00:01.77
Peak level 98.8 % Extraction speed 1.4 X Track quality 100.0 % Test CRC FDC11F5F Copy CRC FDC11F5F Track not present in AccurateRip database Copy OK
Track 7
Filename M:\4. my rip in preparation\3 - in treatment\1\CD3\07 - Maurice Williams & The Zodiacs - Stay.wav
Pre-gap length 0:00:01.77
Peak level 98.8 % Extraction speed 1.3 X Track quality 100.0 % Test CRC BA48A327 Copy CRC BA48A327 Track not present in AccurateRip database Copy OK
Track 8
Filename M:\4. my rip in preparation\3 - in treatment\1\CD3\08 - The Statler Brothers - Flowers on the Wall.wav
Pre-gap length 0:00:01.77
Peak level 98.7 % Extraction speed 1.4 X Track quality 100.0 % Test CRC 9365ED20 Copy CRC 9365ED20 Track not present in AccurateRip database Copy OK
Track 9
Filename M:\4. my rip in preparation\3 - in treatment\1\CD3\09 - Harry Nilsson - Everybody's Talkin'.wav
Pre-gap length 0:00:01.77
Peak level 99.7 % Extraction speed 1.3 X Track quality 99.9 % Test CRC E8D0CA04 Copy CRC E8D0CA04 Track not present in AccurateRip database Copy OK
Track 10
Filename M:\4. my rip in preparation\3 - in treatment\1\CD3\10 - The Byrds - Ballad of Easy Rider.wav
Pre-gap length 0:00:01.77
Peak level 98.6 % Extraction speed 1.5 X Track quality 100.0 % Test CRC C3D79E11 Copy CRC C3D79E11 Track not present in AccurateRip database Copy OK
Track 11
Filename M:\4. my rip in preparation\3 - in treatment\1\CD3\11 - Bob Dylan - Things Have Changed.wav
Pre-gap length 0:00:01.77
Peak level 85.1 % Extraction speed 1.8 X Track quality 100.0 % Test CRC AB25EEAC Copy CRC AB25EEAC Track not present in AccurateRip database Copy OK
Track 12
Filename M:\4. my rip in preparation\3 - in treatment\1\CD3\12 - Gipsy Kings - Hotel California.wav
Pre-gap length 0:00:01.77
Peak level 95.7 % Extraction speed 2.0 X Track quality 100.0 % Test CRC BFE6B4AB Copy CRC BFE6B4AB Track not present in AccurateRip database Copy OK
Track 13
Filename M:\4. my rip in preparation\3 - in treatment\1\CD3\13 - Jimmy Cliff - I Can See Clearly Now.wav
Pre-gap length 0:00:01.77
Peak level 99.7 % Extraction speed 1.6 X Track quality 99.9 % Test CRC 6C9A5610 Copy CRC 6C9A5610 Track not present in AccurateRip database Copy OK
Track 14
Filename M:\4. my rip in preparation\3 - in treatment\1\CD3\14 - Bill Withers - Ain't No Sunshine.wav
Pre-gap length 0:00:01.77
Peak level 98.6 % Extraction speed 1.8 X Track quality 100.0 % Test CRC 538EE679 Copy CRC 538EE679 Track not present in AccurateRip database Copy OK
Track 15
Filename M:\4. my rip in preparation\3 - in treatment\1\CD3\15 - Anastacia - Love Is a Crime.wav
Pre-gap length 0:00:01.77
Peak level 99.7 % Extraction speed 2.0 X Track quality 100.0 % Test CRC 1CD56DAC Copy CRC 1CD56DAC Track not present in AccurateRip database Copy OK
Track 16
Filename M:\4. my rip in preparation\3 - in treatment\1\CD3\16 - Amerie - 1 Thing.wav
Pre-gap length 0:00:01.77
Peak level 84.1 % Extraction speed 2.1 X Track quality 100.0 % Test CRC 277E0A4C Copy CRC 277E0A4C Track not present in AccurateRip database Copy OK
Track 17
Filename M:\4. my rip in preparation\3 - in treatment\1\CD3\17 - Jefferson Airplane - Somebody to Love.wav
Pre-gap length 0:00:01.77
Peak level 98.5 % Extraction speed 2.1 X Track quality 100.0 % Test CRC E0F34983 Copy CRC E0F34983 Track not present in AccurateRip database Copy OK
Track 18
Filename M:\4. my rip in preparation\3 - in treatment\1\CD3\18 - Starship - Nothing's Gonna Stop Us Now.wav
Pre-gap length 0:00:01.77
Peak level 91.1 % Extraction speed 2.3 X Track quality 100.0 % Test CRC 0893A4ED Copy CRC 0893A4ED Track not present in AccurateRip database Copy OK
None of the tracks are present in the AccurateRip database
No errors occurred
End of status report
---- CUETools DB Plugin V2.1.4
[CTDB TOCID: 7sJ0E6Fj69OdlXbjaXCCdPe_KXY-] disk not present in databaseSubmit result: 7sJ0E6Fj69OdlXbjaXCCdPe_KXY- has been uploaded
==== Log checksum C7087A9C305120B894146552B5BF2DB0BF9172E00BFA5AF3874873C51C09606A ====

Содержание индексной карты (.CUE)

REM GENRE "Pop Rock"REM DATE 2015REM DISCID E70DAD12REM COMMENT "ExactAudioCopy v1.0b4"CATALOG 0888750858221PERFORMER "Various Artists"TITLE "Ultimate Movies: 4CDs of Great Hits from the Movies (Disc 3)"FILE "01 - Judy Garland - Over the Rainbow.wav" WAVE TRACK 01 AUDIO TITLE "Over the Rainbow" PERFORMER "Judy Garland" ISRC UST1C0101893 INDEX 01 00:00:00 TRACK 02 AUDIO TITLE "Singin' in the Rain" PERFORMER "Gene Kelly With The M-G-M Studio Orchestra" ISRC UST1C0102136 INDEX 00 02:45:43FILE "02 - Gene Kelly With The M-G-M Studio Orchestra - Singin' in the Rain.wav" WAVE INDEX 01 00:00:00 TRACK 03 AUDIO TITLE "Raindrops Keep Fallin' on my Head" PERFORMER "Peter Nero" ISRC USSM19930602 INDEX 00 04:15:48FILE "03 - Peter Nero - Raindrops Keep Fallin' on my Head.wav" WAVE INDEX 01 00:00:00 TRACK 04 AUDIO TITLE "Moon River" PERFORMER "Henry Mancini & His Orchestra and Chorus" ISRC USRC18805688 INDEX 00 02:41:58FILE "04 - Henry Mancini & His Orchestra and Chorus - Moon River.wav" WAVE INDEX 01 00:00:00 TRACK 05 AUDIO TITLE "Speak Softly Love" PERFORMER "Andy Williams" ISRC USSM10008244 INDEX 00 02:41:43FILE "05 - Andy Williams - Speak Softly Love.wav" WAVE INDEX 01 00:00:00 TRACK 06 AUDIO TITLE "Blue Velvet" PERFORMER "Bobby Vinton" ISRC USSM19601971 INDEX 00 03:01:20FILE "06 - Bobby Vinton - Blue Velvet.wav" WAVE INDEX 01 00:00:00 TRACK 07 AUDIO TITLE "Stay" PERFORMER "Maurice Williams & The Zodiacs" ISRC USAR10300951 INDEX 00 02:46:53FILE "07 - Maurice Williams & The Zodiacs - Stay.wav" WAVE INDEX 01 00:00:00 TRACK 08 AUDIO TITLE "Flowers on the Wall" PERFORMER "The Statler Brothers" ISRC USSM19927115 INDEX 00 01:38:22FILE "08 - The Statler Brothers - Flowers on the Wall.wav" WAVE INDEX 01 00:00:00 TRACK 09 AUDIO TITLE "Everybody's Talkin'" PERFORMER "Harry Nilsson" ISRC USRC19901102 INDEX 00 02:18:40FILE "09 - Harry Nilsson - Everybody's Talkin'.wav" WAVE INDEX 01 00:00:00 TRACK 10 AUDIO TITLE "Ballad of Easy Rider" PERFORMER "The Byrds" ISRC USSM16900073 INDEX 00 02:43:67FILE "10 - The Byrds - Ballad of Easy Rider.wav" WAVE INDEX 01 00:00:00 TRACK 11 AUDIO TITLE "Things Have Changed" PERFORMER "Bob Dylan" ISRC USSM19932378 INDEX 00 02:02:42FILE "11 - Bob Dylan - Things Have Changed.wav" WAVE INDEX 01 00:00:00 TRACK 12 AUDIO TITLE "Hotel California" PERFORMER "Gipsy Kings" ISRC GBARL0700396 INDEX 00 05:07:19FILE "12 - Gipsy Kings - Hotel California.wav" WAVE INDEX 01 00:00:00 TRACK 13 AUDIO TITLE "I Can See Clearly Now" PERFORMER "Jimmy Cliff" ISRC USSM19803153 INDEX 00 05:46:26FILE "13 - Jimmy Cliff - I Can See Clearly Now.wav" WAVE INDEX 01 00:00:00 TRACK 14 AUDIO TITLE "Ain't No Sunshine" PERFORMER "Bill Withers" ISRC USSM10000372 INDEX 00 03:14:32FILE "14 - Bill Withers - Ain't No Sunshine.wav" WAVE INDEX 01 00:00:00 TRACK 15 AUDIO TITLE "Love Is a Crime" PERFORMER "Anastacia" ISRC USSM10213115 INDEX 00 02:02:36FILE "15 - Anastacia - Love Is a Crime.wav" WAVE INDEX 01 00:00:00 TRACK 16 AUDIO TITLE "1 Thing" PERFORMER "Amerie" ISRC USSM10500100 INDEX 00 03:19:10FILE "16 - Amerie - 1 Thing.wav" WAVE INDEX 01 00:00:00 TRACK 17 AUDIO TITLE "Somebody to Love" PERFORMER "Jefferson Airplane" ISRC USRC10100774 INDEX 00 03:58:06FILE "17 - Jefferson Airplane - Somebody to Love.wav" WAVE INDEX 01 00:00:00 TRACK 18 AUDIO TITLE "Nothing's Gonna Stop Us Now" PERFORMER "Starship" ISRC USRC18702968 INDEX 00 02:56:33FILE "18 - Starship - Nothing's Gonna Stop Us Now.wav" WAVE INDEX 01 00:00:00

Лог проверки качества

-----------------------
DON'T MODIFY THIS FILE
-----------------------
PERFORMER: auCDtect Task Manager, ver. 1.5.1RC6 build 1.5.1.7Copyright (c) 2008-2010 y-soft. All rights reservedhttp://y-soft.org
ANALYZER: auCDtect: CD records authenticity detector, version 0.8.2Copyright (c) 2004 Oleg Berngardt. All rights reserved.Copyright (c) 2004 Alexander Djourik. All rights reserved.
FILE: 01 - Judy Garland - Over the Rainbow.flac Size: 6961455 Hash: 322235E7F1F0028CFD5B19D9448DF227 Accuracy: -m8 Conclusion: CDDA 100% Signature: 8070946797C896E7AD5293C14B058C93EFB8B4FAFILE: 02 - Gene Kelly With The M-G-M Studio Orchestra - Singin' in the Rain.flac Size: 21867153 Hash: EFC2465994FCC81AF551039C5006FB26 Accuracy: -m8 Conclusion: CDDA 100% Signature: DDA2134C6DBDCF4DB7C502468FA88AA05C042729FILE: 03 - Peter Nero - Raindrops Keep Fallin' on my Head.flac Size: 15616337 Hash: 12DAC33F71A05C1948C876ACED26B112 Accuracy: -m8 Conclusion: CDDA 100% Signature: 89A3037A44A73DF9FF8D9DD3FCCC6234281409D3FILE: 04 - Henry Mancini & His Orchestra and Chorus - Moon River.flac Size: 17542606 Hash: 4CB92A572E8B5DE9AFCA6093EBA41C87 Accuracy: -m8 Conclusion: CDDA 100% Signature: 8DC0D885417CE43927FC608245F9BEBBC262320EFILE: 05 - Andy Williams - Speak Softly Love.flac Size: 20497922 Hash: 50BC771EF377A735DD61587671D5F87A Accuracy: -m8 Conclusion: CDDA 100% Signature: 7106038EDED001FF403E958D561BF6D04B0A3A2FFILE: 06 - Bobby Vinton - Blue Velvet.flac Size: 16030876 Hash: 636066E945CEBB77024C1C009A23F217 Accuracy: -m8 Conclusion: CDDA 100% Signature: E2B6A8109E518A9E9A9A6A53F7D78342855C55BBFILE: 07 - Maurice Williams & The Zodiacs - Stay.flac Size: 7880154 Hash: 1792EDA7939D2039E24E84211E984AC3 Accuracy: -m8 Conclusion: CDDA 99% Signature: 6B63305CCF308356B32739B381E7F1FE87A3940CFILE: 08 - The Statler Brothers - Flowers on the Wall.flac Size: 13742116 Hash: 7DEE42B36E98FEBF18B97F4ECC280AE6 Accuracy: -m8 Conclusion: CDDA 100% Signature: 2B24BA0C0412FF74621D8D707982283EBEE04BE4FILE: 09 - Harry Nilsson - Everybody's Talkin'.flac Size: 17956715 Hash: 460E50A3E53654C173CEC61838117452 Accuracy: -m8 Conclusion: CDDA 100% Signature: 4CE15AF49BEB989651E555A00F79421166339047FILE: 10 - The Byrds - Ballad of Easy Rider.flac Size: 14898357 Hash: 3BE00E2F8D38218A358A163008E3D5EF Accuracy: -m8 Conclusion: CDDA 100% Signature: 4D6059F5992D8CCB0BA77D32572D0832158323F9FILE: 11 - Bob Dylan - Things Have Changed.flac Size: 37698692 Hash: A5D515A343E4D298E6B081DB7BCD2849 Accuracy: -m8 Conclusion: CDDA 100% Signature: 22E07D3966C04FC67DD57F31D493BB13FAD83032FILE: 12 - Gipsy Kings - Hotel California.flac Size: 42513695 Hash: BE5C882E5164B5701B23DB432C92B8FC Accuracy: -m8 Conclusion: CDDA 100% Signature: 0CE16302A76C3294E38EC8980BDDA7D95B31997DFILE: 13 - Jimmy Cliff - I Can See Clearly Now.flac Size: 22530389 Hash: C9F60A63F2C53C5BDEA33A2029BB06B0 Accuracy: -m8 Conclusion: CDDA 100% Signature: 6937BF02DBAA1E13088BECCA2AE23AC624A898CDFILE: 14 - Bill Withers - Ain't No Sunshine.flac Size: 13792883 Hash: E24AB5072A6965A3E4EC5F46C76DDBC3 Accuracy: -m8 Conclusion: CDDA 100% Signature: D08BD50B9CE84921EF0F1102524E8A2EE28434DCFILE: 15 - Anastacia - Love Is a Crime.flac Size: 25649843 Hash: 3BA7B5D32EDBE26622F5269FFF61E49F Accuracy: -m8 Conclusion: CDDA 100% Signature: E5718B66AB1A274E3C57E57224C95329C231E3A0FILE: 16 - Amerie - 1 Thing.flac Size: 29304977 Hash: F582864539C9B2EB6B49430B9FA0079E Accuracy: -m8 Conclusion: CDDA 99% Signature: 43542E1AE1DF10267E6A630DF934672BDD35DCDBFILE: 17 - Jefferson Airplane - Somebody to Love.flac Size: 17713199 Hash: 2834D08C3864F100DB64F44521937579 Accuracy: -m8 Conclusion: CDDA 43% Signature: 199ED879130C445EEE5E27D85D1C879F9341333FFILE: 18 - Starship - Nothing's Gonna Stop Us Now.flac Size: 35256587 Hash: 7DB7CF8480E487E652631DD830DD1504 Accuracy: -m8 Conclusion: CDDA 100% Signature: DAB6E91F019EE4C30EE5FA2709940C6163E9A984

Динамический диапазон

foobar2000 1.3.8 / Dynamic Range Meter 1.1.1log date: 2015-08-26 04:09:40
--------------------------------------------------------------------------------Analyzed: Amerie / Ultimate... Movies (Great Hits From The Movies) (1) Anastacia / Ultimate... Movies (Great Hits From The Movies) (2) Andy Williams / Ultimate... Movies (Great Hits From The Movies) (3) Bill Withers / Ultimate... Movies (Great Hits From The Movies) (4) Bob Dylan / Ultimate... Movies (Great Hits From The Movies) (5) Bobby Vinton / Ultimate... Movies (Great Hits From The Movies) (6) Gene Kelly With The M-G-M Studio Orchestra / Ultimate... Movies (Great Hits From The Movies) (7) Gipsy Kings / Ultimate... Movies (Great Hits From The Movies) (8) Harry Nilsson / Ultimate... Movies (Great Hits From The Movies) (9) Henry Mancini & His Orchestra and Chorus / Ultimate... Movies (Great Hits From The Movies) (10) Jefferson Airplane / Ultimate... Movies (Great Hits From The Movies) (11) Jimmy Cliff / Ultimate... Movies (Great Hits From The Movies) (12) Judy Garland / Ultimate... Movies (Great Hits From The Movies) (13) Maurice Williams & The Zodiacs / Ultimate... Movies (Great Hits From The Movies) (14) Peter Nero / Ultimate... Movies (Great Hits From The Movies) (15) Starship / Ultimate... Movies (Great Hits From The Movies) (16) The Byrds / Ultimate... Movies (Great Hits From The Movies) (17) The Statler Brothers / Ultimate... Movies (Great Hits From The Movies) (18)--------------------------------------------------------------------------------
DR Peak RMS Duration Track--------------------------------------------------------------------------------DR7 -1.50 dB -10.57 dB 4:00 16-1 ThingDR8 -0.02 dB -9.86 dB 3:21 15-Love Is A CrimeDR9 -0.14 dB -11.44 dB 3:03 05-Speak Softly LoveDR9 -0.12 dB -10.50 dB 2:04 14-Ain't No SunshineDR8 -1.40 dB -11.06 dB 5:09 11-Things Have ChangedDR10 -0.10 dB -12.40 dB 2:48 06-Blue VelvetDR13 -0.02 dB -16.96 dB 4:17 02-Singin' In The RainDR8 -0.38 dB -9.85 dB 5:48 12-Hotel CaliforniaDR9 -0.02 dB -11.90 dB 2:46 09-Everybody's Talkin'DR9 -0.13 dB -11.37 dB 2:43 04-Moon RiverDR10 -0.12 dB -11.75 dB 2:58 17-Somebody To LoveDR10 -0.02 dB -11.45 dB 3:16 13-I Can See Clearly NowDR13 -0.02 dB -19.91 dB 2:47 01-Over The RainbowDR9 -0.10 dB -10.58 dB 1:40 07-StayDR9 -0.51 dB -12.37 dB 2:44 03-Raindrops Keep Fallin' On My HeadDR8 -0.81 dB -11.12 dB 4:31 18-Nothing's Gonna Stop Us NowDR10 -0.11 dB -11.59 dB 2:04 10-Ballad Of Easy RiderDR10 -0.11 dB -11.15 dB 2:20 08-Flowers On The Wall--------------------------------------------------------------------------------
Number of tracks: 18Official DR value: DR9
Samplerate: 44100 HzChannels: 2Bits per sample: 16Bitrate: 778 kbpsCodec: FLAC================================================================================

CD 4 [01:11:38]

01. Henry Mancini & His Orchestra - The Pink Panther Theme [2:39]
02. Jamiroquai - Deeper Underground [3:35]
03. Boy Meets Girl - Waiting For A Star To Fall [4:34]
04. R. Kelly - I Believe I Can Fly [4:44]
05. Another Level - From The Heart [4:53]
06. Train - To Be Loved [3:43]
07. The Calling - Wherever You Will Go [3:29]
08. Electric Light Orchestra - Livin' Thing [3:32]
09. Lou Reed - Perfect Day [3:44]
10. The Psychedelic Furs - Pretty In Pink [4:38]
11. Alice Cooper - Feed My Frankenstein [4:46]
12. Journey - Only Solutions [3:37]
13. Daryl Hall & John Oates - Maneater [4:32]
14. Backstreet Boys - Everybody (Backstreet's Back) [4:47]
15. Wham - Wake Me Up Before You Go-Go [3:53]
16. A Flock of Seagulls - I Ran [3:41]
17. Herbie Hancock - Rockit [3:22]
18. Apollo 440 - Lost in Space (Theme) [3:26]

Лог создания рипа

Exact Audio Copy V1.0 beta 4 from 7. December 2014
EAC extraction logfile from 21. July 2015, 19:42
Various Artists / Ultimate Movies: 4CDs of Great Hits from the Movies (Disc 4)
Used drive : TSSTcorpCDDVDW SN-208FB Adapter: 1 ID: 0
Read mode : SecureUtilize accurate stream : YesDefeat audio cache : YesMake use of C2 pointers : No
Read offset correction : 6Overread into Lead-In and Lead-Out : NoFill up missing offset samples with silence : YesDelete leading and trailing silent blocks : NoNull samples used in CRC calculations : YesUsed interface : Native Win32 interface for Win NT & 2000Gap handling : Appended to previous track
Used output format : User Defined EncoderSelected bitrate : 1024 kBit/sQuality : HighAdd ID3 tag : NoCommand line compressor : C:\Program Files (x86)\Kodeki za Glasbo\FLAC\flac.exeAdditional command line options : -8 -V -T "ARTIST=%artist%" -T "TITLE=%title%" -T "ALBUM=%albumtitle%" -T "DATE=%year%" -T "TRACKNUMBER=%tracknr%" -T "TOTALTRACKS=%numtracks%" -T "GENRE=%genre%" -T "ALBUMARTIST=%albumartist%" -T "ALBUM ARTIST=%albumartist%" -T "COMMENT=EAC Secure Mode, Test & Copy, AccurateRip, FLAC -8" %source%
TOC of the extracted CD
Track | Start | Length | Start sector | End sector --------------------------------------------------------- 1 | 0:00.00 | 2:39.28 | 0 | 11952 2 | 2:39.28 | 3:35.19 | 11953 | 28096 3 | 6:14.47 | 4:33.74 | 28097 | 48645 4 | 10:48.46 | 4:43.60 | 48646 | 69930 5 | 15:32.31 | 4:53.30 | 69931 | 91935 6 | 20:25.61 | 3:42.72 | 91936 | 108657 7 | 24:08.58 | 3:28.46 | 108658 | 124303 8 | 27:37.29 | 3:32.36 | 124304 | 140239 9 | 31:09.65 | 3:44.27 | 140240 | 157066 10 | 34:54.17 | 4:38.28 | 157067 | 177944 11 | 39:32.45 | 4:45.39 | 177945 | 199358 12 | 44:18.09 | 3:37.23 | 199359 | 215656 13 | 47:55.32 | 4:32.26 | 215657 | 236082 14 | 52:27.58 | 4:47.35 | 236083 | 257642 15 | 57:15.18 | 3:53.14 | 257643 | 275131 16 | 61:08.32 | 3:41.28 | 275132 | 291734 17 | 64:49.60 | 3:22.30 | 291735 | 306914 18 | 68:12.15 | 3:26.33 | 306915 | 322397
Track 1
Filename M:\4. my rip in preparation\3 - in treatment\1\CD4\01 - Henry Mancini & His Orchestra - The Pink Panther Theme.wav
Pre-gap length 0:00:02.00
Peak level 98.8 % Extraction speed 0.8 X Track quality 99.9 % Test CRC 33BD26DE Copy CRC 33BD26DE Track not present in AccurateRip database Copy OK
Track 2
Filename M:\4. my rip in preparation\3 - in treatment\1\CD4\02 - Jamiroquai - Deeper Underground.wav
Pre-gap length 0:00:01.77
Peak level 99.7 % Extraction speed 1.1 X Track quality 100.0 % Test CRC 973C9291 Copy CRC 973C9291 Track not present in AccurateRip database Copy OK
Track 3
Filename M:\4. my rip in preparation\3 - in treatment\1\CD4\03 - Boy Meets Girl - Waiting for a Star to Fall.wav
Pre-gap length 0:00:01.77
Peak level 83.9 % Extraction speed 1.2 X Track quality 100.0 % Test CRC 1FDD1E29 Copy CRC 1FDD1E29 Track not present in AccurateRip database Copy OK
Track 4
Filename M:\4. my rip in preparation\3 - in treatment\1\CD4\04 - R. Kelly - I Believe I Can Fly.wav
Pre-gap length 0:00:01.77
Peak level 98.8 % Extraction speed 1.3 X Track quality 100.0 % Test CRC C3BCB053 Copy CRC C3BCB053 Track not present in AccurateRip database Copy OK
Track 5
Filename M:\4. my rip in preparation\3 - in treatment\1\CD4\05 - Another Level - From the Heart.wav
Pre-gap length 0:00:01.77
Peak level 98.8 % Extraction speed 1.4 X Track quality 100.0 % Test CRC 104A5738 Copy CRC 104A5738 Track not present in AccurateRip database Copy OK
Track 6
Filename M:\4. my rip in preparation\3 - in treatment\1\CD4\06 - Train - To Be Loved.wav
Pre-gap length 0:00:01.77
Peak level 84.1 % Extraction speed 1.4 X Track quality 100.0 % Test CRC 5EC1B9D2 Copy CRC 5EC1B9D2 Track not present in AccurateRip database Copy OK
Track 7
Filename M:\4. my rip in preparation\3 - in treatment\1\CD4\07 - The Calling - Wherever You Will Go.wav
Pre-gap length 0:00:01.77
Peak level 99.7 % Extraction speed 1.5 X Track quality 100.0 % Test CRC 4262307D Copy CRC 4262307D Track not present in AccurateRip database Copy OK
Track 8
Filename M:\4. my rip in preparation\3 - in treatment\1\CD4\08 - Electric Light Orchestra - Livin' Thing.wav
Pre-gap length 0:00:01.77
Peak level 98.7 % Extraction speed 1.3 X Track quality 99.9 % Test CRC 862061E3 Copy CRC 862061E3 Track not present in AccurateRip database Copy OK
Track 9
Filename M:\4. my rip in preparation\3 - in treatment\1\CD4\09 - Lou Reed - Perfect Day.wav
Pre-gap length 0:00:01.77
Peak level 98.5 % Extraction speed 1.6 X Track quality 100.0 % Test CRC FCEA8777 Copy CRC FCEA8777 Track not present in AccurateRip database Copy OK
Track 10
Filename M:\4. my rip in preparation\3 - in treatment\1\CD4\10 - The Psychedelic Furs - Pretty in Pink.wav
Pre-gap length 0:00:01.77
Peak level 98.5 % Extraction speed 1.7 X Track quality 100.0 % Test CRC 0B1ED5C8 Copy CRC 0B1ED5C8 Track not present in AccurateRip database Copy OK
Track 11
Filename M:\4. my rip in preparation\3 - in treatment\1\CD4\11 - Alice Cooper - Feed my Frankenstein.wav
Pre-gap length 0:00:01.77
Peak level 97.2 % Extraction speed 1.5 X Track quality 99.9 % Test CRC D6B10444 Copy CRC D6B10444 Track not present in AccurateRip database Copy OK
Track 12
Filename M:\4. my rip in preparation\3 - in treatment\1\CD4\12 - Journey - Only Solutions.wav
Pre-gap length 0:00:01.77
Peak level 96.6 % Extraction speed 1.7 X Track quality 100.0 % Test CRC BC96B147 Copy CRC BC96B147 Track not present in AccurateRip database Copy OK
Track 13
Filename M:\4. my rip in preparation\3 - in treatment\1\CD4\13 - Daryl Hall & John Oates - Maneater.wav
Pre-gap length 0:00:01.77
Peak level 97.0 % Extraction speed 1.8 X Track quality 100.0 % Test CRC 07F261E3 Copy CRC 07F261E3 Track not present in AccurateRip database Copy OK
Track 14
Filename M:\4. my rip in preparation\3 - in treatment\1\CD4\14 - Backstreet Boys - Everybody (Backstreet's Back).wav
Pre-gap length 0:00:01.77
Peak level 98.8 % Extraction speed 1.7 X Track quality 99.9 % Test CRC 6E8BFEBD Copy CRC 6E8BFEBD Track not present in AccurateRip database Copy OK
Track 15
Filename M:\4. my rip in preparation\3 - in treatment\1\CD4\15 - Wham - Wake Me Up Before You Go-Go.wav
Pre-gap length 0:00:01.77
Peak level 88.1 % Extraction speed 1.8 X Track quality 100.0 % Test CRC FADC4715 Copy CRC FADC4715 Track not present in AccurateRip database Copy OK
Track 16
Filename M:\4. my rip in preparation\3 - in treatment\1\CD4\16 - A Flock of Seagulls - I Ran.wav
Pre-gap length 0:00:01.77
Peak level 98.8 % Extraction speed 1.9 X Track quality 100.0 % Test CRC 4CE286CF Copy CRC 4CE286CF Track not present in AccurateRip database Copy OK
Track 17
Filename M:\4. my rip in preparation\3 - in treatment\1\CD4\17 - Herbie Hancock - Rockit.wav
Pre-gap length 0:00:01.77
Peak level 99.7 % Extraction speed 1.9 X Track quality 100.0 % Test CRC 6C5D00DC Copy CRC 6C5D00DC Track not present in AccurateRip database Copy OK
Track 18
Filename M:\4. my rip in preparation\3 - in treatment\1\CD4\18 - Apollo 440 - Lost in Space (Theme).wav
Pre-gap length 0:00:01.77
Peak level 99.7 % Extraction speed 1.9 X Track quality 100.0 % Test CRC B137DB21 Copy CRC B137DB21 Track not present in AccurateRip database Copy OK
None of the tracks are present in the AccurateRip database
No errors occurred
End of status report
---- CUETools DB Plugin V2.1.4
[CTDB TOCID: 5Tnp_hssKNd0cHNmT.xT2GqmuNQ-] disk not present in databaseSubmit result: 5Tnp_hssKNd0cHNmT.xT2GqmuNQ- has been uploaded
==== Log checksum 94949BAAFBE01DD55F4618A53C41FFD596070C21F7CBA3177832788AE7873D22 ====

Содержание индексной карты (.CUE)

REM GENRE "Pop Rock"REM DATE 2015REM DISCID 1110CA12REM COMMENT "ExactAudioCopy v1.0b4"CATALOG 0888750858221PERFORMER "Various Artists"TITLE "Ultimate Movies: 4CDs of Great Hits from the Movies (Disc 4)"FILE "01 - Henry Mancini & His Orchestra - The Pink Panther Theme.wav" WAVE TRACK 01 AUDIO TITLE "The Pink Panther Theme" PERFORMER "Henry Mancini & His Orchestra" ISRC USRC16302654 INDEX 01 00:00:00 TRACK 02 AUDIO TITLE "Deeper Underground" PERFORMER "Jamiroquai" ISRC GBBBL9802020 INDEX 00 02:37:45FILE "02 - Jamiroquai - Deeper Underground.wav" WAVE INDEX 01 00:00:00 TRACK 03 AUDIO TITLE "Waiting for a Star to Fall" PERFORMER "Boy Meets Girl" ISRC USRC18805429 INDEX 00 03:33:36FILE "03 - Boy Meets Girl - Waiting for a Star to Fall.wav" WAVE INDEX 01 00:00:00 TRACK 04 AUDIO TITLE "I Believe I Can Fly" PERFORMER "R. Kelly" ISRC GBAHK9600240 INDEX 00 04:32:16FILE "04 - R. Kelly - I Believe I Can Fly.wav" WAVE INDEX 01 00:00:00 TRACK 05 AUDIO TITLE "From the Heart" PERFORMER "Another Level" ISRC GBCHT9900018 INDEX 00 04:42:02FILE "05 - Another Level - From the Heart.wav" WAVE INDEX 01 00:00:00 TRACK 06 AUDIO TITLE "To Be Loved" PERFORMER "Train" ISRC USSM11104710 INDEX 00 04:51:47FILE "06 - Train - To Be Loved.wav" WAVE INDEX 01 00:00:00 TRACK 07 AUDIO TITLE "Wherever You Will Go" PERFORMER "The Calling" ISRC USRC10001047 INDEX 00 03:41:14FILE "07 - The Calling - Wherever You Will Go.wav" WAVE INDEX 01 00:00:00 TRACK 08 AUDIO TITLE "Livin' Thing" PERFORMER "Electric Light Orchestra" ISRC USSM19802729 INDEX 00 03:26:63FILE "08 - Electric Light Orchestra - Livin' Thing.wav" WAVE INDEX 01 00:00:00 TRACK 09 AUDIO TITLE "Perfect Day" PERFORMER "Lou Reed" ISRC USRC17201946 INDEX 00 03:30:53FILE "09 - Lou Reed - Perfect Day.wav" WAVE INDEX 01 00:00:00 TRACK 10 AUDIO TITLE "Pretty in Pink" PERFORMER "The Psychedelic Furs" ISRC GBBBN8602005 INDEX 00 03:42:44FILE "10 - The Psychedelic Furs - Pretty in Pink.wav" WAVE INDEX 01 00:00:00 TRACK 11 AUDIO TITLE "Feed my Frankenstein" PERFORMER "Alice Cooper" ISRC USSM19100028 INDEX 00 04:36:45FILE "11 - Alice Cooper - Feed my Frankenstein.wav" WAVE INDEX 01 00:00:00 TRACK 12 AUDIO TITLE "Only Solutions" PERFORMER "Journey" ISRC USSM10015430 INDEX 00 04:43:56FILE "12 - Journey - Only Solutions.wav" WAVE INDEX 01 00:00:00 TRACK 13 AUDIO TITLE "Maneater" PERFORMER "Daryl Hall & John Oates" ISRC USRC10301821 INDEX 00 03:35:40FILE "13 - Daryl Hall & John Oates - Maneater.wav" WAVE INDEX 01 00:00:00 TRACK 14 AUDIO TITLE "Everybody (Backstreet's Back)" PERFORMER "Backstreet Boys" ISRC USJI19710084 INDEX 00 04:30:43FILE "14 - Backstreet Boys - Everybody (Backstreet's Back).wav" WAVE INDEX 01 00:00:00 TRACK 15 AUDIO TITLE "Wake Me Up Before You Go-Go" PERFORMER "Wham" ISRC GBBBM8400002 INDEX 00 04:45:52FILE "15 - Wham - Wake Me Up Before You Go-Go.wav" WAVE INDEX 01 00:00:00 TRACK 16 AUDIO TITLE "I Ran" PERFORMER "A Flock of Seagulls" ISRC GBAHK0500042 INDEX 00 03:51:31FILE "16 - A Flock of Seagulls - I Ran.wav" WAVE INDEX 01 00:00:00 TRACK 17 AUDIO TITLE "Rockit" PERFORMER "Herbie Hancock" ISRC USSM19913332 INDEX 00 03:39:45FILE "17 - Herbie Hancock - Rockit.wav" WAVE INDEX 01 00:00:00 TRACK 18 AUDIO TITLE "Lost in Space (Theme)" PERFORMER "Apollo 440" ISRC GBBBM9802015 INDEX 00 03:20:47FILE "18 - Apollo 440 - Lost in Space (Theme).wav" WAVE INDEX 01 00:00:00

Лог проверки качества

-----------------------
DON'T MODIFY THIS FILE
-----------------------
PERFORMER: auCDtect Task Manager, ver. 1.5.1RC6 build 1.5.1.7Copyright (c) 2008-2010 y-soft. All rights reservedhttp://y-soft.org
ANALYZER: auCDtect: CD records authenticity detector, version 0.8.2Copyright (c) 2004 Oleg Berngardt. All rights reserved.Copyright (c) 2004 Alexander Djourik. All rights reserved.
FILE: 01 - Henry Mancini & His Orchestra - The Pink Panther Theme.flac Size: 17799994 Hash: 87A3D379885A326EED270B7AAFAAA53A Accuracy: -m8 Conclusion: CDDA 100% Signature: F20154300A8FAC0574A299C36578EDDEA19B2DECFILE: 02 - Jamiroquai - Deeper Underground.flac Size: 26545375 Hash: 1FD843A44E5EFB573AC96E03FAA21982 Accuracy: -m8 Conclusion: CDDA 100% Signature: EA7AE69F99FBEC400EA852CC5DA38C8CFEBEA992FILE: 03 - Boy Meets Girl - Waiting for a Star to Fall.flac Size: 35389874 Hash: 3B17B91BB6572837662F550638443B73 Accuracy: -m8 Conclusion: CDDA 99% Signature: 2A7B2DECAA83AAD2D8AF44507701CEEDC060F6C1FILE: 04 - R. Kelly - I Believe I Can Fly.flac Size: 32345545 Hash: 71DAA593C32ACA7B8D8CE7A79AC53B6E Accuracy: -m8 Conclusion: CDDA 100% Signature: 6DED4D76C26FE97828A86207DCA343412CC795C0FILE: 05 - Another Level - From the Heart.flac Size: 35480371 Hash: 8B68C40E3EFA6446C5380796B47A9240 Accuracy: -m8 Conclusion: CDDA 100% Signature: 935772213A7C32E487D6A169DE955F1012244743FILE: 06 - Train - To Be Loved.flac Size: 28457812 Hash: 22418789033D680B47E7F76990E2A5E8 Accuracy: -m8 Conclusion: CDDA 100% Signature: 7AD8F2F036F6C340B829EAB5E17EFF1916EEE457FILE: 07 - The Calling - Wherever You Will Go.flac Size: 27486022 Hash: DBF6BA4EF77E314D899AF1EA1A61306D Accuracy: -m8 Conclusion: CDDA 99% Signature: FB303C3CF339994A7ECB83308BE3A45DE1574046FILE: 08 - Electric Light Orchestra - Livin' Thing.flac Size: 26189836 Hash: 57DE1E755F71B0D06E987D5639DA9CBD Accuracy: -m8 Conclusion: CDDA 100% Signature: 62BA93DB4242C0D875718B779D97609599158891FILE: 09 - Lou Reed - Perfect Day.flac Size: 22719047 Hash: 7BB6682A9B927E8C7474BFB3C3ADACD4 Accuracy: -m8 Conclusion: CDDA 100% Signature: A1BA228B98CEA8876679391A58BF5B60BBFB4DC4FILE: 10 - The Psychedelic Furs - Pretty in Pink.flac Size: 35028857 Hash: 6611D89993CBDD73C49D84BD9E798BEE Accuracy: -m8 Conclusion: CDDA 100% Signature: E4DDAE7D3B09A00F009366915496C0481E573273FILE: 11 - Alice Cooper - Feed my Frankenstein.flac Size: 36464497 Hash: 025F01E500D0B7371EB1E0E870C5BBE8 Accuracy: -m8 Conclusion: CDDA 100% Signature: F197CA15383FB1AD5274AEAE8EC18C7E532FF8DAFILE: 12 - Journey - Only Solutions.flac Size: 26634041 Hash: 96558D69F19C7E5DADF109FCAAE96D8E Accuracy: -m8 Conclusion: CDDA 100% Signature: DD05480CD59412599B7CFFCB9A4E3C0CA0C22C12FILE: 13 - Daryl Hall & John Oates - Maneater.flac Size: 30070609 Hash: A83D9815C37FFBA8E219A1764A51E943 Accuracy: -m8 Conclusion: CDDA 100% Signature: 54964318790B1C81CEEEFAE715C091E212ACD582FILE: 14 - Backstreet Boys - Everybody (Backstreet's Back).flac Size: 33822710 Hash: E426451E90FD4D97E094414A926EC03B Accuracy: -m8 Conclusion: CDDA 99% Signature: 7BDCFFD470F0E26AA53009AB001CEAEA980F04AFFILE: 15 - Wham - Wake Me Up Before You Go-Go.flac Size: 31505590 Hash: 968756C9F41A555C057C5E5869C7A9A9 Accuracy: -m8 Conclusion: CDDA 100% Signature: 9F5793DCEB0AC98783D6F57F563E4F5339256FC6FILE: 16 - A Flock of Seagulls - I Ran.flac Size: 25914137 Hash: 399D9B62313641709C1C6B10B27FDE40 Accuracy: -m8 Conclusion: CDDA 100% Signature: 91619387EDE45B0C89100B76BC3CE1C02E1C6938FILE: 17 - Herbie Hancock - Rockit.flac Size: 24636392 Hash: A3D003EC4F5F8AF45997A77C90ECC793 Accuracy: -m8 Conclusion: CDDA 100% Signature: B7716671A825C684992279F1540F31497B703F8DFILE: 18 - Apollo 440 - Lost in Space (Theme).flac Size: 26356809 Hash: 178E893C259639B1FDB188418B6B6F21 Accuracy: -m8 Conclusion: CDDA 100% Signature: BC0BC78291B9A26651D15C9C0B3979F3171EAD74

Динамический диапазон

foobar2000 1.3.8 / Dynamic Range Meter 1.1.1log date: 2015-08-26 04:10:31
--------------------------------------------------------------------------------Analyzed: A Flock of Seagulls / Ultimate... Movies (Great Hits From The Movies) (1) Alice Cooper / Ultimate... Movies (Great Hits From The Movies) (2) Another Level / Ultimate... Movies (Great Hits From The Movies) (3) Apollo 440 / Ultimate... Movies (Great Hits From The Movies) (4) Backstreet Boys / Ultimate... Movies (Great Hits From The Movies) (5) Boy Meets Girl / Ultimate... Movies (Great Hits From The Movies) (6) Daryl Hall & John Oates / Ultimate... Movies (Great Hits From The Movies) (7) Electric Light Orchestra / Ultimate... Movies (Great Hits From The Movies) (8) Henry Mancini & His Orchestra / Ultimate... Movies (Great Hits From The Movies) (9) Herbie Hancock / Ultimate... Movies (Great Hits From The Movies) (10) Jamiroquai / Ultimate... Movies (Great Hits From The Movies) (11) Journey / Ultimate... Movies (Great Hits From The Movies) (12) Lou Reed / Ultimate... Movies (Great Hits From The Movies) (13) R. Kelly / Ultimate... Movies (Great Hits From The Movies) (14) The Calling / Ultimate... Movies (Great Hits From The Movies) (15) The Psychedelic Furs / Ultimate... Movies (Great Hits From The Movies) (16) Train / Ultimate... Movies (Great Hits From The Movies) (17) Wham / Ultimate... Movies (Great Hits From The Movies) (18)--------------------------------------------------------------------------------
DR Peak RMS Duration Track--------------------------------------------------------------------------------DR7 -0.10 dB -8.54 dB 3:41 16-I RanDR11 -0.24 dB -12.16 dB 4:46 11-Feed My FrankensteinDR8 -0.10 dB -10.72 dB 4:53 05-From The HeartDR8 -0.02 dB -9.96 dB 3:26 18-Lost in Space (Theme)DR8 -0.10 dB -10.15 dB 4:47 14-Everybody (Backstreet's Back)DR8 -1.52 dB -10.56 dB 4:34 03-Waiting For A Star To FallDR10 -0.26 dB -11.11 dB 4:32 13-ManeaterDR9 -0.11 dB -11.73 dB 3:32 08-Livin' ThingDR9 -0.10 dB -11.05 dB 2:39 01-The Pink Panther ThemeDR9 -0.02 dB -10.68 dB 3:22 17-RockitDR7 -0.02 dB -8.09 dB 3:35 02-Deeper UndergroundDR9 -0.29 dB -11.09 dB 3:37 12-Only SolutionsDR8 -0.13 dB -12.42 dB 3:44 09-Perfect DayDR8 -0.10 dB -9.67 dB 4:44 04-I Believe I Can FlyDR8 -0.02 dB -9.50 dB 3:29 07-Wherever You Will GoDR10 -0.13 dB -11.06 dB 4:38 10-Pretty In PinkDR6 -1.50 dB -8.71 dB 3:43 06-To Be LovedDR5 -1.10 dB -6.91 dB 3:53 15-Wake Me Up Before You Go-Go--------------------------------------------------------------------------------
Number of tracks: 18Official DR value: DR8
Samplerate: 44100 HzChannels: 2Bits per sample: 16Bitrate: 1077 kbpsCodec: FLAC================================================================================
[teatrix.ru].t10307.torrent 
Торрент: Зарегистрирован [ 2015-11-01 20:51 ] · 0A2B80521D6BDA5768DF46AA809F124F6F2D7F8E

Скачать .torrent

Скачать

45 KB

Статус: проверено
Скачан: 1 раз
Размер: 1.8 GB
terms.php



Быстрый ответ

Имя:

      
Для отправки сообщений необходимо включить JavaScript
Показать сообщения:    

Текущее время: 10-Дек 06:06

Часовой пояс: UTC + 3


Вы можете начинать темы
Вы можете отвечать на сообщения
Вы не можете редактировать свои сообщения
Вы не можете удалять свои сообщения
Вы не можете голосовать в опросах
Вы не можете прикреплять файлы к сообщениям
Вы можете скачивать файлы